<?xml version="1.0" standalone="no"?>
<!DOCTYPE svg PUBLIC "-//W3C//DTD SVG 1.1//EN" "http://www.w3.org/Graphics/SVG/1.1/DTD/svg11.dtd" >
<svg xmlns="http://www.w3.org/2000/svg">
<metadata></metadata>
<defs>
<font id="agendabold" horiz-adv-x="768" >
<font-face units-per-em="2048" ascent="1638" descent="-410" />
<missing-glyph horiz-adv-x="397" />
<glyph horiz-adv-x="2048" />
<glyph horiz-adv-x="2048" />
<glyph horiz-adv-x="682" />
<glyph d="M141 1104l95 113q2 -2 14 -10.5t32.5 -17.5t47 -16.5t55.5 -7.5q27 0 52.5 7.5t46 16.5t32.5 17t12 11l97 -113q0 -2 -19.5 -17.5t-51.5 -33t-76 -31.5t-93 -14q-51 0 -95 14t-77 31.5t-52.5 33t-19.5 17.5z" />
<glyph d="M256 1145q0 16 14.5 39.5t34 45t42 37t38.5 15.5q14 0 36.5 -15.5t42 -37t34 -45t14.5 -39.5t-14.5 -40t-34 -45.5t-42 -36.5t-36.5 -15q-16 0 -38.5 15t-42 36.5t-34 45t-14.5 40.5z" />
<glyph d="M164 1214q0 49 17.5 92.5t47 76t69.5 51t87 18.5q45 0 85 -18.5t69.5 -51t47 -76t17.5 -92.5t-17.5 -92t-47 -75.5t-69.5 -51t-85 -18.5q-47 0 -87 18.5t-69.5 51t-47 75.5t-17.5 92zM287 1214q0 -53 27.5 -86.5t70.5 -33.5q41 0 69.5 33.5t28.5 86.5t-28.5 87t-69.5 34 q-43 0 -70.5 -33.5t-27.5 -87.5z" />
<glyph unicode="&#xa;" d="M53 1044q74 66 141.5 157t108.5 183l105 -116q-45 -90 -94.5 -148.5t-110.5 -111.5zM367 1044q74 66 140 157t107 183l109 -116q-45 -90 -94 -148.5t-113 -111.5z" />
<glyph d="M227 -264q0 45 15.5 86t40 75.5t55.5 60.5t61 42h158q-78 -47 -134 -110.5t-56 -135.5q0 -37 23.5 -58.5t60.5 -21.5q66 0 108 35l-18 -125q-20 -16 -52 -25.5t-73 -9.5q-82 0 -135.5 50.5t-53.5 136.5z" />
<glyph d="M121 1253l108 113q43 -23 81 -51.5t75 -73.5q35 47 72 74.5t80 50.5l108 -113q-70 -35 -140.5 -103.5t-119.5 -160.5q-53 92 -122.5 161t-141.5 103z" />
<glyph unicode="&#xd;" horiz-adv-x="397" />
<glyph horiz-adv-x="999" d="M29 49l821 1288l121 -77l-821 -1291z" />
<glyph horiz-adv-x="999" d="M20 705v223h119v43q0 215 111.5 333.5t310.5 118.5q59 0 107.5 -12t76.5 -29l-16 -229q-25 16 -60.5 28.5t-82.5 12.5q-94 0 -138.5 -55.5t-44.5 -145.5v-65h498v-928h-268v705h-230v-705h-264v705h-119z" />
<glyph horiz-adv-x="1089" d="M20 705v223h119v22q0 219 125 346t357 127q100 0 189 -29.5t146 -76.5v-1012q0 -61 28 -96t71 -47l-103 -195q-49 6 -96 28.5t-84 62.5t-59.5 96.5t-22.5 130.5v893q-16 10 -41.5 14t-60.5 4q-88 0 -136.5 -61.5t-48.5 -159.5v-47h148l-16 -223h-132v-705h-264v705h-119z " />
<glyph horiz-adv-x="856" d="M-23 604l164 101v602h283v-430l143 88v-236l-143 -88v-397h418v-244h-701v471l-69 -43z" />
<glyph horiz-adv-x="563" d="M-27 604l168 103v702h267v-539l124 78v-235l-124 -76v-336q0 -61 27.5 -97t72.5 -48l-119 -191q-45 6 -89 28.5t-80 62.5t-57.5 96.5t-21.5 130.5v190l-73 -45z" />
<glyph horiz-adv-x="868" d="M33 0v68l276 665q31 76 71 167t75 163l-2 2h-385v242h747v-68l-276 -668q-33 -78 -73 -168t-71 -159l2 -2h437v-242h-801zM176 1663l108 113q43 -23 81 -51.5t75 -73.5q35 47 72 74.5t80 50.5l108 -113q-70 -35 -140.5 -103.5t-119.5 -160.5q-53 92 -122.5 161 t-141.5 103z" />
<glyph horiz-adv-x="737" d="M43 0v51l178 432q23 53 48.5 110.5t49.5 104.5l-2 4h-241v226h586v-51l-181 -437q-23 -53 -47 -106t-51 -105l2 -4h299v-225h-641zM143 1253l93 97q37 -20 69.5 -44t63.5 -63q31 41 61.5 63.5t67.5 43.5l92 -97q-59 -29 -119.5 -87t-101.5 -136q-45 78 -105.5 136.5 t-120.5 86.5z" />
<glyph unicode=" "  horiz-adv-x="397" />
<glyph unicode="&#x09;" horiz-adv-x="397" />
<glyph unicode="&#xa0;" horiz-adv-x="397" />
<glyph unicode="!" horiz-adv-x="475" d="M90 139q0 18 16.5 46t40 53.5t50 44t45.5 18.5q18 0 43.5 -18.5t50 -44t41 -53.5t16.5 -46q0 -20 -16.5 -48t-41 -53.5t-50 -43t-43.5 -17.5t-45 17.5t-50.5 43t-40 53.5t-16.5 48zM98 1366h281l-31 -981l-219 49z" />
<glyph unicode="&#x22;" horiz-adv-x="665" d="M63 1409h211l-41 -553h-131zM393 1409h209l-39 -553h-131z" />
<glyph unicode="#" horiz-adv-x="811" d="M53 406v145h117l37 205h-101v145h132l73 406h156l-74 -406h125l74 406h156l-76 -406h88v-145h-119l-35 -205h99v-145h-132l-75 -406h-154l76 406h-125l-76 -406h-156l74 406h-84zM328 551h121l36 205h-123z" />
<glyph unicode="$" horiz-adv-x="817" d="M63 975q0 135 71 229t200 119v174h141v-168q70 -6 119 -21.5t88 -39.5l-18 -240q-39 29 -98.5 49.5t-123.5 20.5q-55 0 -85.5 -31t-30.5 -78q0 -49 30.5 -92t106.5 -94q139 -96 216 -205t77 -240q0 -150 -70 -250t-211 -124v-174h-141v167q-84 4 -146.5 30t-113.5 63 l18 239q47 -39 109.5 -67.5t146.5 -28.5q66 0 101.5 37t35.5 92q0 59 -33.5 107.5t-113.5 111.5q-135 90 -205 186.5t-70 227.5z" />
<glyph unicode="%" horiz-adv-x="1236" d="M49 1034q0 66 19.5 120t54.5 94t83 61.5t103 21.5t103.5 -21.5t84 -61.5t55 -94t19.5 -120q0 -68 -19.5 -123t-55 -95t-83.5 -61.5t-104 -21.5q-55 0 -103 21.5t-83 61.5t-54.5 95.5t-19.5 122.5zM147 49l822 1288l118 -77l-819 -1291zM227 1034q0 -61 23.5 -102 t58.5 -41t58.5 41t23.5 102t-23.5 100.5t-58.5 39.5t-58.5 -39t-23.5 -101zM666 276q0 66 19.5 120.5t54 94t82.5 61t106 21.5q55 0 103 -21.5t83 -61t54.5 -94t19.5 -120.5q0 -68 -19.5 -123t-54.5 -95t-83 -61.5t-103 -21.5q-115 0 -188.5 83t-73.5 218zM846 276 q0 -61 23.5 -101t58.5 -40q33 0 57.5 40t24.5 101q0 63 -24.5 101.5t-57.5 38.5q-35 0 -58.5 -38t-23.5 -102z" />
<glyph unicode="&#x26;" horiz-adv-x="1079" d="M49 328q0 131 51.5 213t128.5 145q-57 76 -92 152.5t-35 156.5q0 78 28 140.5t73 105.5t103.5 66.5t121.5 23.5q66 0 127 -22.5t108.5 -66.5t76 -107.5t28.5 -145.5q0 -55 -16.5 -104t-44 -93t-61.5 -81t-71 -68l166 -203q35 59 65 123t50 131l162 -174 q-18 -66 -49 -133.5t-74 -132.5l209 -254h-305l-68 82q-66 -47 -144.5 -76t-172.5 -29q-84 0 -151.5 28t-115 75t-73 110.5t-25.5 137.5zM291 328q0 -59 41 -97t94 -38q39 0 78 17t80 46l-203 242q-90 -59 -90 -170zM334 999q0 -37 24.5 -81t65.5 -95q53 41 83 86t30 86 q0 55 -31 94t-76 39q-41 0 -68.5 -37.5t-27.5 -91.5z" />
<glyph unicode="'" horiz-adv-x="337" d="M63 1409h211l-41 -553h-131z" />
<glyph unicode="(" horiz-adv-x="548" d="M66 506q0 276 48 503.5t140 432.5l272 -53q-92 -197 -141 -431.5t-49 -478.5q0 -258 45 -481t141 -447l-272 58q-45 104 -80 206.5t-57.5 210t-34.5 226.5t-12 254z" />
<glyph unicode=")" horiz-adv-x="548" d="M23 -403q90 195 140 429t50 478q0 258 -46 481t-140 449l272 -62q45 -104 79 -205.5t57.5 -209t35.5 -226.5t12 -254q0 -276 -49 -503.5t-141 -432.5z" />
<glyph unicode="*" horiz-adv-x="792" d="M51 1010l25 192l239 -112l-14 270l191 45l-13 -311l201 100l100 -172l-254 -82l146 -215l-133 -145l-142 262l-121 -230l-176 84l170 244z" />
<glyph unicode="+" horiz-adv-x="774" d="M59 463v207h217v243h222v-243h219v-207h-219v-246h-222v246h-217z" />
<glyph unicode="," horiz-adv-x="403" d="M33 -272q51 61 88 137t47 139q-16 2 -35.5 18.5t-38 37t-31 43t-12.5 38.5q0 20 16.5 48t41 52.5t50 42t44.5 17.5q16 0 41.5 -16.5t50 -41t42 -52t17.5 -50.5q0 -43 -20.5 -99t-53 -114.5t-74.5 -115t-85 -99.5z" />
<glyph unicode="-" horiz-adv-x="565" d="M59 463v207h447v-207h-447z" />
<glyph unicode="." horiz-adv-x="403" d="M51 139q0 18 16.5 46t40 53.5t50 44t45.5 18.5q18 0 43.5 -18.5t50.5 -44t41 -53.5t16 -46q0 -20 -16 -48t-41 -53.5t-50.5 -43t-43.5 -17.5t-45 17.5t-50.5 43t-40 53.5t-16.5 48z" />
<glyph unicode="/" horiz-adv-x="1064" d="M39 78l823 1288l164 -113l-823 -1292z" />
<glyph unicode="0" horiz-adv-x="983" d="M61 655q0 168 33 295t89.5 211t135 127t170.5 43t171 -43t136.5 -127t90.5 -211t33 -295q0 -170 -33 -297t-90.5 -212t-136 -128t-171.5 -43q-92 0 -170.5 43t-135 128t-89.5 212t-33 297zM334 655q0 -213 45 -327.5t110 -114.5q66 0 113 113.5t47 328.5q0 211 -47 326 t-113 115t-110.5 -115t-44.5 -326z" />
<glyph unicode="1" horiz-adv-x="589" d="M29 1051l18 237l428 41v-1329h-264v1069z" />
<glyph unicode="2" horiz-adv-x="817" d="M45 0v74q80 100 152.5 212.5t129 221t89.5 205t33 168.5q0 109 -44.5 162t-113.5 53q-59 0 -107.5 -21.5t-91.5 -56.5l-18 235q45 33 108.5 55.5t141.5 22.5q84 0 156.5 -26.5t125.5 -80t83 -133t30 -188.5q0 -78 -25.5 -169t-64.5 -182t-87 -176t-93 -149h325v-227h-729 z" />
<glyph unicode="3" horiz-adv-x="737" d="M49 264q80 -57 180 -57q68 0 122.5 49t54.5 150q0 39 -13.5 72.5t-35 60t-50 42t-59.5 15.5q-20 0 -51 -10l-19 215q66 23 110 66.5t44 105.5q0 55 -30 93t-83 38q-41 0 -71.5 -11.5t-65.5 -29.5l-16 221q41 23 89 35t113 12q76 0 137.5 -23.5t105.5 -65.5t67.5 -100.5 t23.5 -127.5q0 -94 -39 -162t-92 -96q39 -12 77 -42t68.5 -74t49 -104.5t18.5 -136.5q0 -207 -114.5 -314.5t-317.5 -107.5q-47 0 -96.5 12.5t-87.5 33.5z" />
<glyph unicode="4" horiz-adv-x="890" d="M14 545l463 762h248v-770h113v-211h-113v-326h-248v326h-430zM252 537h225v266q0 31 2 64.5t6 68.5l-4 2q-16 -37 -34.5 -73t-36.5 -64z" />
<glyph unicode="5" horiz-adv-x="774" d="M74 268q84 -59 190 -59q76 0 126 53t50 139q0 92 -50 147.5t-128 55.5q-53 0 -89 -9t-71 -26l17 738h522l-16 -228h-248l-6 -266q10 2 30 2q59 0 116.5 -30.5t102 -85t72 -130.5t27.5 -166q0 -197 -106.5 -311.5t-311.5 -114.5q-63 0 -119.5 13.5t-87.5 32.5z" />
<glyph unicode="6" horiz-adv-x="909" d="M61 457q0 131 34 259t94.5 243.5t144.5 214t182 172.5l268 -82q-59 -37 -116.5 -89.5t-107.5 -110.5t-90 -121.5t-64 -121.5q29 27 81 27q66 0 131.5 -28.5t117.5 -84t85 -136.5t33 -183q0 -98 -28.5 -178t-80 -138.5t-124 -90.5t-160.5 -32q-86 0 -159 32t-126 93.5 t-84 150.5t-31 204zM330 428q0 -100 42 -157.5t95 -57.5t88 54.5t35 142.5q0 92 -38 149t-97 57q-39 0 -70 -15t-47 -52q-4 -18 -6 -51t-2 -70z" />
<glyph unicode="7" horiz-adv-x="827" d="M43 1079v228h776l-420 -1307h-276l350 1079h-430z" />
<glyph unicode="8" horiz-adv-x="925" d="M61 371q0 63 18.5 117.5t45.5 95.5t58.5 70.5t58.5 43.5q-55 37 -99.5 115t-44.5 174q0 76 26 139.5t74 109.5t114.5 70.5t148.5 24.5t149.5 -25.5t115.5 -71.5t74.5 -110.5t26.5 -144.5q0 -45 -12 -88t-32.5 -80t-46 -65.5t-52.5 -45.5q27 -14 58.5 -43.5t59 -71.5 t45 -96.5t17.5 -117.5q0 -184 -109.5 -290t-291.5 -106q-90 0 -164 28t-127 79t-82 124t-29 165zM313 371q0 -78 44 -126t100 -48q59 0 101 48t42 126q0 41 -14.5 73.5t-36 57t-48 41t-50.5 26.5q-23 -10 -47.5 -27.5t-44 -42t-33 -56t-13.5 -72.5zM350 975q0 -61 33 -103.5 t88 -64.5q53 25 82 66t29 102q0 66 -34 104.5t-83 38.5q-47 0 -81 -39t-34 -104z" />
<glyph unicode="9" horiz-adv-x="909" d="M55 893q0 98 29 178t81 138.5t123.5 90t160.5 31.5q86 0 158.5 -32.5t126.5 -94t84 -150.5t30 -202q0 -133 -34 -261t-94.5 -243t-143 -214t-183.5 -173l-268 82q59 37 116.5 89t107.5 111.5t90 121t65 120.5q-31 -25 -82 -24q-66 0 -130.5 28.5t-117.5 84t-86 135 t-33 184.5zM319 899q0 -92 38 -150.5t98 -58.5q41 0 70.5 16.5t45.5 53.5q4 18 6.5 51t2.5 68q0 100 -41 158.5t-97 58.5q-51 0 -87 -54.5t-36 -142.5z" />
<glyph unicode=":" horiz-adv-x="403" d="M51 139q0 18 16.5 46t40 53.5t50 44t45.5 18.5q18 0 43.5 -18.5t50.5 -44t41 -53.5t16 -46q0 -20 -16 -48t-41 -53.5t-50.5 -43t-43.5 -17.5t-45 17.5t-50.5 43t-40 53.5t-16.5 48zM51 788q0 20 16.5 48t40 53.5t50 43t45.5 17.5q18 0 43.5 -17.5t50.5 -43t41 -53.5 t16 -48t-16 -47.5t-41 -53t-50.5 -43t-43.5 -17.5t-45 17.5t-50.5 43t-40 53t-16.5 47.5z" />
<glyph unicode=";" horiz-adv-x="403" d="M33 -272q51 61 88 137t47 139q-16 2 -35.5 18.5t-38 37t-31 43t-12.5 38.5q0 20 16.5 48t41 52.5t50 42t44.5 17.5q16 0 41.5 -16.5t50 -41t42 -52t17.5 -50.5q0 -43 -20.5 -99t-53 -114.5t-74.5 -115t-85 -99.5zM51 788q0 20 16.5 48t40 53.5t50 43t45.5 17.5 q18 0 43.5 -17.5t50.5 -43t41 -53.5t16 -48t-16 -47.5t-41 -53t-50.5 -43t-43.5 -17.5t-45 17.5t-50.5 43t-40 53t-16.5 47.5z" />
<glyph unicode="&#x3c;" horiz-adv-x="602" d="M45 567l322 363l145 -152l-182 -211l182 -211l-143 -149z" />
<glyph unicode="=" horiz-adv-x="774" d="M59 272v207h658v-207h-658zM59 653v205h658v-205h-658z" />
<glyph unicode="&#x3e;" horiz-adv-x="602" d="M90 356l182 211l-182 211l146 152l321 -361l-321 -362z" />
<glyph unicode="?" horiz-adv-x="710" d="M41 1309q39 35 99.5 59.5t138.5 24.5q82 0 150.5 -26t117.5 -73t75.5 -113.5t26.5 -148.5q0 -51 -10 -95t-30.5 -87t-49.5 -88t-67 -96q-41 -53 -57.5 -106.5t-16.5 -102.5q0 -45 6 -78l-225 49q-4 23 -8.5 47.5t-4.5 52.5q0 78 26 145.5t85 151.5q37 53 57.5 97.5 t20.5 101.5q0 55 -32 94t-91 39t-108.5 -25.5t-86.5 -62.5zM168 141q0 18 16.5 46t40 53.5t50 44t44.5 18.5q20 0 47 -18.5t50.5 -44t40 -53.5t16.5 -46q0 -20 -16.5 -49t-40 -54.5t-50 -44t-47.5 -18.5q-18 0 -44.5 18.5t-50 44t-40 54.5t-16.5 49z" />
<glyph unicode="@" horiz-adv-x="1294" d="M61 541q0 164 53.5 308t145.5 251.5t216 170t267 62.5q113 0 204 -41t154.5 -113.5t97.5 -173t34 -219.5q0 -94 -21.5 -185t-63.5 -163.5t-102.5 -117t-138.5 -44.5q-43 0 -81 28t-46 85q-74 -113 -207 -113q-39 0 -75.5 18.5t-64 53.5t-44 85t-16.5 112q0 113 33.5 201 t89 149t124 94t140.5 33q66 0 115 -22.5t73 -53.5l-47 -409q-2 -14 -2 -25.5v-22.5q0 -47 31 -47q25 0 48 27t43.5 74t33 110.5t12.5 137.5q0 184 -93 287.5t-247 103.5q-96 0 -187 -49.5t-161 -135.5t-112 -202.5t-42 -251.5q0 -106 25.5 -184t70 -129.5t102.5 -76 t124 -24.5q55 0 103 17.5t83 48.5l-20 -166q-29 -23 -77 -37.5t-108 -14.5q-106 0 -192 40t-147.5 114t-94.5 177.5t-33 232.5zM557 551q0 -53 17.5 -82t46.5 -29q39 0 70.5 47.5t41.5 124.5l29 232q-16 10 -37 10q-31 0 -60.5 -24.5t-53 -65.5t-39 -96.5t-15.5 -116.5z" />
<glyph unicode="A" horiz-adv-x="1052" d="M14 0l408 1313h211l405 -1313h-278l-80 287h-322l-79 -287h-265zM416 502h207l-72 256q-10 29 -17.5 61.5t-13.5 67.5h-4q-4 -35 -12 -68t-19 -61z" />
<glyph unicode="B" horiz-adv-x="942" d="M94 0v1307h363q70 0 131 -23.5t107 -68t74 -108t28 -144.5q0 -33 -7.5 -68t-20.5 -65.5t-31.5 -56t-41.5 -38.5q33 -12 68 -40.5t62.5 -72.5t45 -101t17.5 -120q0 -94 -31 -168.5t-83 -126t-124.5 -79t-154.5 -27.5h-402zM350 215h107q59 0 108 46t49 142q0 94 -49 142.5 t-108 48.5h-107v-379zM350 805h72q43 0 80 34.5t37 110.5t-37 112t-80 36h-72v-293z" />
<glyph unicode="C" horiz-adv-x="970" d="M61 653q0 164 48.5 291t127 213t182 130t214.5 44q98 0 172 -21.5t117 -49.5l-19 -252q-35 29 -91 51t-140 22q-72 0 -130.5 -31.5t-101.5 -88t-66.5 -135t-23.5 -173.5q0 -94 23.5 -173t66.5 -135t103.5 -87t134.5 -31q82 0 142.5 19.5t99.5 54.5l-21 -264 q-41 -29 -107.5 -45.5t-158.5 -16.5q-111 0 -214.5 45.5t-183 131.5t-127 211.5t-47.5 289.5z" />
<glyph unicode="D" horiz-adv-x="1099" d="M94 0v1307h373q117 0 220.5 -42t181 -125t122.5 -205t45 -282t-45 -281.5t-122.5 -204.5t-181 -125t-220.5 -42h-373zM367 244h71q63 0 119.5 24.5t99.5 74.5t69 128t26 182t-26 182t-69 128.5t-99 75t-120 24.5h-71v-819z" />
<glyph unicode="E" horiz-adv-x="806" d="M94 0v1307h639v-236h-358v-297h291v-237h-291v-301h401v-236h-682z" />
<glyph unicode="F" horiz-adv-x="776" d="M96 0v1307h658v-236h-375v-297h305v-237h-305v-537h-283z" />
<glyph unicode="G" horiz-adv-x="1107" d="M61 653q0 164 48.5 291t129 213t184 130t214.5 44t193.5 -27.5t132.5 -68.5l-21 -254q-47 41 -115.5 70.5t-154.5 29.5q-72 0 -131.5 -31.5t-104.5 -88t-69.5 -136.5t-24.5 -178q0 -94 23.5 -173t64.5 -135t97.5 -88t121.5 -32q78 0 125 31v229h-174v221h428v-598 q-63 -59 -159.5 -93t-231.5 -34q-113 0 -217.5 45.5t-184 131.5t-127 211.5t-47.5 289.5z" />
<glyph unicode="H" horiz-adv-x="1128" d="M94 0v1307h281v-531h379v531h280v-1307h-280v532h-379v-532h-281z" />
<glyph unicode="I" horiz-adv-x="499" d="M109 0v1307h282v-1307h-282z" />
<glyph unicode="J" horiz-adv-x="540" d="M-74 -84q55 12 97.5 36.5t70 66.5t42 102.5t14.5 146.5v1039h282v-1065q0 -127 -30.5 -218.5t-83 -155t-122 -101t-147.5 -56.5z" />
<glyph unicode="K" horiz-adv-x="1001" d="M94 0v1307h279v-586l307 586h299l-350 -643l368 -664h-319l-305 567v-567h-279z" />
<glyph unicode="L" horiz-adv-x="808" d="M94 0v1307h281v-1063h418v-244h-699z" />
<glyph unicode="M" horiz-adv-x="1456" d="M74 0l94 1307h227l230 -568q29 -68 56.5 -143.5t47.5 -142.5h4q23 68 48.5 143.5t54.5 142.5l229 568h227l97 -1307h-271l-33 461q-4 51 -7 111q-2 36 -2 71q0 24 1 49h-4q-18 -59 -40.5 -120.5t-45.5 -114.5l-188 -459h-135l-193 459q-23 51 -44 112.5t-40 122.5h-4 q0 -66 -2 -121t-6 -110l-35 -461h-266z" />
<glyph unicode="N" horiz-adv-x="1185" d="M94 0v1307h221l340 -480q39 -53 84 -120.5t80 -122.5h4q-4 57 -5 120.5t-1 118.5v484h277v-1317h-158l-385 526q-47 66 -95 136.5t-89 133.5l-5 -2q4 -66 5.5 -134t1.5 -128v-522h-275z" />
<glyph unicode="O" horiz-adv-x="1257" d="M61 655q0 154 45.5 279t122 213t180 136t220.5 48t219 -48t180 -136t123 -213t45 -279q0 -156 -45 -280.5t-123 -213.5t-180.5 -137.5t-218.5 -48.5q-117 0 -220.5 48.5t-180 137.5t-122 214t-45.5 280zM350 655q0 -96 22.5 -174t61.5 -133t89 -86t106 -31q55 0 105 31 t88 86t61.5 133t23.5 174q0 94 -23.5 172t-61.5 133.5t-88 86t-105 30.5t-105.5 -30.5t-89.5 -86t-61.5 -133t-22.5 -172.5z" />
<glyph unicode="P" horiz-adv-x="890" d="M94 0v1307h400q76 0 142 -28t116.5 -78t80 -121.5t29.5 -159.5t-29.5 -160t-80 -123t-117 -79t-141.5 -28h-127v-530h-273zM367 760h92q49 0 90 40t41 120t-41 120.5t-90 40.5h-92v-321z" />
<glyph unicode="Q" horiz-adv-x="1257" d="M61 653q0 154 45.5 280t122 215t180 137t220.5 48t219 -48t180 -137t123 -215t45 -280q0 -109 -25.5 -205t-69.5 -174.5t-102.5 -135t-124.5 -87.5v-4q23 -4 47.5 -17.5t75.5 -41.5q47 -29 91.5 -39t78.5 -10q29 0 50.5 3t46.5 13l-138 -219q-10 -4 -21 -4h-22 q-72 0 -139 20.5t-139 69.5t-142.5 92t-117.5 70q-98 16 -186.5 70.5t-155 140.5t-104.5 201.5t-38 256.5zM350 653q0 -94 23.5 -172t61.5 -133t88 -86t106 -31q53 0 103 31t89 86t62.5 133t23.5 172t-23.5 172t-62.5 134.5t-89 87t-103 30.5q-55 0 -105.5 -30.5t-88.5 -87 t-61.5 -134t-23.5 -172.5z" />
<glyph unicode="R" horiz-adv-x="1003" d="M94 0v1307h406q74 0 141.5 -28t117.5 -78t79.5 -121.5t29.5 -159.5q0 -109 -47 -192t-116 -122l329 -606h-307l-278 530h-82v-530h-273zM367 760h96q49 0 90 40t41 120t-41 120.5t-90 40.5h-96v-321z" />
<glyph unicode="S" horiz-adv-x="831" d="M49 350q68 -61 143.5 -95t161.5 -34q72 0 109 33t37 88q0 59 -40 112.5t-122 106.5q-135 88 -198.5 186.5t-63.5 221.5q0 78 25.5 144.5t73.5 115.5t117.5 76.5t158.5 27.5q96 0 157.5 -22.5t93.5 -44.5l-18 -246q-35 27 -89 48.5t-114 21.5q-66 0 -97.5 -28t-31.5 -75 q0 -49 33 -90t121 -100q125 -84 201.5 -189.5t76.5 -240.5q0 -180 -102 -286t-303 -106q-98 0 -176 26t-131 69z" />
<glyph unicode="T" horiz-adv-x="931" d="M16 1077v230h899v-232h-307v-1075h-282v1077h-310z" />
<glyph unicode="U" horiz-adv-x="1122" d="M94 393v914h281v-891q0 -88 51 -139.5t137 -51.5t138.5 51.5t52.5 137.5v893h274v-914q0 -98 -36 -175t-99.5 -130t-148.5 -82t-183 -29t-183 29t-148.5 82t-99.5 130t-36 175z" />
<glyph unicode="V" horiz-adv-x="1001" d="M-2 1307h287l155 -549q16 -61 34 -134t32 -143h4q14 70 30.5 142.5t32.5 134.5l158 549h264l-383 -1313h-231z" />
<glyph unicode="W" horiz-adv-x="1552" d="M4 1307h270l136 -527q16 -61 29.5 -126.5t23.5 -135.5h4q25 141 55 262l135 527h250l135 -527q31 -127 54 -262h4q10 68 24.5 135.5t30.5 126.5l137 527h252l-356 -1313h-193l-151 557q-16 63 -33.5 131t-34.5 149h-4q-16 -82 -31.5 -148.5t-33.5 -131.5l-154 -557h-193z " />
<glyph unicode="X" horiz-adv-x="1024" d="M18 0l334 668l-317 639h297l127 -258q16 -29 31.5 -63t25.5 -64h4q10 31 25.5 64.5t29.5 62.5l127 258h283l-313 -635l329 -672h-296l-136 281q-14 29 -30.5 67.5t-30.5 73.5h-4q-14 -35 -31.5 -72t-34.5 -69l-137 -281h-283z" />
<glyph unicode="Y" horiz-adv-x="1046" d="M-2 1307h295l160 -308q16 -33 38.5 -76.5t38.5 -78.5h5q16 35 38.5 79t38.5 76l158 308h274l-382 -729v-578h-277v571z" />
<glyph unicode="Z" horiz-adv-x="868" d="M33 0v68l276 665q31 76 71 167t75 163l-2 2h-385v242h747v-68l-276 -668q-33 -78 -73 -168t-71 -159l2 -2h437v-242h-801z" />
<glyph unicode="[" horiz-adv-x="616" d="M84 -422v1823h487v-227h-221v-1371h221v-225h-487z" />
<glyph unicode="\" horiz-adv-x="1071" d="M43 1253l162 113l823 -1288l-164 -117z" />
<glyph unicode="]" horiz-adv-x="616" d="M47 -197h225v1371h-225v227h488v-1823h-488v225z" />
<glyph unicode="^" horiz-adv-x="681" d="M45 1147q80 41 159 118.5t138 176.5q57 -98 137 -176t158 -119l-121 -127q-47 27 -90 57.5t-84 83.5q-43 -51 -85 -82.5t-89 -58.5z" />
<glyph unicode="_" horiz-adv-x="946" d="M-2 -231h952v-207h-952v207z" />
<glyph unicode="`" d="M184 1174l43 198q39 -45 87 -84t99.5 -69.5t103.5 -55t99 -39.5l-112 -116q-90 27 -165 62.5t-155 103.5z" />
<glyph unicode="a" horiz-adv-x="845" d="M47 268q0 135 78 215t207 95l133 14v37q0 106 -125 106q-66 0 -124 -20.5t-93 -44.5l-19 215q41 29 113 47t145 18q168 0 266.5 -92t98.5 -268v-291q0 -59 26.5 -90t67.5 -41l-98 -193q-57 4 -102.5 30t-67.5 71q-39 -49 -95.5 -74t-121.5 -25q-59 0 -112.5 18.5 t-92.5 55.5t-61.5 91.5t-22.5 125.5zM283 266q0 -39 22.5 -65.5t56.5 -26.5q43 0 76 34t33 87v111l-88 -9q-47 -4 -73.5 -41t-26.5 -90z" />
<glyph unicode="b" horiz-adv-x="913" d="M86 74v1335h262v-475q37 16 94 16q86 0 162 -34.5t133.5 -98t91 -151t33.5 -193.5q0 -117 -32.5 -209t-93 -155.5t-143.5 -97.5t-183 -34q-104 0 -187.5 28t-136.5 69zM348 229q14 -8 32.5 -13t41.5 -5q84 0 130 70.5t46 185.5q0 113 -50 181.5t-118 68.5q-23 0 -45.5 -6 t-36.5 -17v-465z" />
<glyph unicode="c" d="M51 463q0 115 34 205t92.5 153.5t136 96t163.5 32.5q80 0 138.5 -16t99.5 -41l-19 -236q-37 27 -80 41.5t-96 14.5q-86 0 -141 -67.5t-55 -182.5t59 -182.5t147 -67.5q94 0 177 53l-19 -241q-35 -23 -88 -35.5t-121 -12.5q-86 0 -163.5 34t-136 96.5t-93.5 152.5t-35 203 z" />
<glyph unicode="d" horiz-adv-x="950" d="M51 457q0 111 31 201t86 155.5t131 101t168 35.5q45 0 79 -8t56 -22v489h260v-1409h-207l-6 66q-29 -41 -83 -63.5t-128 -22.5q-70 0 -139.5 31.5t-124.5 93t-89 150.5t-34 202zM315 465q0 -111 46.5 -181.5t117.5 -70.5q39 0 70 14.5t53 36.5v410q-20 18 -51 30.5 t-72 12.5q-70 0 -117 -71t-47 -181z" />
<glyph unicode="e" horiz-adv-x="854" d="M49 469q0 111 32 200t87 151.5t129 96t158 33.5q82 0 147.5 -29.5t111.5 -79.5t69.5 -115.5t23.5 -137.5q0 -20 -2 -48t-6 -46l-111 -109h-369q6 -37 21.5 -73t43.5 -63.5t66.5 -45t90.5 -17.5q66 0 119 19.5t96 52.5l-19 -227q-37 -23 -94 -38.5t-137 -15.5 q-98 0 -182 35t-144.5 98.5t-95.5 154.5t-35 204zM313 571h248q0 4 1 12.5t1 12.5q0 59 -29.5 105.5t-78.5 46.5q-53 0 -92 -50.5t-50 -126.5z" />
<glyph unicode="f" horiz-adv-x="636" d="M20 705v223h119v41q0 115 30 199.5t83 142t128 85t165 27.5q88 0 141 -28l-14 -228q-47 27 -107 27q-78 0 -120 -53.5t-42 -141.5v-71h193l-16 -223h-177v-705h-264v705h-119z" />
<glyph unicode="g" horiz-adv-x="837" d="M39 -113q0 102 45 168t109 88l-95 101q6 41 33 75.5t59 53.5q-47 37 -80.5 97t-33.5 148q0 74 21.5 134.5t63.5 105.5t103.5 69.5t138.5 24.5q35 0 65 -5t56 -13q25 -8 54.5 -13.5t62.5 -5.5q41 0 75 9.5t58 23.5l14 -215q-10 -8 -30.5 -14t-40.5 -4q14 -33 14 -88 q0 -135 -73.5 -221.5t-194.5 -98.5q-23 -2 -38 -11t-15 -26q0 -25 28 -34l107 -37q119 -41 184.5 -121t65.5 -201q0 -72 -26 -131t-75 -104t-118.5 -70t-157.5 -25t-158 27t-119 73t-75.5 107.5t-26.5 132.5zM279 -119q0 -59 34.5 -99t102.5 -40q66 0 99.5 37t33.5 90 q0 47 -20.5 82t-61.5 45l-86 24q-45 -6 -73.5 -40.5t-28.5 -98.5zM305 627q0 -59 28.5 -98.5t69.5 -39.5t71 39.5t30 98.5t-29 98t-72 39q-41 0 -69.5 -39t-28.5 -98z" />
<glyph unicode="h" horiz-adv-x="921" d="M86 0v1409h266v-537q35 35 83 55.5t118 20.5q135 0 213 -84t78 -225v-639h-269v586q0 51 -27.5 87t-80.5 36t-84 -36t-31 -93v-580h-266z" />
<glyph unicode="i" horiz-adv-x="466" d="M96 1214q0 18 15.5 44t37 48.5t45 39t39.5 16.5t40 -16.5t45.5 -39t37 -48.5t15.5 -44t-15.5 -43.5t-37 -48t-45 -39t-40.5 -16.5q-16 0 -39.5 16.5t-45 39t-37 48t-15.5 43.5zM98 0v928h271v-928h-271z" />
<glyph unicode="j" horiz-adv-x="464" d="M-51 -260q78 23 113.5 83t35.5 175v930h271v-951q0 -176 -87 -284.5t-219 -141.5zM94 1214q0 18 15.5 44t37 48.5t45 39t41.5 16.5q16 0 39 -16.5t44.5 -39t37 -48.5t15.5 -44t-15.5 -43.5t-37 -48t-44 -39t-39.5 -16.5q-18 0 -41.5 16.5t-45 39t-37 48t-15.5 43.5z" />
<glyph unicode="k" horiz-adv-x="880" d="M86 0v1409h266v-887l223 406h279l-250 -449l275 -479h-306l-221 401v-401h-266z" />
<glyph unicode="l" horiz-adv-x="501" d="M100 283v1126h269v-1108q0 -61 27.5 -97t68.5 -48l-115 -191q-45 6 -89 28.5t-80 62.5t-58.5 96.5t-22.5 130.5z" />
<glyph unicode="m" horiz-adv-x="1388" d="M78 0v928h235l9 -86q27 41 81 73.5t138 32.5q82 0 138 -32.5t87 -79.5q33 47 100.5 79.5t153.5 32.5q141 0 216 -83t75 -216v-649h-269v598q0 51 -27.5 80t-74.5 29q-49 0 -80 -31t-31 -84v-592h-268v598q0 51 -28.5 80t-77.5 29q-47 0 -78 -31t-31 -84v-592h-268z" />
<glyph unicode="n" horiz-adv-x="915" d="M78 0v928h235l9 -86q29 47 84 76.5t141 29.5q135 0 213 -84t78 -225v-639h-269v586q0 51 -27.5 87t-80.5 36t-84 -36t-31 -93v-580h-268z" />
<glyph unicode="o" horiz-adv-x="948" d="M51 463q0 109 32 198t88 153.5t133 100t169 35.5t169 -35.5t134.5 -100t89 -153.5t31.5 -198t-31.5 -198t-89 -152.5t-134.5 -99.5t-169 -36t-169 36t-133 99.5t-88 152.5t-32 198zM315 463q0 -55 12.5 -102.5t34 -81t51 -52t62.5 -18.5q63 0 110.5 70.5t47.5 183.5 q0 115 -47 186.5t-111 71.5q-33 0 -62.5 -19.5t-51 -53.5t-34 -81t-12.5 -104z" />
<glyph unicode="p" horiz-adv-x="950" d="M86 -432v1360h209l8 -66q27 41 81 63.5t128 22.5q70 0 139.5 -31.5t124.5 -93t89 -150.5t34 -202q0 -111 -30.5 -201t-86 -155.5t-132.5 -101.5t-167 -36q-45 0 -78.5 8.5t-56.5 22.5v-440h-262zM348 254q20 -18 51 -30.5t70 -12.5q72 0 119 70.5t47 181.5t-47 181.5 t-119 70.5q-39 0 -68.5 -14.5t-52.5 -36.5v-410z" />
<glyph unicode="q" horiz-adv-x="913" d="M51 467q0 113 33 203t90 152.5t134 95t165 32.5q59 0 113.5 -11t93.5 -32l65 47h82v-1386h-262v426q-39 -16 -92 -17q-90 0 -168 35t-134 99.5t-88 154.5t-32 201zM315 467q0 -117 50.5 -186.5t117.5 -69.5q51 0 82 22v461q-14 10 -37.5 16.5t-48.5 6.5q-70 0 -117 -69.5 t-47 -180.5z" />
<glyph unicode="r" horiz-adv-x="661" d="M92 0v928h246l6 -140q66 152 270 152l17 -252h-23q-51 0 -97 -20.5t-80 -58.5t-53.5 -95t-19.5 -131v-383h-266z" />
<glyph unicode="s" horiz-adv-x="671" d="M43 291q41 -43 105.5 -73t134.5 -30q41 0 62.5 20.5t21.5 49.5q0 33 -20.5 56.5t-65.5 52.5q-106 66 -159.5 138.5t-53.5 164.5q0 129 81.5 204.5t217.5 75.5q70 0 124 -17.5t76 -33.5l-16 -215q-27 23 -68 39t-94 16q-33 0 -52.5 -16t-19.5 -43q0 -53 91 -107 q104 -59 160.5 -135t56.5 -172q0 -59 -19.5 -111.5t-59.5 -92t-100.5 -62.5t-142.5 -23q-78 0 -142.5 21.5t-99.5 48.5z" />
<glyph unicode="t" horiz-adv-x="673" d="M20 705v223h132v174l258 96v-270h235l-16 -223h-215v-375q0 -55 25.5 -84t70.5 -29q25 0 44 4t36 15l-19 -224q-39 -24 -124 -24h-7q-68 0 -122 22.5t-92 61.5t-59.5 93t-21.5 120v420h-125z" />
<glyph unicode="u" horiz-adv-x="915" d="M78 289v639h268v-586q0 -51 27.5 -87t81.5 -36q53 0 83.5 36t30.5 93v580h269v-928h-236l-6 86q-29 -47 -85 -76.5t-142 -29.5q-133 0 -212 83.5t-79 225.5z" />
<glyph unicode="v" horiz-adv-x="841" d="M23 928h256l102 -342q12 -41 23.5 -84t19.5 -86h4q10 43 20.5 86t22.5 84l104 342h244l-299 -934h-198z" />
<glyph unicode="w" horiz-adv-x="1284" d="M29 928h247l93 -340q10 -41 20 -84t17 -84h4q8 41 17 85t19 83l95 340h211l96 -338q12 -43 20.5 -86t16.5 -84h4q6 41 15 85t22 85l94 338h233l-274 -934h-184l-105 362q-12 43 -23.5 89.5t-21.5 93.5h-4q-10 -49 -22.5 -94.5t-24.5 -88.5l-102 -362h-187z" />
<glyph unicode="x" horiz-adv-x="806" d="M25 0l227 465l-219 463h268l76 -160q8 -18 16 -36.5t15 -41.5h4q10 20 18 39t19 41l75 158h248l-217 -445l227 -483h-268l-84 180q-8 18 -17.5 43t-15.5 49h-4q-8 -25 -18 -49t-19 -43l-86 -180h-245z" />
<glyph unicode="y" horiz-adv-x="866" d="M23 928h260l108 -350q12 -41 23.5 -85t21.5 -92h4q10 47 20.5 90.5t22.5 83.5l111 353h250l-269 -848q-74 -236 -172 -362t-241 -171l-109 183q43 16 79 39.5t66.5 59.5t57.5 88t53 128z" />
<glyph unicode="z" horiz-adv-x="737" d="M43 0v51l178 432q23 53 48.5 110.5t49.5 104.5l-2 4h-241v226h586v-51l-181 -437q-23 -53 -47 -106t-51 -105l2 -4h299v-225h-641z" />
<glyph unicode="{" horiz-adv-x="663" d="M16 492q86 63 120 159.5t34 212.5q0 248 107.5 393.5t314.5 145.5l39 -219q-55 0 -93 -23.5t-60.5 -63.5t-33 -93.5t-10.5 -114.5q0 -274 -137 -397q72 -61 104.5 -162t32.5 -236q0 -66 10.5 -120t33 -95t60 -63.5t93.5 -22.5l-39 -221q-207 0 -314.5 146.5t-107.5 402.5 q0 117 -34 212t-120 159z" />
<glyph unicode="|" horiz-adv-x="419" d="M109 -432v1841h202v-1841h-202z" />
<glyph unicode="}" horiz-adv-x="663" d="M35 -207q55 0 92 22.5t59.5 63.5t32.5 95.5t10 119.5q0 135 34 235.5t106 162.5q-72 63 -106 162.5t-34 234.5q0 61 -10 114.5t-32.5 93.5t-59.5 63.5t-92 23.5l39 219q102 0 180 -38t131 -107.5t81 -170t28 -223.5q0 -117 33.5 -213t119.5 -159q-86 -63 -119.5 -158.5 t-33.5 -212.5q0 -256 -107.5 -402.5t-312.5 -146.5z" />
<glyph unicode="~" horiz-adv-x="700" d="M68 424l43 186q66 47 130 75t144 36l21 -135q57 10 116.5 38.5t112.5 67.5l-41 -186q-66 -49 -131.5 -76t-143.5 -33l-22 131q-55 -8 -115.5 -35.5t-113.5 -68.5z" />
<glyph unicode="&#xa1;" horiz-adv-x="475" d="M82 1169q0 20 16.5 48t40 53.5t50 43t44.5 17.5t45 -17.5t50.5 -43t40 -53.5t16.5 -48t-16.5 -47.5t-40 -53.5t-50 -43t-45.5 -17q-18 0 -44.5 17t-50 43t-40 53.5t-16.5 47.5zM94 -59l33 983l219 -50l31 -933h-283z" />
<glyph unicode="&#xa2;" d="M51 836q0 102 27.5 185t77 144.5t115 100.5t139.5 51v180h139v-178q53 -6 94 -20.5t72 -32.5l-19 -238q-76 57 -176 57q-86 0 -141 -67.5t-55 -183.5q0 -113 59 -180.5t147 -67.5q49 0 92.5 14t84.5 39l-19 -242q-47 -33 -139 -45v-168h-139v172q-76 12 -141.5 51 t-114 100.5t-76 144.5t-27.5 184z" />
<glyph unicode="&#xa3;" horiz-adv-x="759" d="M23 571v150h114v135q0 119 30 208t83 148.5t129 88t166 28.5q82 0 135 -33l-14 -223q-49 27 -113 27q-68 0 -109 -54.5t-41 -152.5v-172h213l-12 -150h-201v-82q0 -84 -11 -149.5t-27 -110.5q51 10 122 11q61 0 122 -8.5t108 -24.5l-12 -225q-43 16 -106.5 25t-129.5 9 q-70 0 -131.5 -8t-101.5 -24l-187 102q41 78 64.5 176t23.5 234v75h-114z" />
<glyph unicode="&#xa4;" horiz-adv-x="862" d="M55 268l115 129q-41 76 -41 170q0 45 10.5 86t26.5 76q-8 10 -16 21q-8 10 -18.5 21t-20.5 26q-25 29 -56 67l119 119l53 -57q20 -23 37 -42.5t19 -23.5q66 47 149 47q80 0 143 -45l109 123l119 -119l-111 -131q41 -72 41 -168q0 -49 -11 -93t-32 -81l113 -129l-121 -119 l-111 123q-63 -41 -139 -41q-78 0 -145 45l-111 -125zM285 567q0 -78 42 -132t105 -54q61 0 105.5 54t44.5 132q0 76 -44 130.5t-106 54.5q-63 0 -105 -54.5t-42 -130.5z" />
<glyph unicode="&#xa5;" horiz-adv-x="1034" d="M-2 1307h291l160 -308q16 -33 38.5 -76.5t38.5 -78.5h4q16 35 39 79t39 76l158 308h266l-246 -471h113v-152h-199l-53 -104v-23h252v-151h-252v-406h-262v406h-250v151h250v14l-57 113h-193v152h109z" />
<glyph unicode="&#xa6;" horiz-adv-x="419" d="M109 367h202v-799h-202v799zM109 610v799h202v-799h-202z" />
<glyph unicode="&#xa7;" horiz-adv-x="800" d="M70 971q0 76 25.5 142.5t72.5 113.5t115.5 74.5t152.5 27.5q98 0 157.5 -18.5t96.5 -44.5l-18 -246q-41 31 -92.5 50.5t-110.5 19.5q-66 0 -96.5 -29t-30.5 -76q0 -53 33 -106l336 -404l-39 -313q31 -59 48 -115.5t17 -128.5q0 -78 -25.5 -143.5t-73.5 -112.5 t-115.5 -74.5t-151.5 -27.5q-98 0 -156.5 19.5t-97.5 45.5l16 246q41 -29 93.5 -49.5t111.5 -20.5q66 0 96.5 29t30.5 74q0 29 -7 53.5t-26 52.5l-336 400l39 317q-31 59 -48 115.5t-17 128.5zM238 565l311 -375l20 138l-313 372z" />
<glyph unicode="&#xa8;" d="M100 1137q0 14 13.5 36.5t33 44t40 36t34.5 14.5t34.5 -14.5t40 -36t33 -44t13.5 -36.5q0 -16 -13.5 -38t-33 -42.5t-39.5 -34.5t-35 -14q-14 0 -34.5 14t-40 34.5t-33 42t-13.5 38.5zM428 1137q0 14 13.5 36.5t32 44t38.5 36t35 14.5q14 0 35.5 -14.5t41 -36t33 -44 t13.5 -36.5q0 -16 -13.5 -38t-33 -42.5t-41 -34.5t-35.5 -14t-34.5 14t-39 34.5t-32 42t-13.5 38.5z" />
<glyph unicode="&#xa9;" horiz-adv-x="1040" d="M51 512q0 119 36 218t98.5 170t148.5 110t186 39q98 0 184.5 -39t148.5 -110t98 -170t36 -218t-36 -217t-98 -169t-148.5 -111t-184.5 -40q-100 0 -186 40t-148.5 111t-98.5 169t-36 217zM180 512q0 -92 24.5 -169t69.5 -132t107.5 -87t138.5 -32q74 0 136.5 32t107.5 87 t70.5 132t25.5 169t-25.5 169t-70.5 132t-107.5 87t-136.5 32q-76 0 -138.5 -32t-107.5 -87t-69.5 -132t-24.5 -169zM303 508q0 68 20.5 122t54.5 91t80 57.5t97 20.5q47 0 82 -11.5t57 -29.5l-12 -152q-43 37 -104 37q-43 0 -71 -37t-28 -100q0 -61 28 -97t75 -36 q29 0 53 7t53 30l-14 -160q-20 -14 -50 -22.5t-67 -8.5q-53 0 -99 20.5t-80 57.5t-54.5 90t-20.5 121z" />
<glyph unicode="&#xaa;" horiz-adv-x="698" d="M51 793q0 102 60.5 167.5t164.5 75.5l105 8v29q0 37 -23.5 58.5t-72.5 21.5q-53 0 -100.5 -15.5t-75.5 -37.5l-13 178q33 23 90.5 38t116.5 15q135 0 215 -75.5t80 -217.5v-221q0 -90 78 -102l-80 -160q-100 4 -141 74q-31 -35 -77 -54.5t-95 -19.5q-98 0 -165 60.5 t-67 177.5zM231 299q0 16 13.5 38.5t32 43t39 35t34.5 14.5t35 -14.5t40 -35t32.5 -43t13.5 -38.5q0 -14 -13.5 -36.5t-32.5 -43t-39.5 -35t-35.5 -14.5q-14 0 -34.5 14.5t-39 35t-32 43t-13.5 36.5zM246 786q0 -29 16.5 -50t42.5 -21q33 0 57.5 26.5t24.5 67.5v86l-70 -6 q-35 -4 -53 -33t-18 -70z" />
<glyph unicode="&#xab;" horiz-adv-x="862" d="M-10 567q96 72 173 166t136 199l125 -133q-27 -66 -68 -127.5t-82 -104.5q41 -43 82 -104.5t68 -126.5l-125 -133q-59 104 -136 199.5t-173 164.5zM385 567q98 72 176 166t135 199l125 -133q-27 -66 -67.5 -127.5t-81.5 -104.5q41 -43 82 -104.5t67 -126.5l-125 -133 q-57 104 -135 199.5t-176 164.5z" />
<glyph unicode="&#xac;" horiz-adv-x="921" d="M59 463v207h777v-408h-215v201h-562z" />
<glyph unicode="&#xad;" horiz-adv-x="737" d="M70 463v199h598v-199h-598z" />
<glyph unicode="&#xae;" horiz-adv-x="813" d="M51 930q0 88 27.5 161.5t75 127t113 83t141.5 29.5q74 0 139 -29.5t112.5 -83t75 -127t27.5 -161.5t-27.5 -162t-75 -127t-113 -83t-138.5 -30q-76 0 -141.5 30t-113 83t-75 127t-27.5 162zM139 930q0 -72 20.5 -130.5t56.5 -101.5t85 -66.5t107 -23.5q57 0 105 23.5 t84 66.5t56.5 102.5t20.5 129.5t-20.5 129t-56.5 101t-84 65.5t-105 23.5t-106.5 -23.5t-85.5 -65.5t-56.5 -101.5t-20.5 -128.5zM285 688v483h127q53 0 98 -38.5t45 -108.5q0 -41 -18.5 -73.5t-42.5 -49.5l92 -160l-80 -57l-103 190h-24v-186h-94zM379 958h24 q23 0 37.5 17.5t14.5 48.5q0 29 -14.5 46t-37.5 17h-24v-129z" />
<glyph unicode="&#xaf;" d="M199 1036v158h376v-158h-376z" />
<glyph unicode="&#xb0;" horiz-adv-x="501" d="M49 1112q0 45 15.5 86t43 70.5t64.5 47t78 17.5q43 0 80 -17.5t64.5 -47t44 -70.5t16.5 -86t-16.5 -85t-44 -70.5t-64.5 -48t-80 -17.5q-41 0 -78 17.5t-64.5 48t-43 70.5t-15.5 85zM162 1112q0 -49 24.5 -81t63.5 -32q41 0 66.5 32t25.5 81t-25.5 81t-66.5 32 q-39 0 -63.5 -32t-24.5 -81z" />
<glyph unicode="&#xb1;" horiz-adv-x="1642" d="M20 705v223h119v41q0 199 96.5 313.5t274.5 114.5q55 0 92 -8.5t66 -24.5l-19 -229q-16 14 -45 23t-67 9q-59 0 -96.5 -48t-37.5 -124v-67h289v22q0 219 125 346t357 127q100 0 190 -29.5t147 -76.5v-1012q0 -61 28 -96t71 -47l-105 -195q-49 6 -96 28.5t-83 62.5 t-58.5 96.5t-22.5 130.5v893q-37 18 -104 18q-86 0 -134.5 -61.5t-48.5 -159.5v-47h148l-16 -223h-132v-705h-266v705h-289v-705h-264v705h-119z" />
<glyph unicode="&#xb2;" horiz-adv-x="591" d="M31 500v49q59 63 110.5 132t89 134.5t59 122.5t21.5 98q0 66 -29.5 98.5t-78.5 32.5q-39 0 -72 -12t-61 -33l-15 154q33 20 77 34.5t93 14.5q123 0 199 -69.5t76 -211.5q0 -43 -13.5 -94t-37 -103t-55.5 -103.5t-68 -96.5h204v-147h-499z" />
<glyph unicode="&#xb3;" horiz-adv-x="518" d="M49 676q53 -41 127 -41q41 0 73 29.5t32 91.5q0 45 -25 75.5t-63 30.5q-20 0 -41 -6l-13 141q37 10 63.5 38t26.5 61t-16 54t-47 21q-49 0 -90 -30l-15 151q27 14 59 23.5t79 9.5q96 0 156.5 -55.5t60.5 -145.5q0 -53 -22.5 -94t-55.5 -59q23 -8 46.5 -26.5t42.5 -45.5 t31.5 -61.5t12.5 -75.5q0 -137 -78 -207t-198 -70q-35 0 -72 8.5t-60 22.5z" />
<glyph unicode="&#xb4;" d="M154 1124q47 14 99 39t103.5 55.5t99.5 69.5t87 84l43 -198q-80 -68 -156 -104t-164 -62z" />
<glyph unicode="&#xb5;" horiz-adv-x="1019" d="M74 0v928h872v-928h-872zM131 59h350q-47 18 -71.5 49t-38.5 64l-240 569v-682zM186 788l447 -382q-80 -33 -124 -88.5t-44 -104.5q0 -59 26.5 -95t69.5 -59h326v729h-701z" />
<glyph unicode="&#xb6;" horiz-adv-x="878" d="M51 918q0 92 32 165.5t84 123.5t119.5 78t139.5 28h412v-228h-127v-1108q0 -176 -86 -284.5t-217 -141.5l-115 189q78 23 113.5 83t35.5 175v528h-18q-72 0 -138.5 27t-118.5 78t-84 122.5t-32 164.5z" />
<glyph unicode="&#xb7;" horiz-adv-x="403" d="M51 555q0 18 16.5 46t40 53.5t50 44t45.5 18.5q18 0 43.5 -18.5t50.5 -44t41 -53.5t16 -46q0 -20 -16 -48t-41 -53.5t-50.5 -44t-43.5 -18.5t-45 18.5t-50.5 44t-40 53.5t-16.5 48z" />
<glyph unicode="&#xb8;" d="M209 -412l14 119q27 -23 49.5 -29t49.5 -6q31 0 50 20.5t19 57.5q0 39 -20.5 59.5t-53.5 20.5q-12 0 -24 -1t-29 -5l23 176h88l-4 -53q31 -2 58.5 -16.5t50 -40t35.5 -60.5t13 -78q0 -49 -16 -87t-44 -63.5t-62.5 -39t-71.5 -13.5q-41 0 -71 10.5t-54 28.5z" />
<glyph unicode="&#xb9;" horiz-adv-x="425" d="M37 1141l16 157l273 25v-823h-179v651z" />
<glyph unicode="&#xba;" horiz-adv-x="784" d="M55 944q0 86 25.5 158t71 122t106.5 78.5t133 28.5t134.5 -28.5t107.5 -78.5t70.5 -122t25.5 -158t-25.5 -157.5t-70.5 -123t-107.5 -80t-134.5 -28.5t-133 28.5t-106.5 80t-71 123t-25.5 157.5zM276 299q0 16 13.5 38.5t32 43t38 35t33.5 14.5t36 -14.5t40 -35t31.5 -43 t13.5 -38.5q0 -14 -13.5 -36.5t-31.5 -43t-39.5 -35t-36.5 -14.5q-14 0 -33.5 14.5t-38 35t-32 43t-13.5 36.5zM281 944q0 -86 32.5 -139t77.5 -53q47 0 81 53t34 139q0 84 -34 137.5t-81 53.5q-45 0 -77.5 -53.5t-32.5 -137.5z" />
<glyph unicode="&#xbb;" horiz-adv-x="862" d="M39 336q27 66 67.5 127t83.5 104q-43 43 -83.5 104.5t-67.5 127.5l127 133q57 -104 135 -198.5t174 -166.5q-96 -70 -174 -165t-135 -199zM436 336q29 66 69 127t83 104q-43 43 -83 104.5t-69 127.5l127 133q57 -104 135 -198.5t172 -166.5q-94 -70 -171.5 -165 t-135.5 -199z" />
<glyph unicode="&#xbc;" horiz-adv-x="1269" d="M37 1141l16 157l273 25v-823h-179v651zM137 49l817 1282l111 -74l-817 -1282zM662 352l296 461h177v-459h75v-139h-75v-215h-170v215h-281zM825 354h140v162q0 20 2 41t6 41l-6 2q-10 -23 -19.5 -44t-21.5 -42z" />
<glyph unicode="&#xbd;" horiz-adv-x="1363" d="M37 1141l16 157l273 25v-823h-179v651zM137 49l817 1282l111 -74l-817 -1282zM815 0v49q59 63 110.5 132t89.5 134.5t59.5 123t21.5 98.5q0 66 -29 99.5t-80 33.5q-37 0 -70.5 -12.5t-62.5 -34.5l-14 155q35 20 79 34.5t93 14.5q123 0 197.5 -70.5t74.5 -211.5 q0 -43 -13.5 -93.5t-37 -102.5t-55 -103t-68.5 -96h207v-150h-502z" />
<glyph unicode="&#xbe;" horiz-adv-x="1318" d="M49 676q53 -41 127 -41q41 0 73 29.5t32 91.5q0 45 -25 75.5t-63 30.5q-20 0 -41 -6l-13 141q37 10 63.5 38t26.5 61t-16 54t-47 21q-49 0 -90 -30l-15 151q27 14 59 23.5t79 9.5q96 0 156.5 -55.5t60.5 -145.5q0 -53 -22.5 -94t-55.5 -59q23 -8 46.5 -26.5t42.5 -45.5 t31.5 -61.5t12.5 -75.5q0 -137 -78 -207t-198 -70q-35 0 -72 8.5t-60 22.5zM197 49l815 1282l110 -74l-815 -1282zM719 352l299 461h176v-459h76v-139h-76v-215h-172v215h-279zM885 354h137v162q0 20 2 41t6 41l-4 2q-10 -23 -20.5 -44t-20.5 -42z" />
<glyph unicode="&#xbf;" horiz-adv-x="710" d="M61 276q0 100 40 182.5t118 184.5q41 53 57.5 106.5t16.5 100.5q0 25 -1 43t-5 37l223 -49q12 -47 12 -101q0 -78 -24.5 -147.5t-83.5 -149.5q-39 -53 -59.5 -97t-20.5 -101t32.5 -95t92.5 -38q57 0 106 24.5t86 63.5l19 -242q-39 -35 -100.5 -58.5t-139.5 -23.5 q-84 0 -151.5 25.5t-115.5 72.5t-75 114t-27 148zM238 1167q0 20 16 48t39.5 54.5t50.5 45t47 18.5q18 0 45 -18.5t50.5 -45t40 -54.5t16.5 -48q0 -18 -16.5 -45.5t-40 -53.5t-50 -44t-45.5 -18q-20 0 -47 18t-50.5 44t-39.5 53.5t-16 45.5z" />
<glyph unicode="&#xc0;" horiz-adv-x="1052" d="M14 0l408 1313h211l405 -1313h-278l-80 287h-322l-79 -287h-265zM254 1584l43 198q39 -45 87 -84t99.5 -69.5t103.5 -55t99 -39.5l-112 -116q-90 27 -165 62.5t-155 103.5zM416 502h207l-72 256q-10 29 -17.5 61.5t-13.5 67.5h-4q-4 -35 -12 -68t-19 -61z" />
<glyph unicode="&#xc1;" horiz-adv-x="1052" d="M14 0l408 1313h211l405 -1313h-278l-80 287h-322l-79 -287h-265zM365 1534q47 14 99 39t103.5 55.5t99.5 69.5t87 84l43 -198q-80 -68 -156 -104t-164 -62zM416 502h207l-72 256q-10 29 -17.5 61.5t-13.5 67.5h-4q-4 -35 -12 -68t-19 -61z" />
<glyph unicode="&#xc2;" horiz-adv-x="1052" d="M14 0l408 1313h211l405 -1313h-278l-80 287h-322l-79 -287h-265zM262 1528q72 37 141.5 105.5t120.5 158.5q53 -90 121.5 -158.5t140.5 -105.5l-106 -110q-43 23 -81 50t-75 75q-35 -47 -73 -75t-81 -50zM416 502h207l-72 256q-10 29 -17.5 61.5t-13.5 67.5h-4 q-4 -35 -12 -68t-19 -61z" />
<glyph unicode="&#xc3;" horiz-adv-x="1052" d="M14 0l408 1313h211l405 -1313h-278l-80 287h-322l-79 -287h-265zM250 1446l43 187q66 47 130.5 74.5t144.5 35.5l20 -135q57 10 116.5 39t113.5 68l-41 -187q-66 -49 -130.5 -75.5t-146.5 -34.5l-20 133q-55 -8 -115.5 -36t-114.5 -69zM416 502h207l-72 256 q-10 29 -17.5 61.5t-13.5 67.5h-4q-4 -35 -12 -68t-19 -61z" />
<glyph unicode="&#xc4;" horiz-adv-x="1052" d="M14 0l408 1313h211l405 -1313h-278l-80 287h-322l-79 -287h-265zM245 1547q0 14 13.5 36.5t33 44t40 36t34.5 14.5t34.5 -14.5t40 -36t33 -44t13.5 -36.5q0 -16 -13.5 -38t-33 -42.5t-39.5 -34.5t-35 -14q-14 0 -34.5 14t-40 34.5t-33 42t-13.5 38.5zM416 502h207 l-72 256q-10 29 -17.5 61.5t-13.5 67.5h-4q-4 -35 -12 -68t-19 -61zM573 1547q0 14 13.5 36.5t32 44t38.5 36t35 14.5q14 0 35.5 -14.5t41 -36t33 -44t13.5 -36.5q0 -16 -13.5 -38t-33 -42.5t-41 -34.5t-35.5 -14t-34.5 14t-39 34.5t-32 42t-13.5 38.5z" />
<glyph unicode="&#xc5;" horiz-adv-x="1052" d="M14 0l408 1313h211l405 -1313h-278l-80 287h-322l-79 -287h-265zM305 1624q0 49 17.5 92.5t47 76t69.5 51t87 18.5q45 0 85 -18.5t69.5 -51t47 -76t17.5 -92.5t-17.5 -92t-47 -75.5t-69.5 -51t-85 -18.5q-47 0 -87 18.5t-69.5 51t-47 75.5t-17.5 92zM416 502h207l-72 256 q-10 29 -17.5 61.5t-13.5 67.5h-4q-4 -35 -12 -68t-19 -61zM428 1624q0 -53 27.5 -86.5t70.5 -33.5q41 0 69.5 33.5t28.5 86.5t-28.5 87t-69.5 34q-43 0 -70.5 -33.5t-27.5 -87.5z" />
<glyph unicode="&#xc6;" horiz-adv-x="1431" d="M6 0l629 1307h723v-236h-359v-297h291v-237h-291v-301h402v-236h-668v287h-315l-129 -287h-283zM516 504h217v364q0 45 2 90.5t4 92.5h-4q-12 -45 -29.5 -94.5t-35.5 -90.5z" />
<glyph unicode="&#xc7;" horiz-adv-x="970" d="M61 653q0 164 48.5 291t127 213t182 130t214.5 44q98 0 172 -21.5t117 -49.5l-19 -252q-35 29 -91 51t-140 22q-72 0 -130.5 -31.5t-101.5 -88t-66.5 -135t-23.5 -173.5q0 -94 23.5 -173t66.5 -135t103.5 -87t134.5 -31q82 0 142.5 19.5t99.5 54.5l-21 -264 q-84 -57 -260 -62l-4 -28q61 -4 110.5 -56.5t49.5 -138.5q0 -49 -17.5 -87t-45 -63.5t-62.5 -39t-72 -13.5q-41 0 -69.5 10.5t-53.5 28.5l14 119q25 -23 47.5 -29t49.5 -6q70 0 69 78q0 39 -19.5 59.5t-53.5 20.5q-12 0 -23.5 -1t-28.5 -5l19 158q-98 16 -186.5 67t-156 136 t-106.5 203t-39 265z" />
<glyph unicode="&#xc8;" horiz-adv-x="806" d="M94 0v1307h639v-236h-358v-297h291v-237h-291v-301h401v-236h-682zM147 1584l43 198q39 -45 87 -84t99.5 -69.5t103.5 -55t99 -39.5l-112 -116q-90 27 -165 62.5t-155 103.5z" />
<glyph unicode="&#xc9;" horiz-adv-x="806" d="M94 0v1307h639v-236h-358v-297h291v-237h-291v-301h401v-236h-682zM265 1534q47 14 99 39t103.5 55.5t99.5 69.5t87 84l43 -198q-80 -68 -156 -104t-164 -62z" />
<glyph unicode="&#xca;" horiz-adv-x="806" d="M94 0v1307h639v-236h-358v-297h291v-237h-291v-301h401v-236h-682zM166 1528q72 37 141.5 105.5t120.5 158.5q53 -90 121.5 -158.5t140.5 -105.5l-106 -110q-43 23 -81 50t-75 75q-35 -47 -73 -75t-81 -50z" />
<glyph unicode="&#xcb;" horiz-adv-x="806" d="M94 0v1307h639v-236h-358v-297h291v-237h-291v-301h401v-236h-682zM141 1547q0 14 13.5 36.5t33 44t40 36t34.5 14.5t34.5 -14.5t40 -36t33 -44t13.5 -36.5q0 -16 -13.5 -38t-33 -42.5t-39.5 -34.5t-35 -14q-14 0 -34.5 14t-40 34.5t-33 42t-13.5 38.5zM469 1547 q0 14 13.5 36.5t32 44t38.5 36t35 14.5q14 0 35.5 -14.5t41 -36t33 -44t13.5 -36.5q0 -16 -13.5 -38t-33 -42.5t-41 -34.5t-35.5 -14t-34.5 14t-39 34.5t-32 42t-13.5 38.5z" />
<glyph unicode="&#xcc;" horiz-adv-x="499" d="M2 1584l43 198q39 -45 87 -84t99.5 -69.5t103.5 -55t99 -39.5l-112 -116q-90 27 -165 62.5t-155 103.5zM109 0v1307h282v-1307h-282z" />
<glyph unicode="&#xcd;" horiz-adv-x="499" d="M70 1534q47 14 99 39t103.5 55.5t99.5 69.5t87 84l43 -198q-80 -68 -156 -104t-164 -62zM109 0v1307h282v-1307h-282z" />
<glyph unicode="&#xce;" horiz-adv-x="499" d="M-12 1528q72 37 141.5 105.5t120.5 158.5q53 -90 121.5 -158.5t140.5 -105.5l-106 -110q-43 23 -81 50t-75 75q-35 -47 -73 -75t-81 -50zM109 0v1307h282v-1307h-282z" />
<glyph unicode="&#xcf;" horiz-adv-x="499" d="M-33 1547q0 14 13.5 36.5t33 44t40 36t34.5 14.5t34.5 -14.5t40 -36t33 -44t13.5 -36.5q0 -16 -13.5 -38t-33 -42.5t-39.5 -34.5t-35 -14q-14 0 -34.5 14t-40 34.5t-33 42t-13.5 38.5zM109 0v1307h282v-1307h-282zM295 1547q0 14 13.5 36.5t32 44t38.5 36t35 14.5 q14 0 35.5 -14.5t41 -36t33 -44t13.5 -36.5q0 -16 -13.5 -38t-33 -42.5t-41 -34.5t-35.5 -14t-34.5 14t-39 34.5t-32 42t-13.5 38.5z" />
<glyph unicode="&#xd0;" horiz-adv-x="1130" d="M4 555v201h121v551h373q117 0 220 -42t181 -125t124 -205t46 -282t-46 -281.5t-124 -204.5t-181.5 -125t-219.5 -42h-373v555h-121zM399 244h70q63 0 120.5 24.5t100.5 74.5t68.5 128t25.5 182t-25.5 182t-68.5 128.5t-100.5 75t-120.5 24.5h-70v-307h156l-25 -201h-131 v-311z" />
<glyph unicode="&#xd1;" horiz-adv-x="1185" d="M94 0v1307h221l340 -480q39 -53 84 -120.5t80 -122.5h4q-4 57 -5 120.5t-1 118.5v484h277v-1317h-158l-385 526q-47 66 -95 136.5t-89 133.5l-5 -2q4 -66 5.5 -134t1.5 -128v-522h-275zM307 1446l43 187q66 47 130.5 74.5t144.5 35.5l20 -135q57 10 116.5 39t113.5 68 l-41 -187q-66 -49 -130.5 -75.5t-146.5 -34.5l-20 133q-55 -8 -115.5 -36t-114.5 -69z" />
<glyph unicode="&#xd2;" horiz-adv-x="1257" d="M61 655q0 154 45.5 279t122 213t180 136t220.5 48t219 -48t180 -136t123 -213t45 -279q0 -156 -45 -280.5t-123 -213.5t-180.5 -137.5t-218.5 -48.5q-117 0 -220.5 48.5t-180 137.5t-122 214t-45.5 280zM346 1584l43 198q39 -45 87 -84t99.5 -69.5t103.5 -55t99 -39.5 l-112 -116q-90 27 -165 62.5t-155 103.5zM350 655q0 -96 22.5 -174t61.5 -133t89 -86t106 -31q55 0 105 31t88 86t61.5 133t23.5 174q0 94 -23.5 172t-61.5 133.5t-88 86t-105 30.5t-105.5 -30.5t-89.5 -86t-61.5 -133t-22.5 -172.5z" />
<glyph unicode="&#xd3;" horiz-adv-x="1257" d="M61 655q0 154 45.5 279t122 213t180 136t220.5 48t219 -48t180 -136t123 -213t45 -279q0 -156 -45 -280.5t-123 -213.5t-180.5 -137.5t-218.5 -48.5q-117 0 -220.5 48.5t-180 137.5t-122 214t-45.5 280zM350 655q0 -96 22.5 -174t61.5 -133t89 -86t106 -31q55 0 105 31 t88 86t61.5 133t23.5 174q0 94 -23.5 172t-61.5 133.5t-88 86t-105 30.5t-105.5 -30.5t-89.5 -86t-61.5 -133t-22.5 -172.5zM467 1534q47 14 99 39t103.5 55.5t99.5 69.5t87 84l43 -198q-80 -68 -156 -104t-164 -62z" />
<glyph unicode="&#xd4;" horiz-adv-x="1257" d="M61 655q0 154 45.5 279t122 213t180 136t220.5 48t219 -48t180 -136t123 -213t45 -279q0 -156 -45 -280.5t-123 -213.5t-180.5 -137.5t-218.5 -48.5q-117 0 -220.5 48.5t-180 137.5t-122 214t-45.5 280zM350 655q0 -96 22.5 -174t61.5 -133t89 -86t106 -31q55 0 105 31 t88 86t61.5 133t23.5 174q0 94 -23.5 172t-61.5 133.5t-88 86t-105 30.5t-105.5 -30.5t-89.5 -86t-61.5 -133t-22.5 -172.5zM367 1528q72 37 141.5 105.5t120.5 158.5q53 -90 121.5 -158.5t140.5 -105.5l-106 -110q-43 23 -81 50t-75 75q-35 -47 -73 -75t-81 -50z" />
<glyph unicode="&#xd5;" horiz-adv-x="1257" d="M61 655q0 154 45.5 279t122 213t180 136t220.5 48t219 -48t180 -136t123 -213t45 -279q0 -156 -45 -280.5t-123 -213.5t-180.5 -137.5t-218.5 -48.5q-117 0 -220.5 48.5t-180 137.5t-122 214t-45.5 280zM338 1446l43 187q66 47 130.5 74.5t144.5 35.5l20 -135 q57 10 116.5 39t113.5 68l-41 -187q-66 -49 -130.5 -75.5t-146.5 -34.5l-20 133q-55 -8 -115.5 -36t-114.5 -69zM350 655q0 -96 22.5 -174t61.5 -133t89 -86t106 -31q55 0 105 31t88 86t61.5 133t23.5 174q0 94 -23.5 172t-61.5 133.5t-88 86t-105 30.5t-105.5 -30.5 t-89.5 -86t-61.5 -133t-22.5 -172.5z" />
<glyph unicode="&#xd6;" horiz-adv-x="1257" d="M61 655q0 154 45.5 279t122 213t180 136t220.5 48t219 -48t180 -136t123 -213t45 -279q0 -156 -45 -280.5t-123 -213.5t-180.5 -137.5t-218.5 -48.5q-117 0 -220.5 48.5t-180 137.5t-122 214t-45.5 280zM344 1547q0 14 13.5 36.5t33 44t40 36t34.5 14.5t34.5 -14.5 t40 -36t33 -44t13.5 -36.5q0 -16 -13.5 -38t-33 -42.5t-39.5 -34.5t-35 -14q-14 0 -34.5 14t-40 34.5t-33 42t-13.5 38.5zM350 655q0 -96 22.5 -174t61.5 -133t89 -86t106 -31q55 0 105 31t88 86t61.5 133t23.5 174q0 94 -23.5 172t-61.5 133.5t-88 86t-105 30.5 t-105.5 -30.5t-89.5 -86t-61.5 -133t-22.5 -172.5zM672 1547q0 14 13.5 36.5t32 44t38.5 36t35 14.5q14 0 35.5 -14.5t41 -36t33 -44t13.5 -36.5q0 -16 -13.5 -38t-33 -42.5t-41 -34.5t-35.5 -14t-34.5 14t-39 34.5t-32 42t-13.5 38.5z" />
<glyph unicode="&#xd7;" horiz-adv-x="761" d="M68 354l180 207l-180 207l143 141l170 -194l172 192l141 -137l-178 -207l180 -209l-143 -139l-172 193l-170 -193z" />
<glyph unicode="&#xd8;" horiz-adv-x="1257" d="M61 655q0 154 45.5 279t122 213t180 136t220.5 48q164 0 299 -94l78 125l102 -76l-84 -133q78 -88 125 -214t47 -284q0 -156 -45 -280.5t-123 -213.5t-180.5 -137.5t-218.5 -48.5q-82 0 -156 24t-139 67l-76 -119l-102 78l80 127q-80 90 -127.5 217t-47.5 286zM330 655 q0 -78 15 -144.5t44 -119.5l402 631q-78 68 -162 68q-59 0 -113.5 -32t-95.5 -89.5t-65.5 -137t-24.5 -176.5zM471 283q74 -63 158 -64q59 0 113.5 32t95.5 89t65.5 137t24.5 178q0 150 -58 258z" />
<glyph unicode="&#xd9;" horiz-adv-x="1122" d="M94 393v914h281v-891q0 -88 51 -139.5t137 -51.5t138.5 51.5t52.5 137.5v893h274v-914q0 -98 -36 -175t-99.5 -130t-148.5 -82t-183 -29t-183 29t-148.5 82t-99.5 130t-36 175zM272 1584l43 198q39 -45 87 -84t99.5 -69.5t103.5 -55t99 -39.5l-112 -116q-90 27 -165 62.5 t-155 103.5z" />
<glyph unicode="&#xda;" horiz-adv-x="1122" d="M94 393v914h281v-891q0 -88 51 -139.5t137 -51.5t138.5 51.5t52.5 137.5v893h274v-914q0 -98 -36 -175t-99.5 -130t-148.5 -82t-183 -29t-183 29t-148.5 82t-99.5 130t-36 175zM424 1534q47 14 99 39t103.5 55.5t99.5 69.5t87 84l43 -198q-80 -68 -156 -104t-164 -62z " />
<glyph unicode="&#xdb;" horiz-adv-x="1122" d="M94 393v914h281v-891q0 -88 51 -139.5t137 -51.5t138.5 51.5t52.5 137.5v893h274v-914q0 -98 -36 -175t-99.5 -130t-148.5 -82t-183 -29t-183 29t-148.5 82t-99.5 130t-36 175zM299 1528q72 37 141.5 105.5t120.5 158.5q53 -90 121.5 -158.5t140.5 -105.5l-106 -110 q-43 23 -81 50t-75 75q-35 -47 -73 -75t-81 -50z" />
<glyph unicode="&#xdc;" horiz-adv-x="1122" d="M94 393v914h281v-891q0 -88 51 -139.5t137 -51.5t138.5 51.5t52.5 137.5v893h274v-914q0 -98 -36 -175t-99.5 -130t-148.5 -82t-183 -29t-183 29t-148.5 82t-99.5 130t-36 175zM282 1547q0 14 13.5 36.5t33 44t40 36t34.5 14.5t34.5 -14.5t40 -36t33 -44t13.5 -36.5 q0 -16 -13.5 -38t-33 -42.5t-39.5 -34.5t-35 -14q-14 0 -34.5 14t-40 34.5t-33 42t-13.5 38.5zM610 1547q0 14 13.5 36.5t32 44t38.5 36t35 14.5q14 0 35.5 -14.5t41 -36t33 -44t13.5 -36.5q0 -16 -13.5 -38t-33 -42.5t-41 -34.5t-35.5 -14t-34.5 14t-39 34.5t-32 42 t-13.5 38.5z" />
<glyph unicode="&#xdd;" horiz-adv-x="1046" d="M-2 1307h295l160 -308q16 -33 38.5 -76.5t38.5 -78.5h5q16 35 38.5 79t38.5 76l158 308h274l-382 -729v-578h-277v571zM379 1534q47 14 99 39t103.5 55.5t99.5 69.5t87 84l43 -198q-80 -68 -156 -104t-164 -62z" />
<glyph unicode="&#xde;" horiz-adv-x="890" d="M94 0v1307h273v-152h131q74 0 140.5 -27.5t115.5 -78t78.5 -122t29.5 -159.5t-29.5 -159.5t-78.5 -123t-116 -79t-140 -27.5h-131v-379h-273zM367 608h92q49 0 90 40t41 120t-41 121t-90 41h-92v-322z" />
<glyph unicode="&#xdf;" horiz-adv-x="1030" d="M94 0v946q0 219 103.5 348t296.5 129q94 0 167.5 -33.5t124 -92t76 -135.5t25.5 -165q0 -66 -9.5 -124t-19.5 -99q-80 0 -132 -27.5t-52 -68.5q0 -29 19.5 -51.5t72.5 -53.5q111 -66 163 -137.5t52 -169.5q0 -59 -19.5 -111.5t-58.5 -92t-99.5 -62.5t-139.5 -23 q-80 0 -141.5 19.5t-94.5 44.5v225q35 -29 88 -53.5t125 -24.5q41 0 61.5 20.5t20.5 49.5q0 33 -19.5 57.5t-66.5 53.5q-104 66 -158.5 137.5t-54.5 163.5q0 109 59.5 174t132.5 84q6 18 8.5 37.5t2.5 44.5q0 35 -10.5 68.5t-28 60t-42 43t-52.5 16.5q-66 0 -104 -65.5 t-38 -169.5v-963h-258z" />
<glyph unicode="&#xe0;" horiz-adv-x="845" d="M47 268q0 135 78 215t207 95l133 14v37q0 106 -125 106q-66 0 -124 -20.5t-93 -44.5l-19 215q41 29 113 47t145 18q168 0 266.5 -92t98.5 -268v-291q0 -59 26.5 -90t67.5 -41l-98 -193q-57 4 -102.5 30t-67.5 71q-39 -49 -95.5 -74t-121.5 -25q-59 0 -112.5 18.5 t-92.5 55.5t-61.5 91.5t-22.5 125.5zM127 1186l37 168q68 -78 159 -131.5t173 -79.5l-97 -99q-78 23 -140 52.5t-132 89.5zM283 266q0 -39 22.5 -65.5t56.5 -26.5q43 0 76 34t33 87v111l-88 -9q-47 -4 -73.5 -41t-26.5 -90z" />
<glyph unicode="&#xe1;" horiz-adv-x="845" d="M47 268q0 135 78 215t207 95l133 14v37q0 106 -125 106q-66 0 -124 -20.5t-93 -44.5l-19 215q41 29 113 47t145 18q168 0 266.5 -92t98.5 -268v-291q0 -59 26.5 -90t67.5 -41l-98 -193q-57 4 -102.5 30t-67.5 71q-39 -49 -95.5 -74t-121.5 -25q-59 0 -112.5 18.5 t-92.5 55.5t-61.5 91.5t-22.5 125.5zM213 1145q82 27 173 79t157 130l37 -168q-68 -57 -131.5 -88t-139.5 -54zM283 266q0 -39 22.5 -65.5t56.5 -26.5q43 0 76 34t33 87v111l-88 -9q-47 -4 -73.5 -41t-26.5 -90z" />
<glyph unicode="&#xe2;" horiz-adv-x="845" d="M47 268q0 135 78 215t207 95l133 14v37q0 106 -125 106q-66 0 -124 -20.5t-93 -44.5l-19 215q41 29 113 47t145 18q168 0 266.5 -92t98.5 -268v-291q0 -59 26.5 -90t67.5 -41l-98 -193q-57 4 -102.5 30t-67.5 71q-39 -49 -95.5 -74t-121.5 -25q-59 0 -112.5 18.5 t-92.5 55.5t-61.5 91.5t-22.5 125.5zM160 1139q61 31 120.5 89t102.5 136q45 -78 104.5 -136.5t118.5 -88.5l-90 -95q-37 20 -68.5 44t-64.5 63q-29 -39 -61.5 -62.5t-69.5 -44.5zM283 266q0 -39 22.5 -65.5t56.5 -26.5q43 0 76 34t33 87v111l-88 -9q-47 -4 -73.5 -41 t-26.5 -90z" />
<glyph unicode="&#xe3;" horiz-adv-x="845" d="M47 268q0 135 78 215t207 95l133 14v37q0 106 -125 106q-66 0 -124 -20.5t-93 -44.5l-19 215q41 29 113 47t145 18q168 0 266.5 -92t98.5 -268v-291q0 -59 26.5 -90t67.5 -41l-98 -193q-57 4 -102.5 30t-67.5 71q-39 -49 -95.5 -74t-121.5 -25q-59 0 -112.5 18.5 t-92.5 55.5t-61.5 91.5t-22.5 125.5zM160 1069l37 158q55 41 110 64.5t123 29.5l19 -115q47 8 98 33t96 57l-35 -157q-57 -41 -111.5 -64.5t-123.5 -30.5l-17 113q-47 -6 -98 -29.5t-98 -58.5zM283 266q0 -39 22.5 -65.5t56.5 -26.5q43 0 76 34t33 87v111l-88 -9 q-47 -4 -73.5 -41t-26.5 -90z" />
<glyph unicode="&#xe4;" horiz-adv-x="845" d="M47 268q0 135 78 215t207 95l133 14v37q0 106 -125 106q-66 0 -124 -20.5t-93 -44.5l-19 215q41 29 113 47t145 18q168 0 266.5 -92t98.5 -268v-291q0 -59 26.5 -90t67.5 -41l-98 -193q-57 4 -102.5 30t-67.5 71q-39 -49 -95.5 -74t-121.5 -25q-59 0 -112.5 18.5 t-92.5 55.5t-61.5 91.5t-22.5 125.5zM145 1155q0 12 11.5 31.5t28 37t35 30t30.5 12.5t29.5 -12.5t34 -30t27.5 -37t11 -31.5t-11 -31.5t-27.5 -37t-34 -30t-29.5 -12.5t-30.5 12.5t-35 30t-28 37t-11.5 31.5zM283 266q0 -39 22.5 -65.5t56.5 -26.5q43 0 76 34t33 87v111 l-88 -9q-47 -4 -73.5 -41t-26.5 -90zM424 1155q0 12 11 31.5t27.5 37t34 30t29.5 12.5t30.5 -12.5t35 -30t28 -37t11.5 -31.5t-11.5 -31.5t-28 -37t-34.5 -30t-31 -12.5q-12 0 -29.5 12.5t-34 30t-27.5 37t-11 31.5z" />
<glyph unicode="&#xe5;" horiz-adv-x="845" d="M47 268q0 135 78 215t207 95l133 14v37q0 106 -125 106q-66 0 -124 -20.5t-93 -44.5l-19 215q41 29 113 47t145 18q168 0 266.5 -92t98.5 -268v-291q0 -59 26.5 -90t67.5 -41l-98 -193q-57 4 -102.5 30t-67.5 71q-39 -49 -95.5 -74t-121.5 -25q-59 0 -112.5 18.5 t-92.5 55.5t-61.5 91.5t-22.5 125.5zM193 1221q0 41 14 77.5t39.5 64.5t59.5 44t73 16t72.5 -16t59.5 -44t40 -64.5t14 -77.5t-14 -78t-40 -64.5t-59.5 -44t-72.5 -16.5t-73 16.5t-59.5 44t-39.5 64.5t-14 78zM283 266q0 -39 22.5 -65.5t56.5 -26.5q43 0 76 34t33 87v111 l-88 -9q-47 -4 -73.5 -41t-26.5 -90zM297 1221q0 -45 23.5 -74t58.5 -29t59.5 29t24.5 74q0 47 -24.5 74.5t-59.5 27.5t-58.5 -27.5t-23.5 -74.5z" />
<glyph unicode="&#xe6;" horiz-adv-x="1277" d="M47 264q0 131 76 211t207 94l135 15v47q0 47 -29.5 75.5t-95.5 28.5t-124 -20.5t-93 -44.5l-19 215q41 29 113 47t145 18q80 0 150 -25.5t111 -76.5q49 51 115.5 76.5t138.5 25.5q82 0 147.5 -29.5t110.5 -79.5t68.5 -115.5t23.5 -137.5q0 -20 -1 -48t-5 -46l-109 -109 h-371q6 -37 22.5 -71.5t44.5 -62.5t66.5 -44.5t92.5 -16.5q63 0 114.5 17.5t96.5 50.5l-19 -227q-39 -23 -96 -38.5t-135 -15.5q-96 0 -178 33t-138 99q-47 -72 -119.5 -102t-148.5 -30q-61 0 -115.5 18.5t-94.5 55.5t-63.5 90.5t-23.5 122.5zM283 262q0 -39 22.5 -63.5 t56.5 -24.5q43 0 76 34t33 87v102l-88 -8q-53 -4 -76.5 -42t-23.5 -85zM735 571h248q0 4 1 12.5t1 12.5q0 59 -29.5 105.5t-78.5 46.5q-53 0 -92.5 -50.5t-49.5 -126.5z" />
<glyph unicode="&#xe7;" d="M51 463q0 115 34 205t92.5 153.5t136 96t163.5 32.5q80 0 138.5 -16t99.5 -41l-19 -236q-37 27 -80 41.5t-96 14.5q-86 0 -141 -67.5t-55 -182.5t59 -182.5t147 -67.5q94 0 177 53l-19 -241q-35 -23 -90 -35.5t-113 -12.5l-2 -26q51 -4 94.5 -49t43.5 -123 q0 -86 -53.5 -130t-116.5 -44q-37 0 -61.5 7t-47.5 23l14 105q20 -18 40 -25.5t44 -7.5q27 0 43.5 19.5t16.5 50.5q0 35 -17.5 53t-46.5 18h-21.5t-25.5 -4l19 140q-74 12 -139.5 51t-114 100.5t-76 144t-27.5 183.5z" />
<glyph unicode="&#xe8;" horiz-adv-x="854" d="M49 469q0 111 32 200t87 151.5t129 96t158 33.5q82 0 147.5 -29.5t111.5 -79.5t69.5 -115.5t23.5 -137.5q0 -20 -2 -48t-6 -46l-111 -109h-369q6 -37 21.5 -73t43.5 -63.5t66.5 -45t90.5 -17.5q66 0 119 19.5t96 52.5l-19 -227q-37 -23 -94 -38.5t-137 -15.5 q-98 0 -182 35t-144.5 98.5t-95.5 154.5t-35 204zM225 1186l37 168q66 -78 158 -130.5t172 -78.5l-94 -101q-78 23 -141.5 53.5t-131.5 88.5zM313 571h248q0 4 1 12.5t1 12.5q0 59 -29.5 105.5t-78.5 46.5q-53 0 -92 -50.5t-50 -126.5z" />
<glyph unicode="&#xe9;" horiz-adv-x="854" d="M49 469q0 111 32 200t87 151.5t129 96t158 33.5q82 0 147.5 -29.5t111.5 -79.5t69.5 -115.5t23.5 -137.5q0 -20 -2 -48t-6 -46l-111 -109h-369q6 -37 21.5 -73t43.5 -63.5t66.5 -45t90.5 -17.5q66 0 119 19.5t96 52.5l-19 -227q-37 -23 -94 -38.5t-137 -15.5 q-98 0 -182 35t-144.5 98.5t-95.5 154.5t-35 204zM313 571h248q0 4 1 12.5t1 12.5q0 59 -29.5 105.5t-78.5 46.5q-53 0 -92 -50.5t-50 -126.5zM315 1143q82 27 174.5 80t157.5 131l37 -168q-68 -59 -132.5 -89t-139.5 -53z" />
<glyph unicode="&#xea;" horiz-adv-x="854" d="M49 469q0 111 32 200t87 151.5t129 96t158 33.5q82 0 147.5 -29.5t111.5 -79.5t69.5 -115.5t23.5 -137.5q0 -20 -2 -48t-6 -46l-111 -109h-369q6 -37 21.5 -73t43.5 -63.5t66.5 -45t90.5 -17.5q66 0 119 19.5t96 52.5l-19 -227q-37 -23 -94 -38.5t-137 -15.5 q-98 0 -182 35t-144.5 98.5t-95.5 154.5t-35 204zM229 1139q59 31 120 89t104 136q45 -78 104 -136.5t119 -88.5l-90 -95q-37 20 -70 44t-63 63q-31 -39 -63 -62.5t-68 -44.5zM313 571h248q0 4 1 12.5t1 12.5q0 59 -29.5 105.5t-78.5 46.5q-53 0 -92 -50.5t-50 -126.5z" />
<glyph unicode="&#xeb;" horiz-adv-x="854" d="M49 469q0 111 32 200t87 151.5t129 96t158 33.5q82 0 147.5 -29.5t111.5 -79.5t69.5 -115.5t23.5 -137.5q0 -20 -2 -48t-6 -46l-111 -109h-369q6 -37 21.5 -73t43.5 -63.5t66.5 -45t90.5 -17.5q66 0 119 19.5t96 52.5l-19 -227q-37 -23 -94 -38.5t-137 -15.5 q-98 0 -182 35t-144.5 98.5t-95.5 154.5t-35 204zM211 1155q0 12 11 31.5t27.5 37t34 30t29.5 12.5t29.5 -12.5t34 -30t28 -37t11.5 -31.5t-11.5 -31.5t-28 -37t-33.5 -30t-30 -12.5q-12 0 -29.5 12.5t-34 30t-27.5 37t-11 31.5zM313 571h248q0 4 1 12.5t1 12.5 q0 59 -29.5 105.5t-78.5 46.5q-53 0 -92 -50.5t-50 -126.5zM489 1155q0 12 11.5 31.5t27 37t33 30t29.5 12.5t30.5 -12.5t35 -30t27.5 -37t11 -31.5t-11 -31.5t-27.5 -37t-35 -30t-30.5 -12.5t-29.5 12.5t-33 30t-27 37t-11.5 31.5z" />
<glyph unicode="&#xec;" horiz-adv-x="466" d="M-2 1186l37 168q66 -78 158 -131.5t174 -79.5l-97 -99q-78 23 -141 52.5t-131 89.5zM98 0v928h271v-928h-271z" />
<glyph unicode="&#xed;" horiz-adv-x="466" d="M98 0v928h271v-928h-271zM102 1143q80 27 172.5 80t157.5 131l37 -168q-68 -59 -131.5 -89t-140.5 -53z" />
<glyph unicode="&#xee;" horiz-adv-x="466" d="M10 1137q59 33 118.5 91t102.5 134q45 -76 104.5 -134.5t119.5 -90.5l-90 -95q-37 20 -69 44t-65 63q-29 -39 -61.5 -62.5t-67.5 -44.5zM98 0v928h271v-928h-271z" />
<glyph unicode="&#xef;" horiz-adv-x="466" d="M-10 1155q0 12 11 31.5t27.5 37t34 30t29.5 12.5t30.5 -12.5t35 -30t28 -37t11.5 -31.5t-11.5 -31.5t-28 -37t-35 -30t-30.5 -12.5t-29.5 12.5t-34 30t-27.5 37t-11 31.5zM98 0v928h271v-928h-271zM268 1155q0 12 11.5 31.5t27 37t33.5 30t31 12.5q12 0 30.5 -12.5 t35 -30t27.5 -37t11 -31.5t-11 -31.5t-27.5 -37t-35 -30t-30.5 -12.5t-30.5 12.5t-34 30t-27 37t-11.5 31.5z" />
<glyph unicode="&#xf0;" horiz-adv-x="913" d="M51 416q0 150 61.5 250t151.5 151q35 20 86 41t101 31l-56 151l-135 -49l-67 191l133 47l-64 180h281l32 -90l109 39l68 -191l-107 -39l168 -460q16 -53 28.5 -117t12.5 -113q0 -106 -29.5 -191t-83 -145.5t-127 -93.5t-163.5 -33t-164 34t-126 93.5t-81 139.5t-29 174z M315 418q0 -92 38 -146.5t96 -54.5q59 0 98 57.5t39 159.5q0 47 -19.5 111.5t-36.5 118.5q-59 -10 -116 -43q-47 -27 -73 -79.5t-26 -123.5z" />
<glyph unicode="&#xf1;" horiz-adv-x="915" d="M78 0v928h235l9 -86q29 47 84 76.5t141 29.5q135 0 213 -84t78 -225v-639h-269v586q0 51 -27.5 87t-80.5 36t-84 -36t-31 -93v-580h-268zM215 1069l37 158q55 41 110.5 64.5t122.5 29.5l17 -115q49 8 100 33t96 57l-34 -157q-57 -41 -111.5 -64.5t-124.5 -30.5l-18 113 q-47 -6 -97.5 -29.5t-97.5 -58.5z" />
<glyph unicode="&#xf2;" horiz-adv-x="948" d="M51 463q0 109 32 198t88 153.5t133 100t169 35.5t169 -35.5t134.5 -100t89 -153.5t31.5 -198t-31.5 -198t-89 -152.5t-134.5 -99.5t-169 -36t-169 36t-133 99.5t-88 152.5t-32 198zM240 1186l36 168q68 -78 159 -131.5t173 -79.5l-96 -99q-78 23 -140.5 52.5t-131.5 89.5 zM315 463q0 -55 12.5 -102.5t34 -81t51 -52t62.5 -18.5q63 0 110.5 70.5t47.5 183.5q0 115 -47 186.5t-111 71.5q-33 0 -62.5 -19.5t-51 -53.5t-34 -81t-12.5 -104z" />
<glyph unicode="&#xf3;" horiz-adv-x="948" d="M51 463q0 109 32 198t88 153.5t133 100t169 35.5t169 -35.5t134.5 -100t89 -153.5t31.5 -198t-31.5 -198t-89 -152.5t-134.5 -99.5t-169 -36t-169 36t-133 99.5t-88 152.5t-32 198zM315 463q0 -55 12.5 -102.5t34 -81t51 -52t62.5 -18.5q63 0 110.5 70.5t47.5 183.5 q0 115 -47 186.5t-111 71.5q-33 0 -62.5 -19.5t-51 -53.5t-34 -81t-12.5 -104zM346 1143q80 27 172 80t158 131l37 -168q-68 -59 -131.5 -89t-141.5 -53z" />
<glyph unicode="&#xf4;" horiz-adv-x="948" d="M51 463q0 109 32 198t88 153.5t133 100t169 35.5t169 -35.5t134.5 -100t89 -153.5t31.5 -198t-31.5 -198t-89 -152.5t-134.5 -99.5t-169 -36t-169 36t-133 99.5t-88 152.5t-32 198zM250 1139q59 31 118.5 89t104.5 136q43 -78 102.5 -136.5t118.5 -88.5l-90 -95 q-37 20 -68.5 44t-62.5 63q-31 -39 -62.5 -62.5t-68.5 -44.5zM315 463q0 -55 12.5 -102.5t34 -81t51 -52t62.5 -18.5q63 0 110.5 70.5t47.5 183.5q0 115 -47 186.5t-111 71.5q-33 0 -62.5 -19.5t-51 -53.5t-34 -81t-12.5 -104z" />
<glyph unicode="&#xf5;" horiz-adv-x="948" d="M51 463q0 109 32 198t88 153.5t133 100t169 35.5t169 -35.5t134.5 -100t89 -153.5t31.5 -198t-31.5 -198t-89 -152.5t-134.5 -99.5t-169 -36t-169 36t-133 99.5t-88 152.5t-32 198zM236 1069l36 158q53 41 108.5 64.5t125.5 29.5l16 -115q49 8 99.5 33t95.5 57l-35 -157 q-55 -41 -109.5 -64.5t-123.5 -30.5l-19 113q-47 -6 -97 -29.5t-97 -58.5zM315 463q0 -55 12.5 -102.5t34 -81t51 -52t62.5 -18.5q63 0 110.5 70.5t47.5 183.5q0 115 -47 186.5t-111 71.5q-33 0 -62.5 -19.5t-51 -53.5t-34 -81t-12.5 -104z" />
<glyph unicode="&#xf6;" horiz-adv-x="948" d="M51 463q0 109 32 198t88 153.5t133 100t169 35.5t169 -35.5t134.5 -100t89 -153.5t31.5 -198t-31.5 -198t-89 -152.5t-134.5 -99.5t-169 -36t-169 36t-133 99.5t-88 152.5t-32 198zM231 1155q0 12 11.5 31.5t28 37t34 30t29.5 12.5t29.5 -12.5t34 -30t27.5 -37t11 -31.5 t-11 -31.5t-27.5 -37t-34 -30t-29.5 -12.5t-29.5 12.5t-34 30t-28 37t-11.5 31.5zM315 463q0 -55 12.5 -102.5t34 -81t51 -52t62.5 -18.5q63 0 110.5 70.5t47.5 183.5q0 115 -47 186.5t-111 71.5q-33 0 -62.5 -19.5t-51 -53.5t-34 -81t-12.5 -104zM510 1155q0 12 11 31.5 t26.5 37t33 30t29.5 12.5t30.5 -12.5t35 -30t28 -37t11.5 -31.5t-11.5 -31.5t-28 -37t-34.5 -30t-31 -12.5q-12 0 -29.5 12.5t-33 30t-26.5 37t-11 31.5z" />
<glyph unicode="&#xf7;" horiz-adv-x="774" d="M59 463v207h658v-207h-658zM264 250q0 16 13.5 38.5t33 44t40 36t36.5 14.5q14 0 35.5 -14.5t41 -36t33 -44t13.5 -38.5t-13.5 -39t-33 -44.5t-41 -35.5t-35.5 -14q-16 0 -36.5 14t-40 35.5t-33 44t-13.5 39.5zM264 881q0 16 13.5 39.5t33 44t40 35t36.5 14.5 q14 0 35.5 -14.5t41 -35t33 -44t13.5 -39.5t-13.5 -39t-33 -44.5t-41 -35.5t-35.5 -14q-16 0 -36.5 14t-40 35.5t-33 44t-13.5 39.5z" />
<glyph unicode="&#xf8;" horiz-adv-x="944" d="M51 463q0 109 32 198t88 153.5t133 100t169 35.5q119 0 213 -59l64 96l90 -67l-66 -101q59 -66 91 -155.5t32 -200.5q0 -109 -31.5 -198t-89 -152.5t-134.5 -99.5t-169 -36q-119 0 -215 62l-65 -98l-89 67l68 103q-57 66 -89 153.5t-32 198.5zM289 463q0 -76 22 -139 l254 385q-41 37 -90 36q-37 0 -70.5 -20t-59.5 -58t-41 -90.5t-15 -113.5zM379 221q45 -39 96 -39q37 0 70 20.5t57.5 58.5t39.5 89.5t15 112.5q0 82 -24 143z" />
<glyph unicode="&#xf9;" horiz-adv-x="915" d="M78 289v639h268v-586q0 -51 27.5 -87t81.5 -36q53 0 83.5 36t30.5 93v580h269v-928h-236l-6 86q-29 -47 -85 -76.5t-142 -29.5q-133 0 -212 83.5t-79 225.5zM215 1186l35 168q68 -78 159 -131.5t173 -79.5l-97 -99q-78 23 -140 52.5t-130 89.5z" />
<glyph unicode="&#xfa;" horiz-adv-x="915" d="M78 289v639h268v-586q0 -51 27.5 -87t81.5 -36q53 0 83.5 36t30.5 93v580h269v-928h-236l-6 86q-29 -47 -85 -76.5t-142 -29.5q-133 0 -212 83.5t-79 225.5zM336 1145q82 27 173 79t157 130l36 -168q-68 -57 -131 -88t-139 -54z" />
<glyph unicode="&#xfb;" horiz-adv-x="915" d="M78 289v639h268v-586q0 -51 27.5 -87t81.5 -36q53 0 83.5 36t30.5 93v580h269v-928h-236l-6 86q-29 -47 -85 -76.5t-142 -29.5q-133 0 -212 83.5t-79 225.5zM236 1139q59 31 119.5 89t103.5 136q45 -78 103.5 -136.5t117.5 -88.5l-90 -95q-37 20 -69 44t-62 63 q-31 -39 -62.5 -62.5t-68.5 -44.5z" />
<glyph unicode="&#xfc;" horiz-adv-x="915" d="M78 289v639h268v-586q0 -51 27.5 -87t81.5 -36q53 0 83.5 36t30.5 93v580h269v-928h-236l-6 86q-29 -47 -85 -76.5t-142 -29.5q-133 0 -212 83.5t-79 225.5zM219 1155q0 12 11.5 31.5t27.5 37t33.5 30t30.5 12.5q12 0 29.5 -12.5t33.5 -30t27.5 -37t11.5 -31.5 t-11.5 -31.5t-27.5 -37t-33.5 -30t-29.5 -12.5t-30 12.5t-34 30t-27.5 37t-11.5 31.5zM498 1155q0 12 11 31.5t26.5 37t33 30t29.5 12.5t30.5 -12.5t35 -30t27.5 -37t11 -31.5t-11 -31.5t-27.5 -37t-35 -30t-30.5 -12.5t-29.5 12.5t-33 30t-26.5 37t-11 31.5z" />
<glyph unicode="&#xfd;" horiz-adv-x="866" d="M23 928h260l108 -350q12 -41 23.5 -85t21.5 -92h4q10 47 20.5 90.5t22.5 83.5l111 353h250l-269 -848q-74 -236 -172 -362t-241 -171l-109 183q43 16 79 39.5t66.5 59.5t57.5 88t53 128zM317 1143q82 27 173.5 80t158.5 131l37 -168q-70 -59 -133.5 -89t-138.5 -53z" />
<glyph unicode="&#xfe;" horiz-adv-x="950" d="M86 -432v1841h262v-502q66 41 166 41q68 0 136.5 -31.5t123.5 -93t90 -150.5t35 -202q0 -111 -30.5 -201t-86 -155.5t-131.5 -101.5t-168 -36q-45 0 -78.5 8.5t-56.5 22.5v-440h-262zM348 254q20 -18 51 -30.5t70 -12.5q72 0 119 70.5t47 181.5t-47 181.5t-119 70.5 q-39 0 -68.5 -14.5t-52.5 -36.5v-410z" />
<glyph unicode="&#xff;" horiz-adv-x="866" d="M23 928h260l108 -350q12 -41 23.5 -85t21.5 -92h4q10 47 20.5 90.5t22.5 83.5l111 353h250l-269 -848q-74 -236 -172 -362t-241 -171l-109 183q43 16 79 39.5t66.5 59.5t57.5 88t53 128zM199 1147q0 12 11 31.5t27.5 38t34 31t29.5 12.5t29.5 -12.5t34 -31t27.5 -38 t11 -31.5t-11 -31.5t-27.5 -36t-34 -29t-29.5 -12.5t-29.5 12.5t-34 29t-27.5 36t-11 31.5zM477 1147q0 12 11.5 31.5t26.5 38t32.5 31t30.5 12.5q12 0 30.5 -12.5t34.5 -31t27.5 -38t11.5 -31.5t-11.5 -31.5t-27.5 -36t-34.5 -29t-30.5 -12.5t-30 12.5t-33 29t-26.5 36 t-11.5 31.5z" />
<glyph unicode="&#x152;" horiz-adv-x="1566" d="M61 655q0 154 45.5 279t122 213t180 136t220.5 48q72 0 141.5 -20.5t124.5 -61.5v58h598v-236h-358v-297h292v-237h-292v-301h401v-236h-641v59q-55 -41 -125 -61.5t-141 -20.5q-117 0 -220.5 48.5t-180 136.5t-122 213t-45.5 280zM350 655q0 -92 23.5 -169.5t62.5 -133 t91.5 -86t111.5 -30.5q66 0 125 26.5t100 71.5v639q-41 47 -100 73.5t-125 26.5q-59 0 -111.5 -30.5t-91.5 -86t-62.5 -132t-23.5 -169.5z" />
<glyph unicode="&#x153;" horiz-adv-x="1429" d="M49 465q0 109 32 198t89 153.5t134 99t169 34.5q84 0 160 -32.5t125 -92.5q47 59 120.5 92t151.5 33q82 0 147.5 -29.5t110.5 -79.5t68.5 -115.5t23.5 -137.5q0 -20 -2 -48t-6 -46l-108 -109h-369q6 -37 21.5 -71.5t43 -62.5t67.5 -44.5t91 -16.5q66 0 118 17.5t95 50.5 l-20 -227q-37 -23 -93.5 -39.5t-138.5 -16.5q-94 0 -178 35t-139 99q-49 -61 -125 -96.5t-164 -35.5q-92 0 -169 35t-134 99.5t-89 154.5t-32 199zM315 463q0 -55 12.5 -102.5t34 -81t51 -52t62.5 -18.5q63 0 110.5 70.5t47.5 183.5q0 115 -47 186.5t-111 71.5 q-33 0 -62.5 -19.5t-51 -53.5t-34 -81t-12.5 -104zM889 571h248q0 4 1 12.5t1 12.5q0 59 -30 105.5t-81 46.5q-53 0 -91 -50.5t-48 -126.5z" />
<glyph unicode="&#x178;" horiz-adv-x="1046" d="M-2 1307h295l160 -308q16 -33 38.5 -76.5t38.5 -78.5h5q16 35 38.5 79t38.5 76l158 308h274l-382 -729v-578h-277v571zM237 1543q0 14 13.5 36.5t33 44t40 36t34.5 14.5t34.5 -14.5t40 -36t33 -44t13.5 -36.5q0 -16 -13.5 -38t-33 -42.5t-39.5 -34.5t-35 -14 q-14 0 -34.5 14t-40 34.5t-33 42t-13.5 38.5zM565 1543q0 14 13.5 36.5t32 44t38.5 36t35 14.5q14 0 35.5 -14.5t41 -36t33 -44t13.5 -36.5q0 -16 -13.5 -38t-33 -42.5t-41 -34.5t-35.5 -14t-34.5 14t-39 34.5t-32 42t-13.5 38.5z" />
<glyph unicode="&#x2c6;" d="M119 1118q72 37 141.5 105.5t120.5 158.5q53 -90 121.5 -158.5t140.5 -105.5l-106 -110q-43 23 -81 50t-75 75q-35 -47 -73 -75t-81 -50z" />
<glyph unicode="&#x2dc;" d="M98 1036l43 187q66 47 130.5 74.5t144.5 35.5l20 -135q57 10 116.5 39t113.5 68l-41 -187q-66 -49 -130.5 -75.5t-146.5 -34.5l-20 133q-55 -8 -115.5 -36t-114.5 -69z" />
<glyph unicode="&#x2000;" horiz-adv-x="931" />
<glyph unicode="&#x2001;" horiz-adv-x="1862" />
<glyph unicode="&#x2002;" horiz-adv-x="931" />
<glyph unicode="&#x2003;" horiz-adv-x="1862" />
<glyph unicode="&#x2004;" horiz-adv-x="620" />
<glyph unicode="&#x2005;" horiz-adv-x="465" />
<glyph unicode="&#x2006;" horiz-adv-x="310" />
<glyph unicode="&#x2007;" horiz-adv-x="310" />
<glyph unicode="&#x2008;" horiz-adv-x="232" />
<glyph unicode="&#x2009;" horiz-adv-x="372" />
<glyph unicode="&#x200a;" horiz-adv-x="103" />
<glyph unicode="&#x2010;" horiz-adv-x="565" d="M59 463v207h447v-207h-447z" />
<glyph unicode="&#x2011;" horiz-adv-x="565" d="M59 463v207h447v-207h-447z" />
<glyph unicode="&#x2012;" horiz-adv-x="565" d="M59 463v207h447v-207h-447z" />
<glyph unicode="&#x2013;" horiz-adv-x="993" d="M59 463v207h877v-207h-877z" />
<glyph unicode="&#x2014;" horiz-adv-x="1425" d="M59 463v207h1309v-207h-1309z" />
<glyph unicode="&#x2018;" horiz-adv-x="403" d="M51 989q0 43 20.5 99.5t52.5 115t74 114.5t85 99l88 -14q-51 -63 -88 -137t-47 -138q14 -4 34.5 -19t39 -36.5t30.5 -44t12 -39.5q0 -23 -16.5 -50.5t-41 -52t-50 -42t-43.5 -17.5q-16 0 -42 17.5t-49.5 42t-41 52.5t-17.5 50z" />
<glyph unicode="&#x2019;" horiz-adv-x="403" d="M33 850q51 61 88 137t47 137q-16 4 -35.5 19.5t-38 36t-31 43t-12.5 39.5q0 23 16.5 50t41 52t50 42t44.5 17q16 0 41.5 -16t50 -41t42 -53t17.5 -51q0 -41 -20.5 -97.5t-53 -115t-74.5 -114.5t-85 -99z" />
<glyph unicode="&#x201a;" horiz-adv-x="403" d="M33 -272q51 61 88 137t47 139q-16 2 -35.5 18.5t-38 37t-31 43t-12.5 38.5q0 20 16.5 48t41 52.5t50 42t44.5 17.5q16 0 41.5 -16.5t50 -41t42 -52t17.5 -50.5q0 -43 -20.5 -99t-53 -114.5t-74.5 -115t-85 -99.5z" />
<glyph unicode="&#x201c;" horiz-adv-x="778" d="M51 989q0 43 20.5 99.5t52.5 115t74 114.5t85 99l90 -14q-53 -63 -90 -137t-47 -138q14 -4 34.5 -19t39 -36.5t31.5 -44t13 -39.5q0 -23 -17.5 -50.5t-41 -52t-49 -42t-43.5 -17.5q-16 0 -42 17.5t-50.5 42t-42 52.5t-17.5 50zM426 989q0 43 20.5 99.5t53 115t74.5 114.5 t85 99l89 -14q-53 -63 -90 -137t-48 -136q16 -4 37 -20t39.5 -37.5t30.5 -44t12 -39.5q0 -23 -17.5 -50.5t-41 -52t-49 -42t-43.5 -17.5q-16 0 -42 17.5t-50.5 42t-42 52.5t-17.5 50z" />
<glyph unicode="&#x201d;" horiz-adv-x="780" d="M33 850q51 61 88 137t47 137q-16 4 -35.5 19.5t-38 36t-31 43t-12.5 39.5q0 23 16.5 50t41 52t50 42t44.5 17q14 0 39.5 -16t50 -41t43 -53t18.5 -51q0 -41 -20.5 -97.5t-53 -115t-74.5 -114.5t-87 -99zM408 850q51 63 89 138t48 136q-16 4 -37 19.5t-39 37t-30.5 43 t-12.5 38.5q0 23 16.5 50t41 52t50 42t44.5 17q16 0 41.5 -16t49 -41t41 -53t17.5 -51q0 -41 -19.5 -96.5t-52 -115t-74.5 -115.5t-85 -99z" />
<glyph unicode="&#x201e;" horiz-adv-x="780" d="M29 -272q51 61 88 137t47 139q-16 2 -35.5 17.5t-38 36t-31 43t-12.5 40.5q0 20 16.5 48t41 52.5t50 42t44.5 17.5q14 0 39.5 -16.5t50 -41t43 -52t18.5 -50.5q0 -43 -20.5 -99t-53 -114.5t-74.5 -115t-87 -99.5zM403 -270q51 61 89 136t49 138q-16 2 -37 17.5t-39.5 36 t-30.5 43t-12 40.5q0 20 16.5 48t41 52.5t50 42t43.5 17.5q16 0 42 -16.5t49.5 -41t41 -52t17.5 -50.5q0 -43 -19.5 -99t-52.5 -114.5t-74.5 -115t-84.5 -99.5z" />
<glyph unicode="&#x2022;" horiz-adv-x="704" d="M61 563q0 74 22.5 134.5t61.5 103.5t92.5 67.5t114.5 24.5t114.5 -24.5t93.5 -67.5t62.5 -103.5t22.5 -134.5t-22.5 -135t-62.5 -104t-93 -68t-115 -25q-61 0 -114.5 25t-92.5 68t-61.5 104t-22.5 135z" />
<glyph unicode="&#x2026;" horiz-adv-x="1153" d="M51 139q0 18 16.5 46t40 53.5t50 44t45.5 18.5q18 0 43.5 -18.5t50.5 -44t41 -53.5t16 -46q0 -20 -16 -48t-41 -53.5t-50.5 -43t-43.5 -17.5t-45 17.5t-50.5 43t-40 53.5t-16.5 48zM426 139q0 18 16.5 46t40 53.5t50 44t45.5 18.5q18 0 43.5 -18.5t49 -44t40 -53.5 t16.5 -46q0 -20 -16.5 -48t-40 -53.5t-49 -43t-43.5 -17.5t-45 17.5t-50.5 43t-40 53.5t-16.5 48zM801 139q0 18 16.5 46t40 53.5t50 44t44.5 18.5t45 -18.5t50.5 -44t40 -53.5t16.5 -46q0 -20 -16.5 -48t-40 -53.5t-50 -43t-45.5 -17.5q-18 0 -44.5 17.5t-50 43t-40 53.5 t-16.5 48z" />
<glyph unicode="&#x202f;" horiz-adv-x="372" />
<glyph unicode="&#x2039;" horiz-adv-x="464" d="M-10 567q96 72 174 166t135 199l127 -133q-27 -66 -69 -127.5t-83 -104.5q41 -43 83 -104.5t69 -126.5l-127 -133q-57 104 -135 199.5t-174 164.5z" />
<glyph unicode="&#x203a;" horiz-adv-x="464" d="M39 336q27 66 67.5 127t83.5 104q-43 43 -83.5 104.5t-67.5 127.5l127 133q55 -104 134 -198.5t173 -166.5q-94 -70 -173 -165t-134 -199z" />
<glyph unicode="&#x205f;" horiz-adv-x="465" />
<glyph unicode="&#x2122;" horiz-adv-x="790" d="M37 1223v84h264v-84h-86v-308h-94v308h-84zM334 915l26 392h84l86 -230l88 230h84l25 -392h-92l-10 195l-70 -195h-51l-68 191l-10 -191h-92z" />
<glyph unicode="&#x25fc;" horiz-adv-x="931" d="M0 0v932h932v-932h-932z" />
</font>
</defs>
</svg>
