<?xml version="1.0" standalone="no"?>
<!DOCTYPE svg PUBLIC "-//W3C//DTD SVG 1.1//EN" "http://www.w3.org/Graphics/SVG/1.1/DTD/svg11.dtd" >
<svg>
<metadata>
Created by FontForge 20110222 at Thu May 29 13:24:27 2014
 By deploy user
Copyright (c) 2009 by Muthu Nedumaran. All rights reserved.
</metadata>
<defs>
<font id="BanglaMN" horiz-adv-x="0" >
  <font-face 
    font-family="Bangla MN"
    font-weight="400"
    font-stretch="normal"
    units-per-em="2048"
    panose-1="2 0 5 0 2 0 0 0 0 0"
    ascent="1638"
    descent="-410"
    x-height="1073"
    cap-height="1393"
    bbox="-951 -495 2550 1865"
    underline-thickness="102"
    underline-position="-154"
    unicode-range="U+0020-25CC"
  />
<missing-glyph horiz-adv-x="1406" 
d="M60 0v1502h1226v-1502h-1226zM132 57h1081v1388h-1081v-1388z" />
    <glyph glyph-name="bn_reph" unicode="&#x9b0;&#x9cd;" 
d="M223 1581l-384 -341l-124 137l409 254z" />
    <glyph glyph-name="bn_ra_phala" unicode="&#x9cd;&#x9b0;" 
d="M-551 93q50 0 96 -3t86 -15t71.5 -36.5t53.5 -68.5v415l124 197v-763l-64 40q-47 50 -103.5 67t-116.5 17q-57 0 -114.5 -7.5t-111.5 -7.5q-75 0 -134.5 21t-101 58.5t-63.5 89t-22 112.5q0 41 10 84t31 89l41 -41q-9 -24 -13 -45t-4 -40q0 -51 27 -83t69 -50t93.5 -24
t101.5 -6h44z" />
    <glyph glyph-name="bn_ya_phala" unicode="&#x200d;&#x9cd;&#x9af;" horiz-adv-x="534" 
d="M544 1114h-130q-39 -5 -68.5 -26t-50 -52t-31 -69.5t-10.5 -77.5q0 -63 10 -111.5t22 -95.5t22 -99t10 -122q0 -45 -5 -97t-17.5 -103t-34 -98.5t-53.5 -83.5t-76 -57.5t-102 -21.5l-10 72q50 10 83.5 33t53.5 54.5t28.5 70.5t8.5 82q0 55 -10.5 115.5t-22.5 121
t-22.5 119t-10.5 111.5q0 34 5 76.5t20.5 86.5t43.5 88.5t74 83.5h-271v116h544v-116z" />
    <glyph glyph-name="bn_rra.001" unicode="&#x9a1;&#x9bc;" horiz-adv-x="1156" 
d="M1166 1114h-604v-402q0 -26 21 -26q15 0 46.5 16t69 47.5t74.5 77t63 105.5q52 -39 89.5 -84.5t62 -95t36 -100.5t11.5 -100q0 -95 -37.5 -169.5t-97 -125.5t-133 -78t-146.5 -27q-122 0 -225.5 51.5t-182 156.5t-128 263.5t-62.5 371.5l64 -38q5 -71 22.5 -146.5
t48 -147.5t74 -136.5t100 -113t126 -77t152.5 -28.5q61 0 123.5 23t112 62.5t81 93t31.5 114.5q0 18 -2.5 39.5t-8.5 43.5t-17 44t-29 41q-32 -61 -72.5 -108t-82.5 -79t-83.5 -48.5t-75.5 -16.5q-83 0 -116 54t-33 158v385h-438v116h1166v-116zM459 -78q0 21 8 40t22 33.5
t33 22.5t40 8t40 -8t33.5 -22.5t22.5 -33.5t8 -40t-8 -40t-22.5 -33t-33.5 -22t-40 -8t-40 8t-33 22t-22 33t-8 40z" />
    <glyph glyph-name="bn_rha.001" unicode="&#x9a2;&#x9bc;" horiz-adv-x="887" 
d="M897 1114h-653v-672q0 -23 6.5 -43.5t19.5 -36t31 -25t42 -9.5q35 0 75 13t80 36t77 54t65.5 67t45.5 75t17 78q0 5 -2 13q-34 -35 -66.5 -50.5t-62.5 -15.5q-32 0 -59 12t-46.5 32t-31 47t-11.5 56q0 33 11.5 62t32 51t47.5 35t59 13q58 0 95.5 -26t59.5 -65.5t30 -87.5
t8 -92q0 -117 -41 -207t-105 -151.5t-141.5 -93t-150.5 -31.5q-11 0 -31 2.5t-43 11t-47 24.5t-43.5 42.5t-32 66.5t-12.5 95v720h-120v116h897v-116zM321 -78q0 21 8 40t22 33.5t33 22.5t40 8t40 -8t33.5 -22.5t22.5 -33.5t8 -40t-8 -40t-22.5 -33t-33.5 -22t-40 -8t-40 8
t-33 22t-22 33t-8 40z" />
    <glyph glyph-name="bn_yya.001" unicode="&#x9af;&#x9bc;" horiz-adv-x="926" 
d="M682 1114h-367q36 -21 76.5 -59t78.5 -83t69.5 -93t49.5 -88q-50 -19 -99 -46t-94 -58t-85 -64.5t-70 -65.5q61 -21 114.5 -44t106 -55.5t106 -78.5t114.5 -113v848zM442 899q-63 58 -119.5 93t-110 56.5t-106 35.5t-106.5 30l-59 116h995v-116h-130v-1114l-60 40
q-57 105 -125.5 173t-140.5 111t-144.5 66t-137.5 38l-144 171q31 37 71 78t88.5 80.5t105.5 76t123 65.5zM219 170q0 21 8 40t22 33.5t33 22.5t40 8t40 -8t33.5 -22.5t22.5 -33.5t8 -40t-8 -40t-22.5 -33t-33.5 -22t-40 -8t-40 8t-33 22t-22 33t-8 40z" />
    <glyph glyph-name=".notdef" horiz-adv-x="1406" 
d="M60 0v1502h1226v-1502h-1226zM132 57h1081v1388h-1081v-1388z" />
    <glyph glyph-name="space" unicode=" " horiz-adv-x="600" 
 />
    <glyph glyph-name="numbersign" unicode="#" horiz-adv-x="1050" 
d="M297 905l104 488h107l-105 -488h348l105 488h104l-102 -488h182v-78h-199l-73 -346h272v-78h-289l-98 -454h-106l98 454h-348l-99 -454h-106l100 452h-182v80h197l73 346h-270v78h287zM313 481h348l74 346h-348z" />
    <glyph glyph-name="quotesingle" unicode="'" horiz-adv-x="364" 
d="M157 827q-10 77 -24 139.5t-26.5 119.5t-21.5 113t-9 120q0 45 30.5 75.5t75.5 30.5q22 0 41.5 -8.5t34 -22.5t23 -33.5t8.5 -41.5q0 -64 -9.5 -120t-22.5 -113t-27 -119.5t-23 -139.5h-50z" />
    <glyph glyph-name="parenleft" unicode="(" horiz-adv-x="771" 
d="M757 -434q-90 32 -170 85t-147.5 122.5t-121 152t-91 174.5t-57.5 190.5t-20 198.5t20 199.5t57.5 193t91.5 178t121.5 155t147 124.5t169.5 86v-36q-114 -76 -189.5 -177.5t-121 -218.5t-64.5 -245.5t-19 -258.5q0 -128 15.5 -254t58.5 -241.5t120 -215t200 -175.5v-37z
" />
    <glyph glyph-name="parenright" unicode=")" horiz-adv-x="770" 
d="M14 -397q123 76 200 175.5t119.5 215t58 241.5t15.5 254q0 130 -19 258.5t-64 245.5t-120.5 218.5t-189.5 177.5v36q90 -32 169.5 -86t147 -124.5t121 -155t91 -178t57.5 -193t20 -199.5t-20 -198.5t-57 -190.5t-90.5 -174.5t-121 -152t-147.5 -122.5t-170 -85v37z" />
    <glyph glyph-name="asterisk" unicode="*" horiz-adv-x="827" 
d="M397 1038q0 34 -10.5 72.5t-22.5 76t-22.5 72t-10.5 62.5q0 45 24 74.5t58 29.5t58 -29.5t24 -74.5q0 -28 -10.5 -62.5t-22.5 -72t-22.5 -76t-10.5 -72.5q30 18 58 46t54 57.5t50.5 55.5t48.5 40q31 18 61 18q22 0 40 -9.5t28 -26.5q9 -17 9 -35q0 -25 -15 -49t-43 -40
q-24 -14 -58.5 -22t-72.5 -16.5t-75.5 -18.5t-67.5 -28q29 -17 67 -26.5t76.5 -17.5t73.5 -16t59 -22q28 -17 42.5 -41.5t14.5 -48.5q0 -19 -9 -35q-10 -17 -27.5 -26t-39.5 -9q-15 0 -31 4t-32 13q-24 13 -48.5 39.5t-50.5 55.5t-53.5 57t-58.5 46q0 -35 10.5 -73t22.5 -76
t22.5 -72.5t10.5 -61.5q0 -45 -24 -74.5t-58 -29.5t-58 29.5t-24 74.5q0 28 10 62.5t22 72t22.5 75.5t11.5 73q-30 -18 -58 -46.5t-54 -57.5t-51.5 -55t-49.5 -40q-32 -18 -62 -18q-22 0 -39.5 9t-27.5 26q-9 15 -9 34q0 25 15.5 50t42.5 41q23 13 58 21t74 16.5t77.5 18.5
t68.5 28q-30 18 -68.5 28t-77 18t-73.5 16.5t-58 22.5q-28 17 -44 41.5t-16 48.5q0 20 10 34q10 18 28 27t40 9q32 0 63 -16q24 -15 48.5 -42t50 -56.5t53 -57t59.5 -45.5z" />
    <glyph glyph-name="plus" unicode="+" horiz-adv-x="1192" 
d="M544 1284h90v-463h484v-86h-484v-463h-90v463h-483v86h483v463z" />
    <glyph glyph-name="comma" unicode="," horiz-adv-x="533" 
d="M90 -295q48 13 89.5 37.5t72.5 56t49 68.5t18 76q0 23 -9 40t-23 17q-13 0 -22 -5t-18.5 -11.5t-21.5 -11.5t-32 -5q-21 0 -39.5 9t-33 25t-22.5 37.5t-8 47.5q0 27 11 50t30.5 40.5t45.5 27t56 9.5q39 0 72.5 -17t58.5 -47t39.5 -70t14.5 -85q0 -71 -26.5 -131
t-71.5 -104.5t-104.5 -71.5t-125.5 -31v49z" />
    <glyph glyph-name="hyphen" unicode="-" horiz-adv-x="614" 
d="M563 563v-123h-512v123h512z" />
    <glyph glyph-name="period" unicode="." horiz-adv-x="459" 
d="M230 188q24 0 44.5 -8.5t36 -23.5t24.5 -35t9 -43t-9 -43.5t-24.5 -35.5t-36 -23.5t-44.5 -8.5t-45 8.5t-36.5 23.5t-24.5 35.5t-9 43.5t9 43t24.5 35t36.5 23.5t45 8.5z" />
    <glyph glyph-name="slash" unicode="/" horiz-adv-x="540" 
d="M456 1425h96l-467 -1458h-96z" />
    <glyph glyph-name="zero" unicode="0" horiz-adv-x="1180" 
d="M590 -33q-116 0 -210.5 54.5t-162 152.5t-104.5 233.5t-37 297.5q0 148 37 279t104.5 229t162 155t210.5 57t210.5 -57t162 -155t104.5 -229t37 -279q0 -162 -37 -297.5t-104.5 -233.5t-162 -152.5t-210.5 -54.5zM590 37q47 0 86 25t70.5 70t54.5 107t38.5 136t23 158
t7.5 172q0 132 -17 250t-52 207.5t-87.5 141.5t-123.5 52t-123.5 -52t-87 -141.5t-51.5 -207.5t-17 -250q0 -88 7.5 -172t23 -158t38.5 -136t54 -107t70 -70t86 -25z" />
    <glyph glyph-name="one" unicode="1" horiz-adv-x="1180" 
d="M584 0v1179h-234v59q128 1 204.5 49.5t118.5 137.5h109v-1425h-198z" />
    <glyph glyph-name="two" unicode="2" horiz-adv-x="1180" 
d="M91 0v37q155 147 268.5 259t192.5 198.5t128.5 151t77 115.5t37.5 93.5t10 85.5q0 62 -19.5 120t-57.5 103t-94.5 72t-131.5 27q-58 0 -114 -20t-102 -54t-77 -80t-40 -98h-41q6 86 45 161.5t99.5 132t138.5 89t164 32.5q108 0 190 -31t136.5 -83.5t82.5 -122t28 -146.5
q0 -81 -35.5 -163.5t-115.5 -184.5t-208 -232t-313 -304h745l-104 -158h-890z" />
    <glyph glyph-name="three" unicode="3" horiz-adv-x="1180" 
d="M372 725q79 9 145 36t113.5 70t73.5 100t26 126q0 46 -18 86.5t-51 70.5t-79 47t-102 17q-39 0 -82 -13.5t-82.5 -37.5t-73 -55.5t-54.5 -67.5l-41 16q22 63 59.5 118.5t89.5 97t118.5 65.5t147.5 24q76 0 142.5 -22.5t116 -62t78.5 -93.5t29 -117q0 -32 -16.5 -72
t-45.5 -81t-67.5 -80t-81.5 -70q60 -18 112.5 -55.5t91.5 -88t61.5 -108.5t22.5 -116q0 -124 -48.5 -216t-133.5 -153.5t-201 -92t-250 -30.5q-57 0 -102 8.5t-76.5 23.5t-48.5 36t-17 47q0 22 11 37t28 24t37 13t38 4q37 0 64 -7.5t48 -18.5t39 -23.5t38 -23.5t44.5 -18.5
t58.5 -7.5q73 0 128.5 24t93.5 64t57.5 92t19.5 109q0 72 -27.5 134t-84.5 107.5t-144 71t-205 25.5v37z" />
    <glyph glyph-name="four" unicode="4" horiz-adv-x="1180" 
d="M717 360h-665v127l730 938h133v-913h198v-152h-198v-360h-198v360zM190 512h527v686z" />
    <glyph glyph-name="five" unicode="5" horiz-adv-x="1180" 
d="M958 1221h-451l-104 -189q130 0 246 -40.5t203.5 -113.5t139 -173t51.5 -218q1 -107 -47 -202t-132 -165.5t-197.5 -111.5t-242.5 -41q-59 0 -107 11t-82.5 30t-53.5 44.5t-19 53.5q0 38 29 56t68 18q42 0 71.5 -16t60 -35t69 -35t97.5 -16q68 0 128.5 27t105.5 73.5
t71 109t26 134.5q0 97 -48.5 175.5t-138.5 134t-217.5 86t-284.5 30.5l299 545h548z" />
    <glyph glyph-name="six" unicode="6" horiz-adv-x="1180" 
d="M1046 1389q-125 -11 -239 -65t-205.5 -138.5t-156 -192.5t-91.5 -227q34 24 70 44.5t76.5 35.5t86 24t98.5 9q84 0 157.5 -33t129 -89.5t87.5 -132.5t32 -163q0 -102 -39.5 -192t-107 -157t-157.5 -106t-192 -39q-109 0 -200 43.5t-156.5 119t-102 176.5t-36.5 216
q0 122 30.5 236.5t88 214.5t140 183.5t188 143t231 92.5t268.5 33v-36zM351 705q-8 -47 -12.5 -96t-4.5 -95q0 -95 17.5 -181.5t53.5 -152t90.5 -104.5t128.5 -39q52 0 97.5 26t79.5 70.5t53.5 104.5t19.5 129q0 87 -23.5 164t-63.5 134t-93.5 90t-114.5 33q-25 0 -55 -6
t-60.5 -17t-59.5 -26.5t-53 -33.5z" />
    <glyph glyph-name="seven" unicode="7" horiz-adv-x="1180" 
d="M1061 1356l-509 -1389h-134l458 1254h-734l79 172h840v-37z" />
    <glyph glyph-name="eight" unicode="8" horiz-adv-x="1180" 
d="M573 1425q94 0 174 -23.5t137.5 -65.5t90 -99.5t32.5 -124.5q0 -43 -27.5 -92.5t-72.5 -96.5t-103 -86.5t-119 -62.5q90 -52 157.5 -111t112 -117.5t66.5 -113t22 -96.5q0 -76 -35 -143t-95.5 -117.5t-142 -79.5t-173.5 -29q-98 0 -180 26t-141 72t-92 108.5t-33 135.5
q0 67 21 121t60.5 101t96 89.5t126.5 84.5q-76 56 -129.5 102t-88 90.5t-50.5 91.5t-16 105q0 68 31.5 128.5t86 105.5t128 71t156.5 26zM633 813q46 36 83.5 74t64 80.5t41 90t14.5 101.5q0 41 -17.5 77t-51 62.5t-81 42t-107.5 15.5q-53 0 -97.5 -17.5t-76.5 -46
t-49.5 -65t-17.5 -74.5q0 -51 27.5 -98t70 -89.5t95 -80.5t102.5 -72zM507 666q-49 -39 -83 -83.5t-55.5 -89.5t-31.5 -88t-10 -79q0 -60 21.5 -112.5t59 -92t87.5 -62t106 -22.5q58 0 109 16t89 43t60 63.5t22 78.5q0 30 -12 64t-32.5 68t-47.5 65t-57 54z" />
    <glyph glyph-name="nine" unicode="9" horiz-adv-x="1180" 
d="M126 4q118 11 229 63t203 133.5t158 187.5t93 224q-35 -21 -70 -40t-74 -33.5t-83.5 -22.5t-96.5 -8q-91 0 -164 36.5t-124 96.5t-78.5 138t-27.5 161q0 100 38.5 188.5t105.5 154.5t157 104t192 38t192 -43.5t157.5 -118.5t107 -176.5t39.5 -216.5q0 -124 -34 -239.5
t-96.5 -215.5t-149.5 -182.5t-193 -141.5t-228 -91.5t-253 -32.5v37zM827 690q7 45 12.5 100t5.5 109q0 93 -23 176t-63 145.5t-94 99t-116 36.5q-64 0 -110 -29t-75.5 -75.5t-43.5 -105t-14 -118.5q0 -93 16.5 -171t51.5 -135t89 -88.5t129 -31.5q29 0 61.5 7t64.5 19
t60.5 28t48.5 34z" />
    <glyph glyph-name="colon" unicode=":" horiz-adv-x="459" 
d="M230 961q24 0 44.5 -9t36 -24t24.5 -35t9 -43t-9 -43.5t-24.5 -35.5t-36 -23.5t-44.5 -8.5t-45 8.5t-36.5 23.5t-24.5 35.5t-9 43.5t9 43t24.5 35t36.5 24t45 9zM230 188q24 0 44.5 -8.5t36 -23.5t24.5 -35t9 -43t-9 -43.5t-24.5 -35.5t-36 -23.5t-44.5 -8.5t-45 8.5
t-36.5 23.5t-24.5 35.5t-9 43.5t9 43t24.5 35t36.5 23.5t45 8.5z" />
    <glyph glyph-name="semicolon" unicode=";" horiz-adv-x="558" 
d="M271 961q24 0 44.5 -9t36 -25t24.5 -36.5t9 -44.5t-9 -45t-24.5 -36.5t-36 -24.5t-44.5 -9t-45 9t-36.5 24.5t-24.5 36.5t-9 45t9 44.5t24.5 36.5t36.5 25t45 9zM115 -295q48 13 89.5 37.5t72.5 56t49 68.5t18 76q0 23 -9 40t-23 17q-13 0 -22 -5t-18.5 -11.5
t-21.5 -11.5t-32 -5q-21 0 -39.5 9t-33 25t-22.5 37.5t-8 47.5q0 27 11 50t30.5 40.5t45.5 27t56 9.5q39 0 72.5 -17t58.5 -47t39.5 -70t14.5 -85q0 -71 -26.5 -131t-71.5 -104.5t-104.5 -71.5t-125.5 -31v49z" />
    <glyph glyph-name="less" unicode="&#x3c;" horiz-adv-x="1243" 
d="M1137 1194v-106l-881 -379l881 -363v-106l-1057 438v59z" />
    <glyph glyph-name="greater" unicode="&#x3e;" horiz-adv-x="1243" 
d="M1163 678l-1057 -438v106l881 363l-881 379v106l1057 -457v-59z" />
    <glyph glyph-name="bracketleft" unicode="[" horiz-adv-x="644" 
d="M175 1425h459v-94h-295v-1634h295v-94h-459v1822z" />
    <glyph glyph-name="backslash" unicode="\" horiz-adv-x="543" 
d="M457 -33l-467 1458h96l467 -1458h-96z" />
    <glyph glyph-name="bracketright" unicode="]" horiz-adv-x="643" 
d="M10 -397v94h295v1634h-295v94h458v-1822h-458z" />
    <glyph glyph-name="asciicircum" unicode="^" horiz-adv-x="982" 
d="M8 672l450 753h66l450 -753h-129l-356 598l-359 -598h-122z" />
    <glyph glyph-name="underscore" unicode="_" horiz-adv-x="1119" 
d="M1124 -205v-94h-1126v94h1126z" />
    <glyph glyph-name="braceleft" unicode="{" horiz-adv-x="671" 
d="M646 1389q-54 -5 -102 -31t-83.5 -67.5t-56 -94.5t-20.5 -111q0 -40 5 -73.5t11.5 -63.5t11.5 -57.5t5 -54.5q0 -50 -21.5 -101.5t-59 -96.5t-88 -80.5t-108.5 -53.5q58 -14 108.5 -48t88 -80t59 -101t21.5 -111q0 -33 -5 -62t-11.5 -58.5t-11.5 -61t-5 -68.5
q0 -62 20.5 -116.5t56 -96t83.5 -68t102 -30.5v-37q-84 0 -158.5 32.5t-130 88t-88 130t-32.5 158.5q0 31 5 59.5t11 58.5t11 63t5 73q0 51 -18.5 96t-51 78t-75.5 52.5t-92 19.5v49q49 0 92 19.5t75.5 53t51 78t18.5 95.5q0 45 -5 80.5t-11 65.5t-11 56t-5 52
q0 83 32.5 156t88 127.5t130 86t158.5 31.5v-36z" />
    <glyph glyph-name="bar" unicode="|" horiz-adv-x="348" 
d="M223 1393v-1866h-98v1866h98z" />
    <glyph glyph-name="braceright" unicode="}" horiz-adv-x="669" 
d="M25 1425q84 0 159 -31.5t130.5 -86t88 -127.5t32.5 -156q0 -26 -5 -52t-11.5 -56t-11.5 -65.5t-5 -80.5q0 -51 18.5 -95.5t51 -78t75.5 -53t92 -19.5v-49q-49 0 -92 -19.5t-75.5 -52.5t-51 -78t-18.5 -96q0 -40 5 -73t11.5 -63t11.5 -58.5t5 -59.5q0 -84 -32.5 -158.5
t-88 -130t-130.5 -88t-159 -32.5v37q54 4 102 30.5t83.5 68t56 96t20.5 116.5q0 37 -5 68.5t-11.5 61t-11.5 58.5t-5 62q0 56 21.5 111t59 101t88 80t108.5 48q-58 18 -108.5 53.5t-88 80.5t-59 96.5t-21.5 101.5q0 27 5 54.5t11.5 57.5t11.5 63.5t5 73.5q0 58 -20.5 111
t-56 94.5t-83.5 67.5t-102 31v36z" />
    <glyph glyph-name="asciitilde" unicode="~" horiz-adv-x="1123" 
d="M1101 864q0 -81 -20 -143t-57 -103t-90 -62t-118 -21q-59 0 -110.5 14t-97.5 35t-87.5 45t-81 45t-77.5 35t-76 14t-73.5 -15.5t-63.5 -41.5t-47.5 -60t-26.5 -71h-49q0 161 81.5 245t227.5 84q46 0 94 -14t95 -35t93 -45t88.5 -45t81.5 -35t72 -14q44 0 74.5 15.5
t52.5 41.5t37.5 60t28.5 71h49z" />
    <glyph glyph-name="quoteleft" unicode="&#x2018;" horiz-adv-x="478" 
d="M403 1444q-48 -13 -89.5 -37.5t-72.5 -56t-49 -68.5t-18 -76q0 -23 9 -40t23 -17q13 0 22 5t18.5 11.5t21.5 11.5t32 5q21 0 39.5 -9t33 -25t22.5 -38t8 -47q0 -27 -11 -50t-30.5 -40.5t-45.5 -27t-56 -9.5q-39 0 -72.5 17t-58.5 47t-39.5 70t-14.5 85q0 71 26.5 131
t71.5 104.5t104.5 71t125.5 31.5v-49z" />
    <glyph glyph-name="quoteright" unicode="&#x2019;" horiz-adv-x="478" 
d="M75 985q48 13 89.5 37.5t72.5 56t49 68.5t18 76q0 23 -9 40t-23 17q-13 0 -22 -5t-18.5 -11.5t-21.5 -11.5t-32 -5q-21 0 -39.5 9t-33 25t-22.5 37.5t-8 47.5q0 27 11 50t30.5 40.5t45.5 27t56 9.5q39 0 72.5 -17t58.5 -47t39.5 -70t14.5 -85q0 -71 -26.5 -131
t-71.5 -104.5t-104.5 -71.5t-125.5 -31v49z" />
    <glyph glyph-name="endash" unicode="&#x2013;" horiz-adv-x="1025" 
d="M975 521h-918l-7 104h917z" />
    <glyph glyph-name="emdash" unicode="&#x2014;" horiz-adv-x="1657" 
d="M1607 521h-1549l-8 105h1549z" />
    <glyph glyph-name="bn_ka" unicode="&#x995;" horiz-adv-x="1250" 
d="M717 0l-60 40q-34 88 -81 165.5t-107 139t-133.5 104.5t-161.5 62l-154 188q63 72 138.5 128t152 95t150 60.5t132.5 24.5v107h-593v116h1260v-116h-543v-107q74 0 148 -30t133 -85.5t95.5 -134.5t36.5 -177q0 -54 -14.5 -96.5t-39.5 -72t-58.5 -45.5t-71.5 -16
q-29 0 -54 10.5t-43.5 29t-29.5 42.5t-11 51q0 57 38 92t98 35q13 0 30 -4t33.5 -14.5t29.5 -28.5t18 -47q9 9 14 27.5t5 33.5q0 77 -34.5 130.5t-87.5 86.5t-116 48t-119 15v-857zM593 857q-54 -5 -101.5 -18t-93.5 -36t-93 -58.5t-100 -85.5q123 -43 222.5 -140.5
t165.5 -252.5v591z" />
    <glyph glyph-name="bn_danda" unicode="&#x964;" horiz-adv-x="678" 
d="M262 102v1162h39l115 -131v-1167h-39z" />
    <glyph glyph-name="bn_doubledanda" unicode="&#x965;" horiz-adv-x="1050" 
d="M788 -34h-40l-115 136v1159h40l115 -130v-1165zM416 -34h-39l-115 136v1159h39l115 -130v-1165z" />
    <glyph glyph-name="bn_kha" unicode="&#x996;" horiz-adv-x="1034" 
d="M708 899q0 -64 -25 -112t-64 -83t-86 -58t-91 -38q24 -10 55.5 -29.5t65.5 -45t68 -57t65 -66.5t55.5 -71.5t38.5 -73.5v1181l124 -111v-105h130v-116h-130v-1114l-60 40q-29 82 -82 159t-123 140t-154 108t-174 63l-150 189q33 0 79 8.5t95.5 24.5t98 38.5t87 50
t62.5 60.5t24 70q0 58 -22 99t-51 64q-27 -66 -66.5 -105.5t-84 -59.5t-89.5 -26t-83 -6q-45 0 -81.5 11.5t-63 31t-41 45t-14.5 54.5q0 57 31.5 87.5t91.5 30.5q18 0 37 -7t35 -21t26 -34.5t10 -47.5q0 -5 -3 -19t-9.5 -30.5t-17.5 -32t-27 -23.5h7q37 0 69.5 20.5
t60.5 56.5t50.5 85t39.5 106q57 -16 109 -46t91 -72t62.5 -96t23.5 -117z" />
    <glyph glyph-name="bn_ga" unicode="&#x997;" horiz-adv-x="944" 
d="M700 1446l124 -111v-105h130v-116h-130v-1114l-124 80v734q-52 68 -96 118t-86 83t-86 49t-97 16q-36 0 -67 -10t-54 -28t-36 -43.5t-13 -56.5q0 -4 0.5 -11.5t2.5 -11.5q7 4 20 9.5t30 10t36.5 7.5t37.5 3q46 0 81.5 -14.5t60 -39.5t37 -58t12.5 -70q0 -34 -14 -68.5
t-36 -67.5t-49 -63.5t-51.5 -54.5t-44 -41t-27.5 -24l-109 105q116 92 178 160t62 110q0 31 -22 46.5t-57 15.5q-24 0 -54.5 -11t-61 -27t-58 -33.5t-45.5 -30.5q-38 32 -56 78t-18 84q0 58 22.5 110t63 91t97.5 61.5t125 22.5q54 0 104.5 -23.5t98 -62.5t90 -90t79.5 -107
v499z" />
    <glyph glyph-name="bn_gha" unicode="&#x998;" horiz-adv-x="915" 
d="M0 1230h925v-116h-130v-1114l-60 40q-34 88 -86.5 155t-120 116t-147 81.5t-167.5 51.5l-145 149q36 25 77.5 56.5t82.5 66t80 69.5t71 68q-15 -8 -33 -14t-36.5 -11t-36 -7.5t-32.5 -2.5q-45 0 -85 13t-70.5 37t-48.5 58.5t-18 77.5q0 30 13 59.5t38 50.5h-71v116z
M527 838q-35 -40 -62.5 -68.5t-54.5 -54t-57.5 -53t-73.5 -66.5q46 -14 100 -42t107 -69.5t101.5 -96t83.5 -122.5v848h-435q-33 -23 -48 -49.5t-15 -60.5q0 -23 10.5 -43t28.5 -35t43 -23.5t54 -8.5q44 0 75.5 10t49.5 26z" />
    <glyph glyph-name="bn_nga" unicode="&#x999;" horiz-adv-x="1119" 
d="M554 614q41 0 77.5 14t65.5 35t49 44.5t29 43.5q75 -46 122.5 -80t74.5 -67t36.5 -69.5t9.5 -86.5q0 -54 -19 -99.5t-50.5 -82.5t-73 -65t-86 -47t-89.5 -28.5t-84 -9.5q-108 0 -190.5 32t-143.5 87.5t-104 130t-71 160.5t-44.5 178.5t-25.5 183.5l61 -47q10 -66 27 -134
t43.5 -132t64 -120.5t89.5 -98.5t120.5 -66.5t156.5 -24.5q57 0 116.5 18.5t108.5 51.5t80.5 77.5t31.5 97.5q0 19 -6 33.5t-15.5 24.5t-20.5 16.5t-20 8.5q-30 -52 -72 -81t-83 -43.5t-74.5 -17.5t-46.5 -3q-44 0 -85 20.5t-72.5 60.5t-51 97.5t-19.5 132.5q0 23 1.5 47
t3.5 47q-53 25 -99.5 58.5t-86 69.5t-71 71t-54.5 62l103 116q56 -85 115.5 -144.5t121.5 -96.5q16 50 40 94t56 76.5t72 51.5t88 19q45 0 84 -12t68 -37.5t45.5 -64.5t16.5 -92q0 -54 -24.5 -94.5t-66.5 -67.5t-97.5 -40.5t-117.5 -13.5q-23 0 -49.5 4.5t-48.5 9.5
q-9 -23 -10.5 -35.5t-1.5 -28.5q0 -29 7.5 -55t21 -45.5t30.5 -31.5t37 -12zM641 919q34 0 64.5 6.5t53 19.5t35.5 33t13 48q0 17 -8 29t-19.5 20t-24.5 11.5t-23 3.5q-73 0 -125.5 -43.5t-85.5 -110.5q30 -9 60.5 -13t59.5 -4z" />
    <glyph glyph-name="bn_ca" unicode="&#x99a;" horiz-adv-x="907" 
d="M245 334q0 -22 3 -35.5t8.5 -21t13.5 -10.5t17 -3q21 0 53.5 18.5t69 48t73.5 66.5t67 75t48.5 72.5t18.5 58.5q0 14 -21 36t-54 49t-74.5 59.5t-83 67.5t-78.5 73t-61 76v-630zM245 1071q45 -54 103 -99.5t118 -84.5t118 -74t103 -69t72.5 -68.5t27.5 -72.5
q0 -33 -27.5 -83.5t-71.5 -106.5t-100 -112.5t-112.5 -101.5t-108.5 -73.5t-89 -28.5q-35 0 -64 11.5t-50 30t-32.5 43.5t-11.5 52v880h-120v116h917v-116h-672v-43z" />
    <glyph glyph-name="bn_jha" unicode="&#x99d;" horiz-adv-x="1203" 
d="M959 1446l124 -111v-105h130v-116h-130v-1114l-60 40q-40 102 -105.5 188.5t-150.5 151.5v-380l-60 40q-34 88 -88.5 165.5t-124 139t-151 104.5t-169.5 62l-154 188q87 79 162.5 137t148.5 100t148.5 70t163.5 48v60h-643v116h767v-708q60 -50 109.5 -114t82.5 -142
v1180zM643 883q-58 -13 -120 -40.5t-119 -62t-104.5 -73t-76.5 -74.5q61 -21 125 -57.5t121 -84t103 -105t71 -120.5v617z" />
    <glyph glyph-name="bn_ta" unicode="&#x9a4;" horiz-adv-x="1214" 
d="M1061 1114h-1061v116h1224v-116h-163zM705 97q-110 0 -198 45t-157 118.5t-121 167.5t-89 192.5t-61 193.5t-38 171l58 -27q20 -74 47.5 -155t64 -160t83.5 -151t106 -126.5t132 -86.5t161 -32q79 0 132 27.5t85.5 70.5t46 96.5t13.5 106.5q0 56 -8.5 110t-32 101.5
t-64.5 85t-106 60.5q14 -18 29 -45.5t15 -57.5q0 -27 -13.5 -49.5t-35.5 -38.5t-48.5 -25t-51.5 -9q-24 0 -52 9.5t-52 28t-40 46.5t-16 65q0 34 15 62.5t41 49.5t60 32.5t73 11.5q96 0 172 -37.5t129 -99.5t81.5 -141.5t28.5 -162.5q0 -105 -31.5 -187.5t-85 -140.5
t-124 -88.5t-148.5 -30.5z" />
    <glyph glyph-name="bn_dha" unicode="&#x9a7;" horiz-adv-x="885" 
d="M766 1114v-1114l-60 40q-34 88 -88.5 165.5t-124 139t-151 104.5t-169.5 62l-154 188q43 39 83 73.5t78 64.5q-32 12 -58.5 34t-46.5 50.5t-31 63t-11 71.5q0 34 12 65.5t33 55.5t50 38.5t62 14.5q28 0 52.5 -10.5t42.5 -28.5t28.5 -41.5t10.5 -49.5q0 -27 -12 -51
t-30.5 -41t-42 -27t-47.5 -10q-21 0 -43.5 9t-42.5 35q7 -26 22 -48t34.5 -38.5t42.5 -27t47 -12.5q94 64 187.5 103t202.5 62v176h254v-116h-130zM642 903q-69 -8 -134 -34.5t-121 -62.5t-100.5 -76t-72.5 -74q42 -18 99.5 -52t117.5 -83.5t116 -113t95 -141.5v637z" />
    <glyph glyph-name="bn_ba" unicode="&#x9ac;" horiz-adv-x="888" 
d="M644 889q-43 -2 -88 -16.5t-88 -36.5t-83 -48.5t-73 -53t-57 -51t-36 -40.5q44 -17 101.5 -49t116.5 -79t113.5 -109t93.5 -140v623zM0 1114v116h898v-116h-130v-1114l-60 40q-34 88 -88.5 165.5t-124 139t-151 104.5t-169.5 62l-154 188q76 79 148.5 138.5t147 102.5
t154.5 71t173 43v60h-644z" />
    <glyph glyph-name="bn_ra" unicode="&#x9b0;" horiz-adv-x="888" 
d="M179 203q0 21 8 40t22 33.5t33 22.5t40 8t40 -8t33.5 -22.5t22.5 -33.5t8 -40t-8 -40t-22.5 -33t-33.5 -22t-40 -8t-40 8t-33 22t-22 33t-8 40zM644 889q-43 -2 -88 -16.5t-88 -36.5t-83 -48.5t-73 -53t-57 -51t-36 -40.5q44 -17 101.5 -49t116.5 -79t113.5 -109
t93.5 -140v623zM0 1114v116h898v-116h-130v-1114l-60 40q-34 88 -88.5 165.5t-124 139t-151 104.5t-169.5 62l-154 188q76 79 148.5 138.5t147 102.5t154.5 71t173 43v60h-644z" />
    <glyph glyph-name="bn_aakaar" unicode="&#x9be;" horiz-adv-x="344" 
d="M0 1114v116h100v216l124 -111v-105h130v-116h-130v-1114l-124 80v1034h-100z" />
    <glyph glyph-name="bn_ikaar" unicode="&#x9bf;" horiz-adv-x="344" 
d="M120 1114h-120v116h97q-17 29 -23.5 54.5t-6.5 44.5q0 73 32 126t84.5 87t118.5 50t135 16q85 0 171.5 -21t167 -58.5t151 -88t123.5 -108.5l14 -62q-85 66 -171.5 107.5t-168 64.5t-154.5 31.5t-130 8.5q-19 0 -44.5 -2t-53 -9t-54.5 -19t-48.5 -32t-34.5 -48.5
t-13 -68.5q0 -12 4.5 -29.5t21.5 -43.5h136v-116h-110v-1114l-124 80v1034z" />
    <glyph glyph-name="bn_iikaar" unicode="&#x9c0;" horiz-adv-x="315" 
d="M70 1230q0 81 -33.5 140.5t-84.5 98.5t-112.5 57.5t-117.5 18.5h-14q-20 0 -51 -0.5t-66.5 -3t-71.5 -8t-65 -16t-48.5 -26t-21.5 -38.5q0 -16 12.5 -21.5t33.5 -5.5q19 0 45 3.5t56 7t62 7t64 3.5q43 0 84 -9t72.5 -34.5t50.5 -70t19 -115.5q0 -26 -3 -56h-109
q1 9 1 17.5v16.5q0 46 -11.5 75.5t-32 45.5t-47.5 22t-57 6q-41 0 -84.5 -5.5t-82.5 -5.5q-26 0 -49 4.5t-39.5 17.5t-26 35t-9.5 58q0 41 17 71.5t45 52t64.5 36t74 22.5t74 11.5t65.5 3.5q133 0 231 -30t162.5 -85t96.5 -131.5t32 -169.5h129v-116h-129v-1114l-125 80
v1034h-70v116h70z" />
    <glyph glyph-name="bn_ukaar" unicode="&#x9c1;" 
d="M-279 -262q-35 0 -62.5 10.5t-47 29t-30 43t-10.5 52.5q0 25 10.5 49t30 43t47 30.5t60.5 11.5q8 0 13 -0.5t24 -4.5v383l124 197v-612q55 -25 105.5 -58t96 -69.5t86 -74t75.5 -71.5q-9 -12 -17 -19t-16 -18q-37 31 -76 65t-80.5 66.5t-85 60.5t-88.5 48
q0 -32 -11.5 -61.5t-32.5 -52t-50.5 -35.5t-64.5 -13zM-277 -67q-43 0 -66.5 -18.5t-23.5 -49.5q0 -14 6 -24.5t15.5 -18t20 -11t19.5 -3.5q4 0 14.5 1.5t21 10.5t18.5 28.5t8 55.5v25q-16 3 -20.5 3.5t-12.5 0.5z" />
    <glyph glyph-name="bn_uukaar" unicode="&#x9c2;" 
d="M-120 -34q-16 -2 -37 -6t-40.5 -14.5t-33 -28t-13.5 -44.5q0 -12 3.5 -26t12 -26t22 -20t33.5 -8q25 0 43 12t30.5 28.5t19.5 33.5t10 26h71q59 -75 127.5 -132t155.5 -97q-9 -14 -19 -25.5t-18 -25.5q-88 45 -154 97.5t-114 110.5q-31 -57 -74 -83.5t-88 -26.5
q-39 0 -71 13t-55 34.5t-35.5 50t-12.5 60.5q0 48 26.5 84.5t86.5 53.5v378l124 197v-616z" />
    <glyph glyph-name="bn_rikaar" unicode="&#x9c3;" 
d="M-32 -401q-57 48 -113.5 81.5t-115.5 56t-122 35.5t-133 22l-14 72q38 6 74.5 15.5t71.5 26t70 42.5t70 65v370l124 197v-581q-20 -29 -47.5 -54.5t-59 -46.5t-64 -35.5t-61.5 -21.5q58 -11 108 -28.5t94 -41t84 -53t79 -63.5z" />
    <glyph glyph-name="bn_ekaar" unicode="&#x9c7;" horiz-adv-x="715" 
d="M744 1230v-116h-139q-72 -42 -133.5 -106.5t-105.5 -144t-69 -169t-25 -181.5q0 -80 17 -160t49 -144t78 -103.5t104 -39.5q15 0 30 4t23 9q-29 5 -48 17.5t-30 28t-15.5 32t-4.5 29.5q0 60 35 98t92 38q27 0 51 -11t42.5 -29.5t29 -44t10.5 -53.5q0 -38 -16 -71.5
t-45.5 -58.5t-72 -39.5t-96.5 -14.5q-91 0 -162.5 42.5t-121 115t-75.5 169.5t-26 207q0 89 21 176t54.5 163.5t76.5 138.5t87 102h-359v116h744z" />
    <glyph glyph-name="bn_aikaar" unicode="&#x9c8;" horiz-adv-x="715" 
d="M0 1114v116h463q10 11 14.5 23.5t4.5 21.5q0 30 -22 50t-57.5 33.5t-81 23t-93.5 20t-93.5 23.5t-81 33t-57.5 49.5t-22 72.5q0 25 10.5 52.5t41.5 48.5l39 -32q-23 -17 -28.5 -30t-5.5 -27q0 -26 25.5 -43t66.5 -30t94 -24t108.5 -22.5t108.5 -27t94 -37.5t66.5 -53
t25.5 -74q0 -22 -10 -51h134v-116h-139q-72 -42 -133.5 -106.5t-105.5 -144t-69 -169t-25 -181.5q0 -80 17 -160t49 -144t78 -103.5t104 -39.5q15 0 30 4t23 9q-29 5 -48 17.5t-30 28t-15.5 32t-4.5 29.5q0 60 35 98t92 38q27 0 51 -11t42.5 -29.5t29 -44t10.5 -53.5
q0 -38 -16 -71.5t-45.5 -58.5t-72 -39.5t-96.5 -14.5q-91 0 -162.5 42.5t-121 115t-75.5 169.5t-26 207q0 89 21 176t54.5 163.5t76.5 138.5t87 102h-359z" />
    <glyph glyph-name="bn_aumark" unicode="&#x9d7;" horiz-adv-x="364" 
d="M374 1230v-116h-130v-1114l-124 80v1034h-120v116h131q30 16 43.5 35.5t13.5 33.5q0 30 -23 46.5t-60.5 25t-85.5 13t-97.5 10t-97.5 16t-85.5 31.5t-60.5 55.5t-23 89.5q0 25 13.5 55t44.5 57l36 -28q-25 -21 -30.5 -37.5t-5.5 -30.5q0 -27 25.5 -42.5t67 -24.5
t94 -13.5t107.5 -10.5t108 -16t94.5 -29.5t66.5 -50.5t25 -80q0 -18 -6 -33.5t-15 -28.5t-20 -23.5t-21 -19.5h135z" />
    <glyph glyph-name="bn_chandrabindu" unicode="&#x981;" horiz-adv-x="2" 
d="M-386 1349q16 1 36 5.5t45.5 22.5t57 54.5t72.5 101.5q21 2 39 5q15 2 27.5 3.5t12.5 2.5q-12 -30 -27 -64t-34 -67.5t-42.5 -65t-51.5 -55t-61.5 -38t-73.5 -14.5t-73.5 14.5t-61.5 38t-51.5 55t-42.5 65t-34 67.5t-27 64q0 -1 12 -2.5t27 -3.5q18 -3 40 -5
q40 -65 72 -101.5t57.5 -54.5t45.5 -22.5t36 -5.5zM-474 1566q0 18 7 33.5t19 27t28 18.5t34 7t34 -7t27.5 -18.5t18.5 -27t7 -33.5t-7 -33.5t-18.5 -27t-27.5 -18.5t-34 -7t-34 7t-28 18.5t-19 27t-7 33.5z" />
    <glyph glyph-name="bn_anusvar" unicode="&#x982;" horiz-adv-x="616" 
d="M82 939q0 49 18 92t49.5 75.5t73.5 51t90 18.5t90 -18.5t73.5 -51t50 -75.5t18.5 -92t-18.5 -92t-50 -75.5t-73.5 -51t-90 -18.5t-90 18.5t-73.5 51t-49.5 75.5t-18 92zM189 854q8 -13 26 -20t41 -7t48 7.5t50 22.5q38 24 57.5 56.5t19.5 59.5q0 17 -7 28q-8 14 -26.5 21
t-41.5 7q-22 0 -46 -6.5t-47 -21.5q-39 -24 -60 -58t-21 -62q0 -17 7 -27zM91 657q61 -21 129 -64t137 -119.5t135.5 -192t124.5 -281.5l-60 40q-32 61 -73.5 117.5t-89 106.5t-99 92.5t-101.5 74.5t-97 53.5t-87 29.5z" />
    <glyph glyph-name="bn_bisarga" unicode="&#x983;" horiz-adv-x="641" 
d="M82 939q0 49 18 92t49.5 75.5t73.5 51t90 18.5t90 -18.5t73.5 -51t50 -75.5t18.5 -92t-18.5 -92t-50 -75.5t-73.5 -51t-90 -18.5t-90 18.5t-73.5 51t-49.5 75.5t-18 92zM189 854q8 -13 26 -20t41 -7t48 7.5t50 22.5q38 24 57.5 56.5t19.5 59.5q0 17 -7 28q-8 14 -26.5 21
t-41.5 7q-22 0 -46 -6.5t-47 -21.5q-39 -24 -60 -58t-21 -62q0 -17 7 -27zM82 289q0 49 18 92t49.5 75.5t73.5 51t90 18.5t90 -18.5t73.5 -51t50 -75.5t18.5 -92t-18.5 -92t-50 -75.5t-73.5 -51t-90 -18.5t-90 18.5t-73.5 51t-49.5 75.5t-18 92zM189 204q8 -13 26 -20t41 -7
t48 7.5t50 22.5q38 24 57.5 56.5t19.5 59.5q0 17 -7 28q-8 14 -26.5 21t-41.5 7q-22 0 -46 -6.5t-47 -21.5q-39 -24 -60 -58t-21 -62q0 -17 7 -27z" />
    <glyph glyph-name="bn_a" unicode="&#x985;" horiz-adv-x="1305" 
d="M1315 1230v-116h-130v-1114l-56 49q-27 90 -54 152t-56 105t-59.5 73t-63.5 57q-40 -66 -112.5 -109.5t-169.5 -43.5q-91 0 -163.5 37t-130.5 99t-102 142.5t-78 167t-59 173.5t-45 161l69 -28q19 -70 43.5 -142t56 -138.5t71 -125.5t89.5 -102.5t111.5 -68.5t137.5 -25
q46 0 83 19t63 49.5t40.5 68.5t14.5 76q0 33 -3.5 71.5t-20 77t-51.5 75.5t-98 69q16 -32 16 -65q0 -27 -10 -51t-27.5 -41.5t-40.5 -28t-48 -10.5q-24 0 -49.5 8.5t-46 25.5t-34 42t-13.5 57q0 61 45 99t118 38q96 0 170 -30t124.5 -81.5t76.5 -120t26 -145.5
q0 -15 -2.5 -36.5t-4.5 -35.5q37 -48 68 -87t51 -82v719h-1061v116h1315z" />
    <glyph glyph-name="bn_ri" unicode="&#x98b;" horiz-adv-x="1217" 
d="M657 826q-57 -15 -115.5 -41.5t-111 -57.5t-95.5 -63t-70 -57q46 -18 100.5 -44.5t108.5 -66.5t102 -96.5t81 -133.5v560zM1097 1335v-105h130v-116h-130v-1114l-60 40q-40 102 -105.5 188.5t-150.5 151.5v-380l-60 40q-34 88 -88.5 165.5t-124 139t-151 104.5t-169.5 62
l-154 118q83 68 155 120.5t141 93.5t139.5 72.5t150.5 57.5q-3 32 -13.5 56.5t-22.5 41.5t-23 27.5t-17 15.5q-24 -59 -64 -93.5t-83 -52.5t-82.5 -23t-62.5 -5q-54 0 -99.5 13.5t-78.5 37t-52 55.5t-19 68q0 24 7 45t21 36.5t35.5 25t51.5 9.5q19 0 38.5 -8.5t35.5 -22.5
t25.5 -33t9.5 -40q0 -5 -2 -19.5t-7 -31.5t-15 -33.5t-26 -24.5h7q37 0 72.5 12t67 37.5t56.5 66t42 97.5q81 -23 142 -65.5t93 -88.5v370l124 -111v-813q60 -50 109.5 -114t82.5 -142v1180z" />
    <glyph glyph-name="bn_nukta" unicode="&#x9bc;" horiz-adv-x="449" 
d="M134 -78q0 21 8 40t22 33.5t33 22.5t40 8t40 -8t33.5 -22.5t22.5 -33.5t8 -40t-8 -40t-22.5 -33t-33.5 -22t-40 -8t-40 8t-33 22t-22 33t-8 40z" />
    <glyph glyph-name="bn_rrikaar" unicode="&#x9c4;" 
d="M-132 -129q-26 -17 -64.5 -34.5t-96.5 -38.5q58 -11 99 -24.5t68 -27.5q-3 -12 -7 -22t-9 -23q-48 28 -103 46t-112 26q2 12 3 26.5t1 26.5q9 3 15.5 5t14 4.5t17.5 6.5t27 11q-34 43 -78 67l14 46q31 6 53.5 14.5t45.5 19.5v385l124 197v-588q-37 -18 -85.5 -33.5
t-104.5 -29.5q26 -13 41.5 -29t28.5 -35q21 10 44.5 22t49.5 29z" />
    <glyph glyph-name="bn_okaar" unicode="&#x9cb;" horiz-adv-x="2167" 
d="M-1 1114v116h692v-116h-119q-72 -42 -133.5 -106.5t-105.5 -144t-69 -169t-25 -181.5q0 -80 17 -160t49 -144t78 -103.5t104 -39.5q15 0 30 4t23 9q-29 5 -48 17.5t-30 28t-15.5 32t-4.5 29.5q0 60 35 98t92 38q27 0 51 -11t42.5 -29.5t29 -44t10.5 -53.5
q0 -38 -16 -71.5t-45.5 -58.5t-72 -39.5t-96.5 -14.5q-91 0 -162.5 42.5t-121 115t-75.5 169.5t-26 207q0 89 21 176t54.5 163.5t76.5 138.5t87 102h-327zM1749 1114v116h125v216l124 -111v-105h179v-116h-179v-1114l-124 80v1034h-125zM1588 908q0 -50 -48 -50
q-52 0 -52 50t52 50q48 0 48 -50zM1440 1006q0 -49 -48 -49q-52 0 -52 49q0 51 52 51q48 0 48 -51zM1687 760q0 -51 -51 -51q-49 0 -49 51q0 49 51 49q49 0 49 -49zM1723 586q0 -50 -48 -50q-52 0 -52 50t52 50q48 0 48 -50zM1266 1043q0 -51 -50 -51t-50 51q0 49 50 49
t50 -49zM1093 1006q0 -49 -51 -49q-49 0 -49 49q0 51 49 51q51 0 51 -51zM1687 412q0 -49 -51 -49q-49 0 -49 49q0 51 49 51q51 0 51 -51zM945 908q0 -50 -50 -50t-50 47q0 53 50 53t50 -50zM1588 262q0 -49 -48 -49q-52 0 -52 49q0 51 52 51q48 0 48 -51zM1440 164
q0 -48 -48 -48q-52 0 -52 48q0 52 52 52q48 0 48 -52zM846 760q0 -51 -48 -51q-52 0 -52 51q0 49 50 49t50 -49zM810 586q0 -50 -48 -50q-52 0 -52 50t52 50q48 0 48 -50zM1266 131q0 -51 -50 -51t-50 51q0 49 50 49t50 -49zM846 412q0 -49 -50 -49t-50 49q0 51 50 51
t50 -51zM1093 168q0 -52 -51 -52q-49 0 -49 48q0 52 49 52q51 0 51 -48zM945 262q0 -49 -50 -49t-50 49q0 51 50 51t50 -51z" />
    <glyph glyph-name="bn_aukaar" unicode="&#x9cc;" horiz-adv-x="2168" 
d="M2177 1230v-116h-179v-1114l-124 80v1034h-125v116h136q30 16 43.5 35.5t13.5 33.5q0 30 -23 46.5t-60.5 25t-85.5 13t-97.5 10t-97.5 16t-85.5 31.5t-60.5 55.5t-23 89.5q0 25 13.5 55t44.5 57l36 -28q-25 -21 -30.5 -37.5t-5.5 -30.5q0 -27 25.5 -42.5t67 -24.5
t94 -13.5t107.5 -10.5t108 -16t94.5 -29.5t66.5 -50.5t25 -80q0 -18 -6 -33.5t-15 -28.5t-20 -23.5t-21 -19.5h184zM1588 908q0 -50 -48 -50q-52 0 -52 50t52 50q48 0 48 -50zM1440 1006q0 -49 -48 -49q-52 0 -52 49q0 51 52 51q48 0 48 -51zM1687 760q0 -51 -51 -51
q-49 0 -49 51q0 49 51 49q49 0 49 -49zM1723 586q0 -50 -48 -50q-52 0 -52 50t52 50q48 0 48 -50zM1266 1043q0 -51 -50 -51t-50 51q0 49 50 49t50 -49zM1093 1006q0 -49 -51 -49q-49 0 -49 49q0 51 49 51q51 0 51 -51zM1687 412q0 -49 -51 -49q-49 0 -49 49q0 51 49 51
q51 0 51 -51zM945 908q0 -50 -50 -50t-50 47q0 53 50 53t50 -50zM1588 262q0 -49 -48 -49q-52 0 -52 49q0 51 52 51q48 0 48 -51zM1440 164q0 -48 -48 -48q-52 0 -52 48q0 52 52 52q48 0 48 -52zM846 760q0 -51 -48 -51q-52 0 -52 51q0 49 50 49t50 -49zM810 586
q0 -50 -48 -50q-52 0 -52 50t52 50q48 0 48 -50zM1266 131q0 -51 -50 -51t-50 51q0 49 50 49t50 -49zM846 412q0 -49 -50 -49t-50 49q0 51 50 51t50 -51zM1093 168q0 -52 -51 -52q-49 0 -49 48q0 52 49 52q51 0 51 -48zM945 262q0 -49 -50 -49t-50 49q0 51 50 51t50 -51z
M-1 1114v116h692v-116h-119q-72 -42 -133.5 -106.5t-105.5 -144t-69 -169t-25 -181.5q0 -80 17 -160t49 -144t78 -103.5t104 -39.5q15 0 30 4t23 9q-29 5 -48 17.5t-30 28t-15.5 32t-4.5 29.5q0 60 35 98t92 38q27 0 51 -11t42.5 -29.5t29 -44t10.5 -53.5q0 -38 -16 -71.5
t-45.5 -58.5t-72 -39.5t-96.5 -14.5q-91 0 -162.5 42.5t-121 115t-75.5 169.5t-26 207q0 89 21 176t54.5 163.5t76.5 138.5t87 102h-327z" />
    <glyph glyph-name="bn_halanth" unicode="&#x9cd;" 
d="M-264 -136l77 92l335 -342h-95z" />
    <glyph glyph-name="bn_khanda_ta" unicode="&#x9ce;" horiz-adv-x="764" 
d="M116 897q0 -56 23.5 -94t62 -66t88 -51t100.5 -49.5t100.5 -60.5t88 -84.5t62 -121.5t23.5 -171q0 -43 -5 -91t-19 -103l-66 124q11 35 11 61q0 69 -24 115t-62.5 79t-88.5 57.5t-101.5 50t-101.5 55.5t-88.5 75t-62.5 109.5t-24 156.5q0 75 28 137.5t74.5 108t108 71
t128.5 25.5q56 0 105 -17.5t85.5 -49.5t57.5 -77.5t21 -101.5q0 -44 -15 -79.5t-41.5 -60.5t-63 -38.5t-80.5 -13.5t-84.5 19t-72.5 55t-53.5 86.5t-26.5 113.5q-40 -27 -63.5 -69.5t-23.5 -99.5zM449 907q21 0 40.5 5t33.5 15.5t22.5 27.5t8.5 40q0 50 -44.5 84.5
t-135.5 34.5q-56 0 -105 -17q6 -28 22.5 -61.5t40.5 -62t54 -47.5t63 -19z" />
    <glyph glyph-name="bn_rra" unicode="&#x9dc;" horiz-adv-x="1156" 
d="M1166 1114h-604v-402q0 -26 21 -26q15 0 46.5 16t69 47.5t74.5 77t63 105.5q52 -39 89.5 -84.5t62 -95t36 -100.5t11.5 -100q0 -95 -37.5 -169.5t-97 -125.5t-133 -78t-146.5 -27q-122 0 -225.5 51.5t-182 156.5t-128 263.5t-62.5 371.5l64 -38q5 -71 22.5 -146.5
t48 -147.5t74 -136.5t100 -113t126 -77t152.5 -28.5q61 0 123.5 23t112 62.5t81 93t31.5 114.5q0 18 -2.5 39.5t-8.5 43.5t-17 44t-29 41q-32 -61 -72.5 -108t-82.5 -79t-83.5 -48.5t-75.5 -16.5q-83 0 -116 54t-33 158v385h-438v116h1166v-116zM459 -78q0 21 8 40t22 33.5
t33 22.5t40 8t40 -8t33.5 -22.5t22.5 -33.5t8 -40t-8 -40t-22.5 -33t-33.5 -22t-40 -8t-40 8t-33 22t-22 33t-8 40z" />
    <glyph glyph-name="bn_rha" unicode="&#x9dd;" horiz-adv-x="887" 
d="M897 1114h-653v-672q0 -23 6.5 -43.5t19.5 -36t31 -25t42 -9.5q35 0 75 13t80 36t77 54t65.5 67t45.5 75t17 78q0 5 -2 13q-34 -35 -66.5 -50.5t-62.5 -15.5q-32 0 -59 12t-46.5 32t-31 47t-11.5 56q0 33 11.5 62t32 51t47.5 35t59 13q58 0 95.5 -26t59.5 -65.5t30 -87.5
t8 -92q0 -117 -41 -207t-105 -151.5t-141.5 -93t-150.5 -31.5q-11 0 -31 2.5t-43 11t-47 24.5t-43.5 42.5t-32 66.5t-12.5 95v720h-120v116h897v-116zM321 -78q0 21 8 40t22 33.5t33 22.5t40 8t40 -8t33.5 -22.5t22.5 -33.5t8 -40t-8 -40t-22.5 -33t-33.5 -22t-40 -8t-40 8
t-33 22t-22 33t-8 40z" />
    <glyph glyph-name="bn_yya" unicode="&#x9df;" horiz-adv-x="926" 
d="M682 1114h-367q36 -21 76.5 -59t78.5 -83t69.5 -93t49.5 -88q-50 -19 -99 -46t-94 -58t-85 -64.5t-70 -65.5q61 -21 114.5 -44t106 -55.5t106 -78.5t114.5 -113v848zM442 899q-63 58 -119.5 93t-110 56.5t-106 35.5t-106.5 30l-59 116h995v-116h-130v-1114l-60 40
q-57 105 -125.5 173t-140.5 111t-144.5 66t-137.5 38l-144 171q31 37 71 78t88.5 80.5t105.5 76t123 65.5zM219 170q0 21 8 40t22 33.5t33 22.5t40 8t40 -8t33.5 -22.5t22.5 -33.5t8 -40t-8 -40t-22.5 -33t-33.5 -22t-40 -8t-40 8t-33 22t-22 33t-8 40z" />
    <glyph glyph-name="bn_aa" unicode="&#x986;" horiz-adv-x="1638" 
d="M1129 49q-27 90 -54 152t-56 105t-59.5 73t-63.5 57q-40 -66 -112.5 -109.5t-169.5 -43.5q-91 0 -163.5 37t-130.5 99t-102 142.5t-78 167t-59 173.5t-45 161l69 -28q19 -70 43.5 -142t56 -138.5t71 -125.5t89.5 -102.5t111.5 -68.5t137.5 -25q46 0 83 19t63 49.5
t40.5 68.5t14.5 76q0 33 -3.5 71.5t-20 77t-51.5 75.5t-98 69q16 -32 16 -65q0 -27 -10 -51t-27.5 -41.5t-40.5 -28t-48 -10.5q-24 0 -49.5 8.5t-46 25.5t-34 42t-13.5 57q0 61 45 99t118 38q96 0 170 -30t124.5 -81.5t76.5 -120t26 -145.5q0 -15 -2.5 -36.5t-4.5 -35.5
q37 -48 68 -87t51 -82v719h-1061v116h1394v216l124 -111v-105h130v-116h-130v-1114l-124 80v1034h-209v-1114z" />
    <glyph glyph-name="bn_rri" unicode="&#x9e0;" horiz-adv-x="1217" 
d="M869 -402q-57 48 -113.5 81.5t-115.5 56t-122 35.5t-133 22l-14 72q38 6 74.5 15.5t71.5 26t70 42.5t70 65v153q-40 65 -91.5 121t-111.5 100.5t-127.5 76t-138.5 46.5l-154 118q83 68 155 120.5t141 93.5t139.5 72.5t150.5 57.5q-3 32 -13.5 56.5t-22.5 41.5t-23 27.5
t-17 15.5q-27 -66 -66.5 -105.5t-84 -59.5t-89.5 -26t-83 -6q-45 0 -81.5 11.5t-63 31t-41 45t-14.5 54.5q0 57 31.5 87.5t91.5 30.5q18 0 37 -7t35 -21t26 -34.5t10 -47.5q0 -5 -3 -19t-9.5 -30.5t-17.5 -32t-27 -23.5h7q37 0 69.5 20.5t60.5 56.5t50.5 85t39.5 106
q81 -23 142 -65.5t93 -88.5v370l124 -111v-813q60 -50 109.5 -114t82.5 -142v1180l124 -111v-105h130v-116h-130v-1114l-60 40q-40 102 -105.5 188.5t-150.5 151.5v-380q-20 -29 -47.5 -54.5t-59 -46.5t-64 -35.5t-61.5 -21.5q58 -11 108 -28.5t94 -41t84 -53t79 -63.5z
M657 826q-57 -15 -115.5 -41.5t-111 -57.5t-95.5 -63t-70 -57q46 -18 100.5 -44.5t108.5 -66.5t102 -96.5t81 -133.5v560z" />
    <glyph glyph-name="bn_lli" unicode="&#x9e1;" horiz-adv-x="1202" 
d="M1185 79q0 -42 -17.5 -75t-47.5 -57.5t-71 -41t-87 -26.5l-23 21q18 8 31 30.5t13 53.5q0 21 -5.5 40t-17.5 34t-32 24t-48 9q-20 0 -37 -10.5t-30 -26.5t-20 -36.5t-7 -39.5q0 -14 5 -27q15 33 32.5 42t28.5 9q18 0 35.5 -17.5t17.5 -40.5q0 -32 -14.5 -48t-40.5 -16
t-45 10.5t-31.5 28t-18.5 41t-6 49.5q0 30 9.5 59.5t27.5 52t43.5 36.5t58.5 14q39 0 69.5 -15t51.5 -40t32.5 -56.5t11.5 -65.5q0 -14 -1.5 -27.5t-5.5 -27.5q12 3 27 11t27.5 21t21.5 30.5t9 40.5q0 28 -26.5 57t-66.5 58.5t-87.5 60.5t-89.5 64q-21 -57 -61 -102.5
t-95.5 -80t-123 -59t-142.5 -40.5l-44 42q35 17 61 60.5t26 104.5q0 40 -10.5 78t-34.5 67.5t-63 47t-95 17.5q-39 0 -73 -20t-59 -52t-39.5 -71.5t-14.5 -78.5q0 -30 10 -54q15 33 31.5 53t32.5 30.5t30.5 14t25.5 3.5q18 0 36.5 -9t33.5 -25t25 -36.5t10 -42.5
q0 -63 -29 -95.5t-79 -32.5q-51 0 -89 20.5t-62.5 55.5t-36.5 81t-12 98q0 60 18.5 117.5t54 102t86 72t115.5 27.5q76 0 136.5 -29.5t102.5 -78t64.5 -111t22.5 -129.5q0 -27 -3 -54.5t-11 -54.5q24 5 52.5 21t54 41.5t42.5 61t17 79.5q0 43 -32.5 87.5t-85 89.5t-120.5 91
t-138.5 94t-138 98t-120 102t-85 106.5t-32.5 112.5q0 26 8.5 49t24 40.5t38 28t49.5 10.5q46 0 76 -28.5t30 -71.5q0 -27 -15 -47t-36.5 -33t-44.5 -19.5t-39 -6.5q18 -17 61 -39.5t100.5 -50.5t125 -61.5t135 -72.5t130 -83.5t111 -95t77.5 -107.5t29 -120q0 -23 -3 -42
q44 -21 97.5 -48.5t100.5 -61.5t78.5 -74.5t31.5 -88.5z" />
    <glyph glyph-name="bn_likaar" unicode="&#x9e2;" 
d="M-52 -269q0 -42 -17.5 -75t-47.5 -57.5t-71 -41t-87 -26.5l-23 21q18 8 31 30.5t13 53.5q0 21 -5.5 40t-17.5 34t-32 24t-48 9q-20 0 -37 -10.5t-30 -26.5t-20 -36.5t-7 -39.5q0 -14 5 -27q15 33 32.5 42t28.5 9q18 0 35.5 -17.5t17.5 -40.5q0 -32 -14.5 -48t-40.5 -16
t-45 10.5t-31.5 28t-18.5 41t-6 49.5q0 30 9.5 59.5t27.5 52t43.5 36.5t58.5 14q39 0 69.5 -15t51.5 -40t32.5 -56.5t11.5 -65.5q0 -14 -1.5 -27.5t-5.5 -27.5q12 3 27 11t27.5 21t21.5 30.5t9 40.5q0 29 -28.5 59t-70.5 61t-92 63.5t-92 66.5t-70.5 70.5t-28.5 75.5
q0 26 16.5 45.5t44.5 19.5q23 0 38.5 -14.5t15.5 -36.5q0 -14 -7.5 -24t-18.5 -16.5t-23 -10t-20 -3.5q12 -12 46 -28t77.5 -37.5t90.5 -47.5t86 -58t64.5 -69t25.5 -79z" />
    <glyph glyph-name="bn_llikaar" unicode="&#x9e3;" 
d="M-321 -269q0 -42 -17.5 -75t-47.5 -57.5t-71 -41t-87 -26.5l-23 21q18 8 31 30.5t13 53.5q0 21 -5.5 40t-17.5 34t-32 24t-48 9q-20 0 -37 -10.5t-30 -26.5t-20 -36.5t-7 -39.5q0 -14 5 -27q15 33 32.5 42t28.5 9q18 0 35.5 -17.5t17.5 -40.5q0 -32 -14.5 -48t-40.5 -16
t-45 10.5t-31.5 28t-18.5 41t-6 49.5q0 30 9.5 59.5t27.5 52t43.5 36.5t58.5 14q39 0 69.5 -15t51.5 -40t32.5 -56.5t11.5 -65.5q0 -14 -1.5 -27.5t-5.5 -27.5q12 3 27 11t27.5 21t21.5 30.5t9 40.5q0 29 -28.5 59t-70.5 61t-92 63.5t-92 66.5t-70.5 70.5t-28.5 75.5
q0 26 16.5 45.5t44.5 19.5q23 0 38.5 -14.5t15.5 -36.5q0 -14 -7.5 -24t-18.5 -16.5t-23 -10t-20 -3.5q12 -12 46 -28t77.5 -37.5t90.5 -47.5t86 -58t64.5 -69t25.5 -79zM-51 101q0 -42 -17.5 -75t-47.5 -57.5t-71 -41t-87 -26.5l-23 21q18 8 31 30.5t13 53.5q0 21 -5.5 40
t-17.5 34t-32 24t-48 9q-20 0 -37 -10.5t-30 -26.5t-20 -36.5t-7 -39.5q0 -14 5 -27q15 33 32.5 42t28.5 9q18 0 35.5 -17.5t17.5 -40.5q0 -32 -14.5 -48t-40.5 -16t-45 10.5t-31.5 28t-18.5 41t-6 49.5q0 30 9.5 59.5t27.5 52t43.5 36.5t58.5 14q39 0 69.5 -15t51.5 -40
t32.5 -56.5t11.5 -65.5q0 -14 -1.5 -27.5t-5.5 -27.5q12 3 27 11t27.5 21t21.5 30.5t9 40.5q0 29 -28.5 59t-70.5 61t-92 63.5t-92 66.5t-70.5 70.5t-28.5 75.5q0 26 16.5 45.5t44.5 19.5q23 0 38.5 -14.5t15.5 -36.5q0 -14 -7.5 -24t-18.5 -16.5t-23 -10t-20 -3.5
q12 -12 46 -28t77.5 -37.5t90.5 -47.5t86 -58t64.5 -69t25.5 -79z" />
    <glyph glyph-name="asa_ra" unicode="&#x9f0;" horiz-adv-x="888" 
d="M0 1114v116h898v-116h-130v-1114l-60 40q-34 88 -88.5 165.5t-124 139t-151 104.5t-169.5 62l-154 188q76 79 148.5 138.5t147 102.5t154.5 71t173 43v60h-644zM644 477q-56 91 -132.5 162.5t-167.5 119.5q-45 -33 -78 -64.5t-47 -51.5q44 -17 101.5 -49t116.5 -79
t113.5 -109t93.5 -140v211zM644 889q-51 -3 -102.5 -21.5t-101.5 -46.5q59 -47 112.5 -107.5t91.5 -137.5v313z" />
    <glyph glyph-name="asa_ba" unicode="&#x9f1;" horiz-adv-x="888" 
d="M644 889q-43 -2 -88 -16.5t-88 -36.5t-83 -48.5t-73 -53t-57 -51t-36 -40.5q44 -17 101.5 -49t116.5 -79t113.5 -109t93.5 -140v623zM0 1114v116h898v-116h-130v-1114l-60 40q-34 88 -88.5 165.5t-124 139t-151 104.5t-169.5 62l-154 188q76 79 148.5 138.5t147 102.5
t154.5 71t173 43v60h-644zM516 118q-37 35 -68.5 58.5t-72.5 41.5t-98 33t-145 34l44 132q41 -12 88 -30t95 -47t95 -70.5t89 -99.5z" />
    <glyph glyph-name="bn_rupeemark" unicode="&#x9f2;" horiz-adv-x="848" 
d="M41 979q132 -10 234 -49.5t177.5 -102t127.5 -145.5t84 -179t46 -202.5t15 -216.5h-104q-1 93 -11.5 184t-36 174.5t-68 156.5t-106.5 130t-152.5 94.5t-205.5 50.5v105z" />
    <glyph glyph-name="bn_currency1" unicode="&#x9f4;" horiz-adv-x="848" 
d="M41 190q117 13 205.5 50.5t152.5 94.5t106.5 130t68 156.5t36 175t11.5 184.5h104q-1 -110 -15 -216.5t-46 -202.5t-84 -179t-127.5 -145.5t-177.5 -102t-234 -49.5v104z" />
    <glyph glyph-name="bn_currency2" unicode="&#x9f5;" horiz-adv-x="1004" 
d="M883 981q-6 -100 -13.5 -187.5t-24.5 -166.5t-48 -150.5t-84.5 -137.5t-133 -129.5t-194.5 -125.5l-57 111q34 26 61 59.5t27 75.5q0 27 -10 54t-28 48t-42.5 34t-54.5 13q-20 0 -66 -12q32 -17 58 -48.5t26 -78.5q0 -51 -35.5 -83t-91.5 -32q-27 0 -51 11t-42.5 31.5
t-29 49.5t-10.5 64q0 48 19.5 85.5t51.5 63t73 39t85 13.5q50 0 95 -16t79.5 -44t55 -66t20.5 -83q0 -22 -5 -45.5t-19 -46.5l14 -11q87 62 139 142t80.5 171.5t39 192t15.5 205.5h101z" />
    <glyph glyph-name="bn_currency3" unicode="&#x9f6;" horiz-adv-x="1124" 
d="M358 84q-33 0 -55.5 10t-36.5 26t-20 36.5t-6 42.5q0 17 8 35t20.5 36.5t29 37t34.5 36.5l10 10q28 34 49 64.5t21 58.5q0 16 -3.5 39t-16 44.5t-38 36.5t-69.5 15q-14 0 -22.5 -1.5t-16.5 -4.5q-2 0 -4 -1t-4 -1l-5 -18q25 -13 44.5 -41t19.5 -76q0 -51 -34.5 -83
t-90.5 -32q-27 0 -51 11t-42.5 31.5t-29 49.5t-10.5 64q0 48 19.5 86t51.5 64t73 39.5t85 13.5q64 0 111 -22t77.5 -56.5t45 -76.5t14.5 -83q0 -43 -22.5 -80.5t-48.5 -69.5q-22 -26 -38 -50.5t-16 -49.5q0 -21 13.5 -29t31.5 -8q77 0 141.5 41t116 107.5t90.5 151.5
t65.5 173t40 172t15.5 148h101q-4 -95 -21.5 -198t-51 -203t-84 -190t-121.5 -158t-162.5 -108t-207.5 -40z" />
    <glyph glyph-name="bn_currency4" unicode="&#x9f7;" horiz-adv-x="289" 
d="M147 1075v-991h-104v991h104z" />
    <glyph glyph-name="bn_currencyless" unicode="&#x9f8;" horiz-adv-x="815" 
d="M219 565l21 -4q17 36 47.5 71.5t75.5 66t105 54t136 35.5q17 -26 35 -49t37 -51q-45 -54 -70.5 -123t-25.5 -147q0 -72 24.5 -149.5t81.5 -151.5q-25 -13 -44.5 -25t-41.5 -24q-57 74 -89 162.5t-32 185.5q0 62 15 126t49 130q-78 -25 -129 -59t-83.5 -73t-51 -81.5
t-31.5 -83.5q-35 15 -66.5 25t-66.5 24v461q0 38 -20 62.5t-48 45.5l68 78q21 -13 39.5 -28t33 -32.5t23 -38.5t8.5 -46v-361z" />
    <glyph glyph-name="bn_currency16" unicode="&#x9f9;" horiz-adv-x="852" 
d="M389 940q74 0 136.5 -28.5t107.5 -75t70.5 -104.5t25.5 -116q0 -65 -28 -123.5t-74.5 -102.5t-108.5 -70.5t-129 -26.5t-129.5 25t-111 68.5t-78 102.5t-29.5 127q0 69 28 128t75.5 102.5t110.5 68.5t134 25zM375 848q-43 0 -83.5 -18.5t-72 -50t-50.5 -72.5t-19 -86
q0 -56 21.5 -99t56 -71.5t78.5 -43t89 -14.5q51 0 92.5 20t70.5 53.5t46.5 77t20.5 89.5q-3 43 -23.5 82t-52 68.5t-71.5 47t-83 17.5h-20z" />
    <glyph glyph-name="bn_isshar" unicode="&#x9fa;" horiz-adv-x="1165" 
d="M150 727q-2 -20 -5.5 -36.5t-3.5 -33.5q0 -82 29 -146t75.5 -108t106 -67t121.5 -23q73 0 135 30t113.5 81t93.5 118.5t74 142.5t55.5 153.5t38.5 150.5q23 -11 41 -17t41 -16q-8 -57 -29.5 -134.5t-56 -160.5t-82 -164t-108.5 -145t-135 -103.5t-162 -39.5
q-86 0 -167 27.5t-145 82.5t-102.5 136t-38.5 188q0 26 2 58t10 61zM502 915q27 0 47 -10.5t33.5 -27.5t20.5 -38.5t7 -43.5q-2 -22 -11 -41t-24 -33.5t-34.5 -22.5t-42.5 -8t-42.5 10t-34.5 26t-23.5 36t-8.5 41q0 23 8.5 43.5t24 35.5t36 24t44.5 9z" />
    <glyph glyph-name="ZWNJ" unicode="&#x200c;" 
 />
    <glyph glyph-name="ZWJ" unicode="&#x200d;" 
 />
    <glyph glyph-name="bn_ya" unicode="&#x9af;" horiz-adv-x="926" 
d="M682 1114h-367q36 -21 76.5 -59t78.5 -83t69.5 -93t49.5 -88q-50 -19 -99 -46t-94 -58t-85 -64.5t-70 -65.5q61 -21 114.5 -44t106 -55.5t106 -78.5t114.5 -113v848zM442 899q-63 58 -119.5 93t-110 56.5t-106 35.5t-106.5 30l-59 116h995v-116h-130v-1114l-60 40
q-57 105 -125.5 173t-140.5 111t-144.5 66t-137.5 38l-144 171q31 37 71 78t88.5 80.5t105.5 76t123 65.5z" />
    <glyph glyph-name="bn_ma" unicode="&#x9ae;" horiz-adv-x="1049" 
d="M872 40q-18 63 -49 126t-76.5 120.5t-106 106.5t-138.5 84q-26 -52 -59.5 -71t-85.5 -19q-21 0 -47.5 8.5t-49.5 27t-39 48.5t-16 72q0 25 8.5 51.5t27 48.5t47 35.5t68.5 13.5q29 0 55.5 -12t42.5 -25q0 92 -38.5 167.5t-102.5 133t-145.5 97.5t-167.5 61l-55 116h1114
v-116h-130v-1114zM554 692q0 -28 -3 -49t-7 -41q48 -34 117 -92.5t144 -156.5v761h-516q58 -31 107 -78.5t84 -104t54.5 -118t19.5 -121.5z" />
    <glyph glyph-name="bn_ssa" unicode="&#x9b7;" horiz-adv-x="927" 
d="M1 1114l-59 116h995v-116h-130v-1114l-60 40q-61 105 -129.5 173t-140 110.5t-142.5 66t-136 38.5l-144 171q28 34 66.5 72.5t85 77t100 74.5t111.5 66q-44 38 -87.5 68t-93 56.5t-107 50.5t-129.5 50zM242 557q61 -21 117.5 -47.5t110.5 -61t107 -79t106 -103.5v339
q-41 48 -76.5 88.5t-67.5 75.5q-43 -20 -85 -45t-80.5 -53t-72 -57t-59.5 -57zM683 1114h-367q32 -19 66.5 -49t69 -66t67.5 -76t63 -80.5t55.5 -79.5t45.5 -72v423z" />
    <glyph glyph-name="bn_la" unicode="&#x9b2;" horiz-adv-x="1069" 
d="M949 1114v-1114l-124 80v603q-9 23 -23.5 50t-33.5 50.5t-41 39.5t-46 16q-26 0 -47 -14.5t-36.5 -36t-25.5 -47.5t-14 -49h-50q-26 41 -51 69t-52.5 45.5t-59 25t-69.5 7.5q-28 0 -60.5 -12.5t-60 -36.5t-46 -59t-18.5 -79q0 -34 9 -59t21.5 -43t26 -29t21.5 -17
q-16 36 -16 68q0 28 11 50.5t28.5 38t39 23.5t42.5 8q29 0 54.5 -10t44 -27.5t29 -41t10.5 -51.5q0 -29 -11.5 -53.5t-32.5 -42t-49.5 -27.5t-62.5 -10q-46 0 -88.5 20t-75.5 56.5t-52.5 87.5t-19.5 114q0 65 20.5 117.5t56 89t83.5 56t104 19.5q43 0 81.5 -14.5t70 -39.5
t56 -60t38.5 -75q4 37 18 71t33.5 60.5t44 42t51.5 15.5t50.5 -15t42.5 -39t33 -54.5t22 -61.5v295h-825v116h1079v-116h-130z" />
    <glyph glyph-name="bn_nna" unicode="&#x9a3;" horiz-adv-x="906" 
d="M288 1090q-37 0 -75 -12.5t-68.5 -36t-50 -58.5t-19.5 -80q0 -18 4 -35.5t12 -25.5q6 27 19 44.5t29.5 27t34 13t32.5 3.5q57 -3 93 -38.5t36 -95.5q0 -26 -11.5 -49t-31 -40t-45.5 -27t-56 -10q-36 0 -67.5 17t-54.5 48.5t-36 75t-13 96.5q0 67 18 125.5t51.5 102.5
t81.5 69.5t108 25.5q49 0 101.5 -23.5t102.5 -62.5t96 -90t83 -107v499l124 -111v-105h130v-116h-130v-1114l-124 80v756q-86 118 -177.5 186t-196.5 68z" />
    <glyph glyph-name="bn_pa" unicode="&#x9aa;" horiz-adv-x="1146" 
d="M902 1446l124 -111v-105h130v-116h-130v-1114l-124 80v608l-14 23q-38 60 -75 116t-75 104l-333 -344l-125 60q19 19 34 35l34 36q26 49 26 93q0 52 -33 82.5t-82 30.5q-23 0 -49 -7.5t-52 -24.5q1 0 -20 8.5t-46.5 19t-46.5 19.5t-21 10q33 59 76.5 110t93.5 89t107 60
t117 22q90 0 156 -30t121 -85t104 -132t103 -171v634zM458 1114q-43 0 -80 -14.5t-66.5 -34.5t-49 -41t-27.5 -34q25 6 49 6q34 0 62 -11.5t48.5 -31t32 -45.5t11.5 -56q0 -16 -5 -38l215 215q-45 40 -91.5 62.5t-98.5 22.5z" />
    <glyph glyph-name="bn_pha" unicode="&#x9ab;" horiz-adv-x="1343" 
d="M810 0l-60 40q-57 105 -125.5 173t-140.5 111t-144.5 66t-137.5 38l-144 171q31 37 71 78t88.5 80.5t105.5 76t123 65.5q-63 58 -119.5 93t-110 56.5t-106 35.5t-106.5 30l-59 116h1438v-116h-1064q36 -21 76.5 -59t78.5 -83t69.5 -93t49.5 -88q-50 -19 -99 -46t-94 -58
t-85 -64.5t-70 -65.5q61 -21 114.5 -44t106 -55.5t106 -78.5t114.5 -113v683h124q88 0 168.5 -31t141.5 -86.5t97 -132.5t36 -169q0 -54 -14.5 -96.5t-39.5 -72t-58.5 -45.5t-71.5 -16q-29 0 -54 10.5t-43.5 29t-29.5 42.5t-11 51q0 57 38 92t98 35q13 0 30 -4t33.5 -14.5
t29.5 -28.5t18 -47q9 9 14 27.5t5 33.5q0 72 -37.5 123.5t-95 84.5t-125.5 48.5t-129 15.5v-799z" />
    <glyph glyph-name="bn_bha" unicode="&#x9ad;" horiz-adv-x="1275" 
d="M1285 1114h-1285v116h1285v-116zM722 60q-46 0 -101.5 18.5t-116 61t-124.5 113.5t-126.5 175.5t-121.5 246.5t-110 328l89 -62q33 -95 69.5 -185t79 -170.5t91 -148t105.5 -116t123 -76t143 -27.5q68 0 119.5 21t89.5 54.5t63.5 77t41 88t22 86.5t6.5 74q0 12 -1.5 28
t-4.5 33.5t-8 34t-12 28.5q-57 -46 -108.5 -73.5t-97 -42t-85.5 -19t-73 -4.5q-48 0 -90 15t-73.5 42t-50 65t-18.5 84q0 35 12 65t33.5 51.5t50 34t61.5 12.5q31 0 58.5 -11t48.5 -30.5t33 -46t12 -57.5q0 -58 -30.5 -96t-79.5 -57q62 8 111 29t86 48.5t64 59t45 61t28 55
t14 41.5q53 -32 85.5 -74t50.5 -87t24 -88.5t6 -78.5q0 -72 -10.5 -143t-32 -135.5t-56 -120t-82.5 -96t-110.5 -63.5t-141.5 -23z" />
    <glyph glyph-name="bn_na" unicode="&#x9a8;" horiz-adv-x="961" 
d="M295 710q32 -20 52 -56t20 -84q0 -26 -12 -53t-33.5 -49t-51.5 -35.5t-65 -13.5q-31 0 -63.5 10.5t-59.5 34t-44.5 59.5t-17.5 87q0 55 22.5 98t58.5 72t82 44t93 15q58 0 109.5 -16t95.5 -43t81.5 -62t67 -73.5t51.5 -78t36 -74.5v622h-706v116h960v-116h-130v-1114
l-124 80v257q-35 79 -85 147t-107 118t-116.5 79t-113.5 29z" />
    <glyph glyph-name="bn_sha" unicode="&#x9b6;" horiz-adv-x="1072" 
d="M828 1446l124 -111v-105h130v-116h-130v-1114l-124 80v727q-17 44 -44.5 94t-62.5 92.5t-75 70.5t-80 28q-16 0 -32 -7t-29.5 -19.5t-23.5 -28.5t-14 -34q23 -18 49.5 -42.5t48.5 -53.5t36.5 -61.5t14.5 -67.5q0 -66 -37 -101.5t-92 -35.5q-45 0 -82 30t-69 84
q-10 -24 -27.5 -45t-39 -36.5t-47 -24t-51.5 -8.5q-29 0 -51.5 11t-38.5 29.5t-24.5 42.5t-8.5 50q0 34 15 67.5t39.5 63.5t56 55t64.5 43q-15 42 -36 64.5t-44 33t-46.5 12t-43.5 1.5h-53v116h51q41 0 83.5 -15t79 -42.5t65 -66t40.5 -84.5q23 95 81 151.5t148 56.5
q28 0 58 -15.5t58.5 -40.5t55 -56t48.5 -62.5t37.5 -60t22.5 -48.5v499z" />
    <glyph glyph-name="bn_da" unicode="&#x9a6;" horiz-adv-x="933" 
d="M943 1114h-699v-491q42 58 99.5 111t121 97t128 76.5t120.5 47.5l166 -122q-62 -124 -86 -238.5t-24 -229.5q0 -47 3 -90t8 -87t13 -90t18 -98l-73 50q-32 128 -53.5 242t-21.5 228q0 62 7 124.5t24 128.5q-50 -15 -112 -52t-124 -90.5t-118.5 -122t-95.5 -146.5
l-124 159v593h-120v116h943v-116z" />
    <glyph glyph-name="bn_i" unicode="&#x987;" horiz-adv-x="861" 
d="M867 1230v-116h-585q9 -7 24.5 -21.5t29.5 -37.5q73 0 141 -22t121 -63t85 -99.5t32 -132.5q0 -68 -31 -121t-79.5 -90.5t-107.5 -58.5t-114 -24q46 -22 93.5 -44t99.5 -55t109.5 -82.5t123.5 -126.5l52 -135q-90 99 -183.5 169t-188.5 116.5t-190.5 72.5t-191.5 37
l-85 236q17 -2 43.5 -11.5t60 -21t72 -20.5t79.5 -9q40 0 90 14t94 40t74 63.5t30 85.5t-15.5 82t-42 57.5t-62 36.5t-75.5 18q17 -22 23.5 -48t6.5 -46q0 -35 -13.5 -62.5t-36 -47t-51 -30t-59.5 -10.5q-29 0 -57 11t-50 31t-35 49t-13 64q0 34 12.5 61t33.5 47.5t49 34.5
t60 22q-5 15 -20.5 35t-43.5 36h-176v116h474q30 16 43.5 35.5t13.5 33.5q0 30 -23 46.5t-60.5 25t-85.5 13t-97.5 10t-97.5 16t-85.5 31.5t-60.5 55.5t-23 89.5q0 25 13.5 55t44.5 57l36 -28q-25 -21 -30.5 -37.5t-5.5 -30.5q0 -27 25.5 -42.5t67 -24.5t94 -13.5
t107.5 -10.5t108 -16t94.5 -29.5t66.5 -50.5t25 -80q0 -18 -6 -33.5t-15 -28.5t-20 -23.5t-21 -19.5h285z" />
    <glyph glyph-name="bn_ha" unicode="&#x9b9;" horiz-adv-x="935" 
d="M945 1230v-116h-654q9 -7 24.5 -21.5t29.5 -37.5q73 0 141 -22t121 -63t85 -99.5t32 -132.5q0 -68 -31 -121t-79.5 -90.5t-107.5 -58.5t-114 -24q46 -22 93.5 -44t99.5 -55t109.5 -82.5t123.5 -126.5l52 -135q-90 99 -183.5 169t-188.5 116.5t-190.5 72.5t-191.5 37
l-85 236q17 -2 43.5 -11.5t60 -21t72 -20.5t79.5 -9q40 0 90 14t94 40t74 63.5t30 85.5t-15.5 82t-42 57.5t-62 36.5t-75.5 18q17 -22 23.5 -48t6.5 -46q0 -35 -13.5 -62.5t-36 -47t-51 -30t-59.5 -10.5q-29 0 -57 11t-50 31t-35 49t-13 64q0 34 12.5 61t33.5 47.5t49 34.5
t60 22q-5 15 -20.5 35t-43.5 36h-185v116h945z" />
    <glyph glyph-name="bn_sa" unicode="&#x9b8;" horiz-adv-x="1091" 
d="M-55 1230h1156v-116h-130v-1114l-124 80v558q-13 21 -30.5 41t-37 35.5t-40 25t-38.5 9.5q-41 0 -73 -26t-60 -65.5t-54 -85.5t-54.5 -85.5t-62.5 -65.5t-77 -26q-54 0 -93 22.5t-68.5 58t-51.5 78t-40 81.5l54 46q8 -20 20.5 -42t28.5 -40t35 -30t40 -12q30 0 57 19
t52.5 49.5t50 68t49.5 74.5q-36 98 -93.5 160t-121 99t-127 56t-112.5 31zM644 921q28 0 57 -20t56.5 -48t50.5 -59t39 -53v373h-474q51 -47 85.5 -122t43.5 -159q32 38 66 63t76 25z" />
    <glyph glyph-name="bn_ii" unicode="&#x988;" horiz-adv-x="1062" 
d="M514 651q55 69 99 116t82 78.5t71.5 50t68.5 32.5l130 -135q-59 -121 -84.5 -231.5t-25.5 -226.5q0 -78 10 -160t27 -175l-73 50q-28 110 -45 219.5t-17 215.5q0 65 7.5 128t24.5 122q-16 -7 -38 -30.5t-49.5 -57t-60.5 -74t-69.5 -81.5t-76.5 -79.5t-82 -68.5t-86.5 -48
t-89.5 -18q-49 0 -87.5 23t-65.5 58.5t-43 77t-20 78.5l66 39q9 -23 20 -45.5t25.5 -40t33.5 -28.5t43 -11q57 0 100 29.5t72 74t43.5 97.5t14.5 100q0 38 -7.5 72t-25.5 59.5t-48 40t-74 14.5q-6 0 -17.5 -1t-19.5 -3q29 -20 48.5 -52.5t19.5 -66.5q0 -67 -39.5 -102
t-99.5 -35q-29 0 -56 11t-47 31t-32 49t-12 64q0 33 11 59.5t29.5 46.5t44 34.5t55.5 22.5q-2 15 -7.5 34.5t-14 39t-20 37t-25.5 29.5h-102v116h664q30 16 43.5 35.5t13.5 33.5q0 30 -23 46.5t-60.5 25t-85.5 13t-97.5 10t-97.5 16t-85.5 31.5t-60.5 55.5t-23 89.5
q0 25 13.5 55t44.5 57l36 -28q-25 -21 -30.5 -37.5t-5.5 -30.5q0 -27 25.5 -42.5t67 -24.5t94 -13.5t107.5 -10.5t108 -16t94.5 -29.5t66.5 -50.5t25 -80q0 -18 -6 -33.5t-15 -28.5t-20 -23.5t-21 -19.5h300v-116h-837q20 -29 30.5 -66t12.5 -60q55 0 100 -16t77.5 -46
t50 -73.5t17.5 -97.5q0 -68 -9 -104z" />
    <glyph glyph-name="bn_ddha" unicode="&#x9a2;" horiz-adv-x="887" 
d="M897 1114h-653v-727q0 -23 6.5 -43.5t19.5 -36t31 -25t42 -9.5q35 0 75 13t80 36t77 54t65.5 67t45.5 75t17 78q0 5 -2 13q-34 -35 -66.5 -50.5t-62.5 -15.5q-32 0 -59 12t-46.5 32t-31 47t-11.5 56q0 33 11.5 62t32 51t47.5 35t59 13q58 0 95.5 -26t59.5 -65.5t30 -87.5
t8 -92q0 -117 -41 -207t-105 -151.5t-141.5 -93t-150.5 -31.5q-11 0 -31 2.5t-43 11t-47 24.5t-43.5 42.5t-32 66t-12.5 95.5v775h-120v116h897v-116z" />
    <glyph glyph-name="bn_tta" unicode="&#x99f;" horiz-adv-x="887" 
d="M897 1230v-116h-653v-727q0 -23 6.5 -43.5t19.5 -36t31 -25t42 -9.5q35 0 75 13t80 36t77 54t65.5 67t45.5 75t17 78q0 5 -2 13q-34 -35 -66.5 -50.5t-62.5 -15.5q-32 0 -59 12t-46.5 32t-31 47t-11.5 56q0 33 11.5 62t32 51t47.5 35t59 13q58 0 95.5 -26t59.5 -65.5
t30 -87.5t8 -92q0 -117 -41 -207t-105 -151.5t-141.5 -93t-150.5 -31.5q-11 0 -31 2.5t-43 11t-47 24.5t-43.5 42.5t-32 66t-12.5 95.5v775h-120v116h521q30 16 43.5 35.5t13.5 33.5q0 30 -23 46.5t-60.5 25t-85.5 13t-97.5 10t-97.5 16t-85.5 31.5t-60.5 55.5t-23 89.5
q0 25 13.5 55t44.5 57l36 -28q-25 -21 -30.5 -37.5t-5.5 -30.5q0 -27 25.5 -42.5t67 -24.5t94 -13.5t107.5 -10.5t108 -16t94.5 -29.5t66.5 -50.5t25 -80q0 -18 -6 -33.5t-15 -28.5t-20 -23.5t-21 -19.5h268z" />
    <glyph glyph-name="bn_dda" unicode="&#x9a1;" horiz-adv-x="1156" 
d="M1166 1114h-604v-457q0 -26 21 -26q15 0 46.5 16t69 47.5t74.5 77t63 105.5q52 -39 89.5 -84.5t62 -95t36 -100.5t11.5 -100q0 -95 -31.5 -169.5t-86 -125.5t-127.5 -78t-157 -27q-123 0 -229 60.5t-186.5 175.5t-131 282t-63.5 380l64 -38q5 -71 23 -150.5t50 -158
t77 -150t104 -126t132 -87t160 -32.5q73 0 133 23t103 62.5t66 93t23 114.5q0 18 -2.5 39.5t-8.5 43.5t-17 44t-29 41q-32 -61 -72.5 -108t-82.5 -79t-83.5 -48.5t-75.5 -16.5q-83 0 -116 54t-33 158v440h-438v116h1166v-116z" />
    <glyph glyph-name="bn_u" unicode="&#x989;" horiz-adv-x="1144" 
d="M1154 1230v-116h-593v-402q0 -26 21 -26q15 0 46.5 16t69 47.5t74.5 77t63 105.5q52 -39 89.5 -84.5t62 -95t36 -100.5t11.5 -100q0 -95 -37.5 -169.5t-97 -125.5t-133 -78t-146.5 -27q-122 0 -225.5 51.5t-182 156.5t-128 263.5t-62.5 371.5l64 -38q5 -71 22.5 -146.5
t48 -147.5t74 -136.5t100 -113t126 -77t152.5 -28.5q61 0 123.5 23t112 62.5t81 93t31.5 114.5q0 18 -2.5 39.5t-8.5 43.5t-17 44t-29 41q-32 -61 -72.5 -108t-82.5 -79t-83.5 -48.5t-75.5 -16.5q-83 0 -116 54t-33 158v385h-437v116h689q30 16 43.5 35.5t13.5 33.5
q0 30 -23 46.5t-60.5 25t-85.5 13t-97.5 10t-97.5 16t-85.5 31.5t-60.5 55.5t-23 89.5q0 25 13.5 55t44.5 57l36 -28q-25 -21 -30.5 -37.5t-5.5 -30.5q0 -27 25.5 -42.5t67 -24.5t94 -13.5t107.5 -10.5t108 -16t94.5 -29.5t66.5 -50.5t25 -80q0 -18 -6 -33.5t-15 -28.5
t-20 -23.5t-21 -19.5h357z" />
    <glyph glyph-name="bn_uu" unicode="&#x98a;" horiz-adv-x="1289" 
d="M468 308q-64 52 -117 119.5t-91.5 152.5t-60.5 188t-25 227l64 -38q3 -75 19.5 -152.5t47 -149.5t75 -135.5t101.5 -110.5t127 -74t153 -27q61 0 123.5 23t112 62.5t81 93t31.5 114.5q0 18 -2.5 39.5t-8.5 43.5t-17 44t-29 41q-32 -61 -72.5 -108t-82.5 -79t-83.5 -48.5
t-75.5 -16.5q-83 0 -116 54t-33 158v385h-589v116h841q30 16 43.5 35.5t13.5 33.5q0 30 -23 46.5t-60.5 25t-85.5 13t-97.5 10t-97.5 16t-85.5 31.5t-60.5 55.5t-23 89.5q0 25 13.5 55t44.5 57l36 -28q-25 -21 -30.5 -37.5t-5.5 -30.5q0 -27 25.5 -42.5t67 -24.5t94 -13.5
t107.5 -10.5t108 -16t94.5 -29.5t66.5 -50.5t25 -80q0 -18 -6 -33.5t-15 -28.5t-20 -23.5t-21 -19.5h350v-116h-586v-402q0 -26 21 -26q15 0 46.5 16t69 47.5t74.5 77t63 105.5q52 -39 89.5 -84.5t62 -95t36 -100.5t11.5 -100q0 -95 -40 -169.5t-106.5 -125.5t-151.5 -78
t-175 -27q-81 0 -161 15t-154 49t-138.5 89.5t-114 137t-81.5 191t-40 251.5l64 -38q6 -104 38 -195.5t83.5 -163t118 -118.5t140.5 -62z" />
    <glyph glyph-name="bn_li" unicode="&#x98c;" horiz-adv-x="990" 
d="M880 394q0 -83 -34.5 -148t-94 -113t-140 -81t-172.5 -52l-44 42q35 17 61 60.5t26 104.5q0 40 -10.5 78t-34.5 67.5t-63 47t-95 17.5q-39 0 -73 -20t-59 -52t-39.5 -71.5t-14.5 -78.5q0 -30 10 -54q15 33 31.5 53t32.5 30.5t30.5 14t25.5 3.5q18 0 36.5 -9t33.5 -25
t25 -36.5t10 -42.5q0 -63 -29 -95.5t-79 -32.5q-51 0 -89 20.5t-62.5 55.5t-36.5 81t-12 98q0 60 18.5 117.5t54 102t86 72t115.5 27.5q76 0 136.5 -29.5t102.5 -78t64.5 -111t22.5 -129.5q0 -27 -3 -54.5t-11 -54.5q24 5 52.5 21t54 41.5t42.5 61t17 79.5q0 43 -32.5 87.5
t-85 89.5t-120.5 91t-138.5 94t-138 98t-120 102t-85 106.5t-32.5 112.5q0 26 8.5 49t24 40.5t38 28t49.5 10.5q46 0 76 -28.5t30 -71.5q0 -27 -15 -47t-36.5 -33t-44.5 -19.5t-39 -6.5q18 -17 61 -39.5t100.5 -50.5t125 -61.5t135 -72.5t130 -83.5t111 -95t77.5 -107.5
t29 -120z" />
    <glyph glyph-name="bn_ai" unicode="&#x990;" horiz-adv-x="1259" 
d="M952 970q31 0 56.5 12t43 31.5t27 43.5t9.5 47q0 64 -28 104.5t-74 67t-104.5 43.5t-120 33t-120 36t-104.5 52.5t-74 81.5t-28 124q0 51 31.5 104t100.5 95l32 -62q-38 -17 -64.5 -43.5t-26.5 -64.5q0 -41 28.5 -67.5t75 -46t105.5 -35.5t121 -36t121 -47t105.5 -68.5
t75 -100.5t28.5 -144q0 -42 -14.5 -84.5t-42.5 -78.5t-68 -61t-91 -31v-875l-64 40q-33 40 -68 63.5t-73.5 36t-80.5 16t-90 3.5q-60 0 -120 -5t-114 -5q-75 0 -134.5 21t-101 58.5t-63.5 89t-22 112.5q0 41 10 84t31 89l41 -41q-9 -24 -13 -45t-4 -40q0 -51 27 -83t69 -50
t93.5 -24t101.5 -6q29 0 58.5 0.5t58.5 0.5q51 0 100.5 -7.5t93.5 -26t80 -50t60 -80.5v849q0 45 -31 66.5t-85 21.5q-31 0 -80 -4.5t-104.5 -23t-112 -56t-102.5 -102.5q41 42 76 57t70 15t61 -12.5t43.5 -32t26.5 -44.5t9 -49q0 -34 -13 -60t-34.5 -43t-50.5 -26t-61 -9
q-41 0 -73.5 14.5t-55 38.5t-34.5 55.5t-12 66.5q0 49 22 94.5t59 85t86.5 72t103.5 56t110 36.5t107 13q43 0 79.5 -7t63 -28.5t41.5 -61.5t15 -106v-57z" />
    <glyph glyph-name="bn_e" unicode="&#x98f;" horiz-adv-x="1072" 
d="M952 0l-64 40q-33 40 -68 63.5t-73.5 36t-80.5 16t-90 3.5q-60 0 -120 -5t-114 -5q-75 0 -134.5 21t-101 58.5t-63.5 89t-22 112.5q0 41 10 84t31 89l41 -41q-9 -24 -13 -45t-4 -40q0 -51 27 -83t69 -50t93.5 -24t101.5 -6q29 0 58.5 0.5t58.5 0.5q51 0 100.5 -7.5
t93.5 -26t80 -50t60 -80.5v849q0 45 -31 66.5t-85 21.5q-31 0 -80 -4.5t-104.5 -23t-112 -56t-102.5 -102.5q41 42 76 57t70 15t61 -12.5t43.5 -32t26.5 -44.5t9 -49q0 -34 -13 -60t-34.5 -43t-50.5 -26t-61 -9q-41 0 -73.5 14.5t-55 38.5t-34.5 55.5t-12 66.5q0 49 22 94.5
t59 85t86.5 72t103.5 56t110 36.5t107 13q43 0 79.5 -7t63 -28.5t41.5 -61.5t15 -106v-1027z" />
    <glyph glyph-name="bn_o" unicode="&#x993;" horiz-adv-x="1331" 
d="M1118 650q23 -26 41 -55.5t30 -60.5t18 -61.5t6 -57.5q0 -87 -36 -153.5t-92 -111.5t-125 -67.5t-136 -22.5q-75 0 -149.5 18.5t-146.5 61t-141 113.5t-133 175.5t-122.5 246.5t-109.5 328l89 -62q33 -95 69 -185t79.5 -170.5t96.5 -148t119 -116t147.5 -76t181.5 -27.5
q55 0 108.5 17t96 49.5t68.5 78.5t26 103q0 35 -5 69t-20 66q-27 -36 -62 -57t-76 -21q-25 0 -49 9t-43.5 27t-31.5 44.5t-12 61.5q0 32 12.5 57.5t32 43t44.5 27t49 9.5q41 0 79 -24t59 -56q18 35 24.5 64t6.5 58q0 57 -32 100.5t-78.5 73.5t-100 45.5t-96.5 15.5
q-47 0 -104.5 -6.5t-114 -32.5t-106.5 -78.5t-82 -144.5q38 19 71.5 31t59.5 12q38 0 64 -14.5t41.5 -34.5t22.5 -42.5t7 -37.5q0 -24 -7.5 -48.5t-23.5 -44.5t-41 -32.5t-60 -12.5q-45 0 -78 17t-55.5 46.5t-33.5 70t-11 88.5q0 110 44.5 188.5t112 129t146.5 74t149 23.5
q71 0 140 -26t124 -73.5t88.5 -114t33.5 -147.5q0 -51 -17.5 -105.5t-55.5 -113.5z" />
    <glyph glyph-name="bn_au" unicode="&#x994;" horiz-adv-x="1528" 
d="M1118 650q23 -26 41 -55.5t30 -60.5t18 -61.5t6 -57.5q0 -87 -36 -153.5t-92 -111.5t-125 -67.5t-136 -22.5q-75 0 -149.5 18.5t-146.5 61t-141 113.5t-133 175.5t-122.5 246.5t-109.5 328l89 -62q33 -95 69 -185t79.5 -170.5t96.5 -148t119 -116t147.5 -76t181.5 -27.5
q55 0 108.5 17t96 49.5t68.5 78.5t26 103q0 35 -5 69t-20 66q-27 -36 -62 -57t-76 -21q-25 0 -49 9t-43.5 27t-31.5 44.5t-12 61.5q0 32 12.5 57.5t32 43t44.5 27t49 9.5q41 0 79 -24t59 -56q18 35 24.5 64t6.5 58q0 57 -32 100.5t-78.5 73.5t-100 45.5t-96.5 15.5
q-47 0 -104.5 -6.5t-114 -32.5t-106.5 -78.5t-82 -144.5q38 19 71.5 31t59.5 12q38 0 64 -14.5t41.5 -34.5t22.5 -42.5t7 -37.5q0 -24 -7.5 -48.5t-23.5 -44.5t-41 -32.5t-60 -12.5q-45 0 -78 17t-55.5 46.5t-33.5 70t-11 88.5q0 110 44.5 188.5t112 129t146.5 74t149 23.5
q71 0 140 -26t124 -73.5t88.5 -114t33.5 -147.5q0 -55 -19 -111q32 10 67 31t64.5 51.5t48.5 68.5t19 82q0 64 -28 109.5t-74 80t-104.5 61.5t-119.5 53.5t-119.5 56.5t-104.5 70.5t-74 94.5t-28 129q0 51 31.5 104t100.5 95l32 -62q-38 -17 -64.5 -43.5t-26.5 -64.5
q0 -41 28.5 -70.5t75 -53.5t105.5 -46.5t121 -48.5t121 -59t105.5 -79.5t75 -108.5t28.5 -147q0 -73 -15 -130.5t-41 -101.5t-59.5 -75.5t-71 -53t-75.5 -34t-72 -17.5z" />
    <glyph glyph-name="bn_nya" unicode="&#x99e;" horiz-adv-x="1485" 
d="M947 744q18 -51 45.5 -96t62 -78t75.5 -52.5t87 -19.5q24 0 47 6t41 19t29 34.5t11 52.5q0 16 -6.5 41t-29.5 49q-26 -34 -53 -43.5t-53 -9.5q-11 0 -27 4.5t-30.5 15.5t-25 29.5t-10.5 47.5t10.5 47.5t25 29.5t30.5 15.5t27 4.5q26 0 53 -9.5t53 -43.5q23 24 29.5 49
t6.5 41q0 31 -11 52.5t-29 34.5t-41 19t-47 6q-46 0 -87 -19.5t-75.5 -52.5t-62 -78t-45.5 -96zM952 0l-64 40q-33 40 -68 63.5t-73.5 36t-80.5 16t-90 3.5q-60 0 -120 -5t-114 -5q-75 0 -134.5 21t-101 58.5t-63.5 89t-22 112.5q0 41 10 84t31 89l41 -41q-9 -24 -13 -45
t-4 -40q0 -51 27 -83t69 -50t93.5 -24t101.5 -6q29 0 58.5 0.5t58.5 0.5q51 0 100.5 -7.5t93.5 -26t80 -50t60 -80.5v849q0 45 -31 66.5t-85 21.5q-31 0 -80 -4.5t-104.5 -23t-112 -56t-102.5 -102.5q41 42 76 57t70 15t61 -12.5t43.5 -32t26.5 -44.5t9 -49q0 -34 -13 -60
t-34.5 -43t-50.5 -26t-61 -9q-41 0 -73.5 14.5t-55 38.5t-34.5 55.5t-12 66.5q0 49 22 94.5t59 85t86.5 72t103.5 56t110 36.5t107 13q43 0 79.5 -7t63 -28.5t41.5 -61.5t15 -106v-76q29 55 61.5 93t67 62t70.5 34.5t71 10.5q39 0 77 -15t68.5 -43t49.5 -67.5t19 -88.5
q0 -37 -8.5 -68t-22 -55t-29.5 -41.5t-31 -28.5q15 -11 31 -28.5t29.5 -41.5t22 -55t8.5 -68q0 -49 -19 -88.5t-49.5 -67.5t-68.5 -43t-77 -15q-35 0 -71 10.5t-70.5 34.5t-67 62t-61.5 93v-537z" />
    <glyph glyph-name="bn_tha" unicode="&#x9a5;" horiz-adv-x="928" 
d="M331 561q40 -18 84.5 -45t90 -63.5t91 -83t87.5 -104.5v1181l124 -111v-105h130v-116h-130v-1114l-60 40q-38 86 -97.5 160t-134.5 133t-164 101.5t-185 65.5l-148 162q54 1 111.5 10t113 25.5t105.5 40.5t87.5 54.5t59.5 67t22 79.5q0 42 -21 75t-53.5 55t-72 33.5
t-77.5 11.5q-58 0 -107 -21.5t-91 -78.5q10 4 23 10t26 11t24.5 9t19.5 4q42 0 66.5 -15t38 -35.5t17.5 -40.5t4 -30q0 -25 -11.5 -46t-29.5 -36.5t-41 -24.5t-46 -9q-33 0 -58.5 14.5t-43 37.5t-27 52.5t-9.5 59.5q0 62 23.5 109.5t61 80t85 49t94.5 16.5q64 0 114.5 -25.5
t85 -67.5t52.5 -95.5t18 -108.5q0 -65 -15.5 -118.5t-47 -98.5t-79 -83.5t-110.5 -71.5z" />
    <glyph glyph-name="bn_cha" unicode="&#x99b;" horiz-adv-x="1031" 
d="M521 949q23 0 50.5 3.5t55.5 7t54.5 7t47.5 3.5q36 0 73.5 -10.5t67.5 -35t49.5 -66t19.5 -103.5q0 -93 -35 -174.5t-97.5 -146t-147 -109.5t-183.5 -66q51 -12 112.5 -33t126.5 -55.5t129 -84t120 -117.5v-70q-80 72 -175.5 120.5t-192.5 80t-188.5 49.5t-163.5 30
l-112 207q32 -11 64 -15.5t65 -4.5q118 0 220 39t177.5 101.5t118.5 140.5t43 156q0 22 -9.5 36t-23 21t-29 9.5t-27.5 2.5q-29 0 -58.5 -9t-52.5 -15q-6 -83 -39.5 -144t-81 -101t-103 -59t-105.5 -19q-37 0 -68.5 12t-54 37.5t-35.5 66t-13 96.5v377h-120v116h1041v-116
h-797q21 -35 53.5 -65t70 -52t77.5 -35t76 -13zM244 737q6 -40 19 -57.5t45 -17.5q28 0 60.5 8.5t61.5 29.5t50.5 55.5t26.5 86.5q-21 0 -57 9t-74.5 28.5t-74 50t-57.5 73.5v-266z" />
    <glyph glyph-name="bn_ja" unicode="&#x99c;" horiz-adv-x="1245" 
d="M1256 1114h-571q5 -33 26.5 -62t53.5 -51t72.5 -34.5t83.5 -12.5q35 0 70.5 9.5t68.5 29.5l154 -166q-33 -29 -61.5 -75.5t-49 -106.5t-32.5 -131.5t-12 -150.5q0 -86 16 -177.5t51 -185.5q-1 0 -18 6t-37.5 13.5t-37.5 13.5l-17 6q-17 64 -32 121.5t-25.5 111t-16.5 104
t-6 100.5q0 82 18 167.5t59 186.5q-45 -12 -94 -12q-57 0 -114.5 16t-108.5 45t-92.5 70t-66.5 91q-15 -10 -37 -29t-46.5 -43.5t-49 -52.5t-44 -55t-31.5 -51.5t-12 -42.5q0 -43 24 -60.5t60 -17.5q33 0 72 11.5t75 28t65 35t43 32.5q42 -24 72.5 -56t51 -68.5t30 -77
t9.5 -80.5q0 -60 -20.5 -117t-59.5 -101.5t-95 -71.5t-128 -27q-97 0 -171 35.5t-129 94t-92.5 134t-60 156.5t-32.5 161.5t-10 148.5v29l61 -44q1 -117 30.5 -219t84 -177t131.5 -118.5t172 -43.5q35 0 79 13.5t83 38t65.5 58t26.5 74.5q0 23 -10.5 48t-33.5 51
q-21 -11 -48 -24.5t-55.5 -25.5t-58.5 -20t-57 -8q-72 0 -120 15.5t-77 45t-41 71t-12 93.5q0 66 15.5 121t36.5 97t43.5 71t36.5 42h-373v116h1256v-116z" />
    <glyph glyph-name="bn_ttha" unicode="&#x9a0;" horiz-adv-x="902" 
d="M912 1230v-116h-401q49 -67 97.5 -140.5t87 -149t62.5 -151t24 -147.5q0 -84 -23.5 -162t-71 -137t-119 -94.5t-167.5 -35.5q-83 0 -152.5 27t-119.5 74.5t-78.5 112t-28.5 138.5q0 59 16 106q67 21 124.5 61.5t98.5 96.5t64.5 124.5t23.5 144.5q0 69 -24 132h-325v116
h321q-34 46 -63.5 93t-51.5 93.5t-34.5 93.5t-12.5 95q0 64 26 128.5t87 131.5l130 -96q-56 -54 -80 -108.5t-24 -111.5q0 -77 37.5 -157t93.5 -162h483zM475 898q0 -77 -22 -147.5t-63.5 -130t-102 -105t-137.5 -72.5q0 -98 62 -155.5t179 -57.5q65 0 117.5 22.5t89 63.5
t56 97t19.5 124q0 61 -19 128.5t-50 133t-69 125.5t-76 108q6 -27 9 -45.5t4.5 -32.5t2 -27t0.5 -29z" />
    <glyph glyph-name="bn_zero" unicode="&#x9e6;" horiz-adv-x="961" 
d="M20 566q0 93 30.5 170.5t86 133t133 86.5t170.5 31t170.5 -31t133 -86.5t86.5 -133t31 -170.5t-31 -170.5t-86.5 -133t-133 -86t-170.5 -30.5t-170.5 30.5t-133 86t-86 133t-30.5 170.5zM511 891q-84 0 -154 -32t-120 -86.5t-77.5 -126t-27.5 -149.5q0 -59 21 -106
t55 -80t77 -51t86 -18q85 0 154.5 33.5t119 88.5t76.5 126t27 147q0 58 -21 105t-55 80t-76.5 51t-84.5 18z" />
    <glyph glyph-name="bn_one" unicode="&#x9e7;" horiz-adv-x="688" 
d="M235 40q-50 0 -89.5 16t-67.5 42t-43 57.5t-15 63.5q0 40 12.5 72t35.5 54t54.5 33.5t69.5 11.5q31 0 59.5 -12t51 -33.5t36 -51t13.5 -64.5q0 -17 -3.5 -35t-11.5 -38q52 46 74.5 93.5t22.5 95.5q0 62 -31 126t-77 127t-100 125.5t-100 122.5t-77 117.5t-31 110.5
q0 26 8.5 51t24 44t37.5 30.5t48 11.5q22 0 39.5 -8.5t29.5 -22t18.5 -30.5t6.5 -35q0 -16 -7 -31.5t-19.5 -28t-31 -20t-42.5 -7.5q-14 0 -30 3q42 -41 94.5 -85t106.5 -91.5t105.5 -100.5t92 -112.5t65 -126.5t24.5 -143q0 -77 -28.5 -138.5t-76.5 -104.5t-112 -66
t-136 -23z" />
    <glyph glyph-name="bn_two" unicode="&#x9e8;" horiz-adv-x="906" 
d="M18 589q17 -7 35.5 -14.5t38.5 -16.5q35 -8 70.5 -20t71.5 -22.5t73.5 -18t76.5 -7.5q28 0 59.5 12.5t58.5 32t44.5 43.5t17.5 48q0 48 -30.5 88t-77 74.5t-100 65t-100 60.5t-77 61.5t-30.5 67.5q0 51 26.5 79t77.5 28q16 0 32 -6.5t29.5 -17.5t22 -26t8.5 -32
q0 -22 -16.5 -46.5t-58.5 -48.5q44 -23 95.5 -42.5t102.5 -39.5t98 -43.5t83.5 -53.5t58 -68.5t21.5 -89.5q0 -65 -26 -106.5t-67.5 -65t-94 -32.5t-105.5 -9q-23 0 -45.5 1.5t-43.5 3.5q70 -40 138 -83t129.5 -86t113.5 -85t89 -79l27 -95q-105 86 -216.5 153t-214.5 116
t-189 81.5t-140 50.5z" />
    <glyph glyph-name="bn_three" unicode="&#x9e9;" horiz-adv-x="1189" 
d="M642 146q-102 0 -184 42t-146 112t-112.5 159.5t-83.5 184t-58 187t-36 167.5l58 -27q20 -74 46 -152.5t60 -153.5t77.5 -142t99.5 -117.5t124.5 -80t153.5 -29.5q76 0 136 32t102 81.5t64.5 109t22.5 114.5q0 62 -9.5 119t-33.5 106t-66 87t-107 61q14 -18 29 -45.5
t15 -57.5q0 -27 -13.5 -49.5t-35.5 -38.5t-48.5 -25t-51.5 -9q-24 0 -52 9.5t-52 28t-40 46.5t-16 65q0 34 15 62.5t41 49.5t60 32.5t73 11.5q96 0 172.5 -38.5t130.5 -103t83 -148t29 -173.5q0 -82 -20 -149t-54 -120t-79 -92t-94.5 -65t-101 -38.5t-98.5 -12.5z" />
    <glyph glyph-name="bn_four" unicode="&#x9ea;" horiz-adv-x="875" 
d="M775 356q0 -75 -38.5 -130t-99.5 -90.5t-135 -52.5t-146 -17q-68 0 -128.5 20t-106 57.5t-72 90.5t-26.5 118q0 46 19.5 82.5t52.5 67t76 56t91 49.5q-42 20 -79.5 43.5t-65 54t-44 69t-16.5 88.5q0 76 37.5 135t97.5 99t134 60.5t147 20.5q51 0 99 -19t85 -53.5
t59.5 -82t22.5 -104.5q0 -47 -19.5 -83.5t-52 -67t-74.5 -56.5t-88 -50q51 -22 100 -47t86.5 -60.5t60.5 -83t23 -114.5zM190 335q0 -39 19 -74t49.5 -61.5t68 -41.5t74.5 -15q52 0 94.5 15t72.5 41.5t46.5 63t16.5 78.5q0 43 -22 75.5t-58 58t-82.5 46t-96.5 40.5l-27 11
q-33 -22 -61.5 -46.5t-49 -53t-32.5 -62.5t-12 -75zM608 905q0 43 -14 81t-39.5 66.5t-61.5 45t-79 16.5q-38 0 -76.5 -14.5t-69 -39.5t-49.5 -58t-19 -70q0 -50 19 -86.5t51 -64.5t74 -49.5t88 -40.5q37 20 69 42.5t56 48.5t37.5 56.5t13.5 66.5z" />
    <glyph glyph-name="bn_five" unicode="&#x9eb;" horiz-adv-x="977" 
d="M773 103q-83 -39 -194 -39q-94 0 -172 19t-140 53t-108 80.5t-77 101.5t-46 116t-15 124q0 98 38.5 193t106.5 177.5t162.5 147.5t205.5 102l151 -118q-35 -9 -69.5 -21.5t-67.5 -27.5q3 -20 10.5 -42t22.5 -44t38 -42t55 -35q73 50 158 86q1 -1 15.5 -19t31.5 -40
l46 -58q-99 -53 -170.5 -106t-118 -110t-68.5 -120t-22 -135q0 -43 12.5 -80.5t39.5 -68.5t70 -55t105 -39zM601 791q-33 9 -58 26.5t-43 40t-29 49t-16 53.5q-58 -37 -107 -84t-84.5 -101.5t-55.5 -116.5t-20 -130q0 -71 30.5 -139.5t80.5 -123t115.5 -88t136.5 -33.5
q-38 33 -62 69t-37.5 73.5t-18.5 75.5t-5 74q0 106 46.5 195t126.5 160z" />
    <glyph glyph-name="bn_six" unicode="&#x9ec;" horiz-adv-x="1106" 
d="M21 880l64 -38q5 -71 20.5 -143t43 -139t67 -126t92.5 -102.5t120.5 -68.5t150.5 -25q61 0 123.5 23t112 62.5t81 93t31.5 114.5q0 18 -2.5 39.5t-8.5 43.5t-17 44t-29 41q-32 -61 -72.5 -108t-82.5 -79t-83.5 -48.5t-75.5 -16.5q-48 0 -82.5 15.5t-56.5 43t-32 64.5
t-10 79q0 39 10.5 85.5t27 92.5t36 87t38.5 70l-3 -2q-12 -9 -27 -17.5t-35 -8.5q-19 0 -39.5 5.5t-37 18.5t-27 33.5t-10.5 50.5q0 22 8.5 42t23 35t34 23.5t42.5 8.5q72 0 105.5 -47.5t33.5 -146.5q-8 -97 -13 -165.5t-5 -101.5q0 -50 10.5 -72.5t33.5 -22.5q15 0 42 16
t59 47t64.5 76.5t58.5 105.5q52 -39 89.5 -84.5t62 -95t36 -100.5t11.5 -100q0 -95 -37.5 -169.5t-97 -125.5t-133 -78t-146.5 -27q-122 0 -221 44.5t-172 141t-118 248t-58 364.5z" />
    <glyph glyph-name="bn_seven" unicode="&#x9ed;" horiz-adv-x="907" 
d="M242 573q-55 0 -96.5 22.5t-69 58t-41.5 78t-14 83.5q0 74 23 138.5t63 112t93.5 75t113.5 27.5q61 0 112.5 -19.5t93 -53t73.5 -78t53 -94.5t32 -103t11 -102q0 -23 -2 -60.5t-8 -96t-16.5 -142t-26.5 -198.5q17 13 40 19.5t40 6.5q21 0 39 -8t31 -21.5t20.5 -31
t7.5 -36.5q0 -48 -26 -74t-77 -26q-41 0 -73 33.5t-53.5 92t-32.5 139t-11 173.5v85q-37 7 -66.5 9.5t-55.5 2.5t-47.5 -2t-42.5 -4l-42 -4t-45 -2zM543 717q0 168 -39 256.5t-109 88.5q-46 0 -97 -25.5t-94 -65t-71 -86.5t-28 -89q0 -26 9.5 -41.5t24.5 -23.5t33.5 -11
t36.5 -3q26 0 50 1.5l48 3t48.5 3t53.5 1.5t61.5 -2t72.5 -7z" />
    <glyph glyph-name="bn_eight" unicode="&#x9ee;" horiz-adv-x="1029" 
d="M719 468q0 -45 -17.5 -92t-47.5 -90.5t-69.5 -82.5t-84 -67.5t-90.5 -45.5t-89 -17q-60 0 -100.5 32.5t-65.5 87t-35.5 125.5t-10.5 148q0 78 9 157t23 148t31.5 123.5t34.5 83.5q-22 -11 -43.5 -16.5t-41.5 -5.5q-44 0 -73 24.5t-29 71.5q0 27 10.5 46t27 31.5t36 18.5
t37.5 6q48 0 74.5 -24t39 -63t15.5 -87.5t3 -97.5q0 -58 -4.5 -109t-6.5 -81q15 25 39.5 47.5t53 38.5t58.5 25.5t58 9.5q42 0 82.5 -31.5t74.5 -78.5q21 32 54 44t64 12q15 0 31 -1t32 -1q18 0 36.5 2.5t35 9.5t31 20.5t25.5 36.5q12 -15 18 -35t6 -42q0 -50 -13 -77
t-35 -39.5t-49.5 -15.5t-57 -4.5t-58 -7t-51.5 -23.5q15 -34 23.5 -64t8.5 -50zM578 589q-1 38 -31 55.5t-75 17.5q-27 0 -57 -6t-59.5 -16.5t-57 -25.5t-49.5 -34q-3 -30 -5 -64.5t-2 -70.5q0 -52 2.5 -97.5t8.5 -79t16.5 -52.5t27.5 -19q28 0 60 16t63 44t59.5 65.5
t50.5 80.5t35 89t13 92v5z" />
    <glyph glyph-name="bn_rupeesign" unicode="&#x9f3;" horiz-adv-x="1007" 
d="M23 806v124h234v5q0 54 -23 92t-66 38q-17 0 -37.5 -4t-43.5 -12l-77 162q33 11 63 15.5t58 4.5q121 0 185.5 -73.5t64.5 -227.5h492v-124h-492v-516q0 -23 6.5 -43.5t19.5 -36t31 -25t42 -9.5q35 0 75 13t80 36t77 54t65.5 67t45.5 75t17 78q0 5 -2 13
q-34 -35 -66.5 -50.5t-62.5 -15.5q-32 0 -59 12t-46.5 32t-31 47t-11.5 56q0 33 11.5 62t32 51t47.5 35t59 13q58 0 95.5 -26t59.5 -65.5t30 -87.5t8 -92q0 -117 -41 -207t-105 -151.5t-141.5 -93t-150.5 -31.5q-11 0 -31 2.5t-43 11t-47 24.5t-43.5 42.5t-32 66.5t-12.5 95
v564h-234z" />
    <glyph glyph-name="bn_nine" unicode="&#x9ef;" horiz-adv-x="987" 
d="M935 394q0 -83 -34.5 -148t-94 -113t-140 -81t-172.5 -52l-44 42q35 17 61 60.5t26 104.5q0 40 -10.5 78t-34.5 67.5t-63 47t-95 17.5q-39 0 -73 -20t-59 -52t-39.5 -71.5t-14.5 -78.5q0 -30 10 -54q15 33 31.5 53t32.5 30.5t30.5 14t25.5 3.5q18 0 36.5 -9t33.5 -25
t25 -36.5t10 -42.5q0 -63 -29 -95.5t-79 -32.5q-51 0 -89 20.5t-62.5 55.5t-36.5 81t-12 98q0 60 18.5 117.5t54 102t86 72t115.5 27.5q76 0 136.5 -29.5t102.5 -78t64.5 -111t22.5 -129.5q0 -27 -3 -54.5t-11 -54.5q24 5 52.5 21t54 41.5t42.5 61t17 79.5q0 43 -32.5 87.5
t-85 89.5t-120.5 91t-138.5 94t-138 98t-120 102t-85 106.5t-32.5 112.5q0 26 8.5 49t24 40.5t38 28t49.5 10.5q46 0 76 -28.5t30 -71.5q0 -27 -15 -47t-36.5 -33t-44.5 -19.5t-39 -6.5q18 -17 61 -39.5t100.5 -50.5t125 -61.5t135 -72.5t130 -83.5t111 -95t77.5 -107.5
t29 -120z" />
    <glyph glyph-name="bn_avagraha" unicode="&#x9bd;" horiz-adv-x="935" 
d="M291 1230v-116q9 -7 24.5 -21.5t29.5 -37.5q73 0 141 -22t121 -63t85 -99.5t32 -132.5q0 -68 -31 -121t-79.5 -90.5t-107.5 -58.5t-114 -24q46 -22 93.5 -44t99.5 -55t109.5 -82.5t123.5 -126.5l52 -135q-90 99 -183.5 169t-188.5 116.5t-190.5 72.5t-191.5 37l-85 236
q17 -2 43.5 -11.5t60 -21t72 -20.5t79.5 -9q40 0 90 14t94 40t74 63.5t30 85.5t-15.5 82t-42 57.5t-62 36.5t-75.5 18q17 -22 23.5 -48t6.5 -46q0 -35 -13.5 -62.5t-36 -47t-51 -30t-59.5 -10.5q-29 0 -57 11t-50 31t-35 49t-13 64q0 34 12.5 61t33.5 47.5t49 34.5t60 22
q-5 15 -20.5 35t-43.5 36h-185v116h291z" />
    <glyph glyph-name="bn_k_ra" horiz-adv-x="1485" 
d="M952 0l-64 40q-33 40 -68 63.5t-73.5 36t-80.5 16t-90 3.5q-60 0 -120 -5t-114 -5q-75 0 -134.5 21t-101 58.5t-63.5 89t-22 112.5q0 41 10 84t31 89l41 -41q-9 -24 -13 -45t-4 -40q0 -51 27 -83t69 -50t93.5 -24t101.5 -6q29 0 58.5 0.5t58.5 0.5q51 0 100.5 -7.5
t93.5 -26t80 -50t60 -80.5v689q0 45 -31 66.5t-85 21.5q-31 0 -80 -4.5t-104.5 -23t-112 -56t-102.5 -102.5q41 42 76 57t70 15t61 -12.5t43.5 -32t26.5 -44.5t9 -49q0 -34 -13 -60t-34.5 -43t-50.5 -26t-61 -9q-41 0 -73.5 14.5t-55 38.5t-34.5 55.5t-12 66.5q0 49 22 94.5
t59 85t86.5 72t103.5 56t110 36.5t107 13q43 0 79.5 -7t63 -28.5t41.5 -61.5t15 -106v-128q24 35 48.5 66t50.5 54.5t54.5 37t59.5 13.5q60 0 108 -25.5t81.5 -69.5t51.5 -102.5t18 -125.5q0 -53 -13 -96.5t-36 -75t-54.5 -48.5t-67.5 -17q-30 0 -56.5 10t-46 27t-30.5 40
t-11 49q0 60 36 95.5t93 38.5q15 0 32.5 -3.5t34 -13t29.5 -27t19 -44.5q8 8 12 25.5t4 35.5q0 45 -19.5 80t-50.5 58.5t-68.5 36t-74.5 12.5q-36 0 -64 -11t-52 -30.5t-45 -46.5t-43 -60v-622zM0 1114v116h1505v-116h-1505z" />
    <glyph glyph-name="bn_kh_ra" horiz-adv-x="1034" 
d="M483 93q50 0 96 -3t86 -15t71.5 -36.5t53.5 -68.5v202q-39 61 -90 116.5t-111.5 100t-128 76t-139.5 45.5l-150 189q33 0 79 8.5t95.5 24.5t98 38.5t87 50t62.5 60.5t24 70q0 58 -22 99t-51 64q-27 -66 -66.5 -105.5t-84 -59.5t-89.5 -26t-83 -6q-45 0 -81.5 11.5t-63 31
t-41 45t-14.5 54.5q0 57 31.5 87.5t91.5 30.5q18 0 37 -7t35 -21t26 -34.5t10 -47.5q0 -5 -3 -19t-9.5 -30.5t-17.5 -32t-27 -23.5h7q37 0 69.5 20.5t60.5 56.5t50.5 85t39.5 106q57 -16 109 -46t91 -72t62.5 -96t23.5 -117q0 -64 -25 -112t-64 -83t-86 -58t-91 -38
q24 -10 55.5 -29.5t65.5 -45t68 -57t65 -66.5t55.5 -71.5t38.5 -73.5v1181l124 -111v-105h130v-116h-130v-1295l-64 40q-47 50 -103.5 67t-116.5 17q-57 0 -114.5 -7.5t-111.5 -7.5q-75 0 -134.5 21t-101 58.5t-63.5 89t-22 112.5q0 41 10 84t31 89l41 -41q-9 -24 -13 -45
t-4 -40q0 -51 27 -83t69 -50t93.5 -24t101.5 -6h44z" />
    <glyph glyph-name="bn_g_ra" horiz-adv-x="944" 
d="M700 814q-52 68 -96 118t-86 83t-86 49t-97 16q-36 0 -67 -10t-54 -28t-36 -43.5t-13 -56.5q0 -4 0.5 -11.5t2.5 -11.5q7 4 20 9.5t30 10t36.5 7.5t37.5 3q46 0 81.5 -15t60 -40.5t37 -59t12.5 -70.5q0 -65 -19.5 -123.5t-45 -104.5t-50.5 -77t-37 -41l-109 105
q58 46 91.5 86.5t51 75t22.5 62t5 46.5q0 44 -22 68t-57 24q-24 0 -54.5 -11t-61 -27t-58 -33.5t-45.5 -30.5q-38 32 -56 78t-18 84q0 58 22.5 110t63 91t97.5 61.5t125 22.5q54 0 104.5 -23.5t98 -62.5t90 -90t79.5 -107v499l124 -111v-105h130v-116h-130v-1295l-64 40
q-47 50 -103.5 67t-116.5 17q-57 0 -114.5 -7.5t-111.5 -7.5q-75 0 -134.5 21t-101 58.5t-63.5 89t-22 112.5q0 41 10 84t31 89l41 -41q-9 -24 -13 -45t-4 -40q0 -51 27 -83t69 -50t93.5 -24t101.5 -6h44q50 0 96 -3t86 -15t71.5 -36.5t53.5 -68.5v844z" />
    <glyph glyph-name="bn_gh_ra" horiz-adv-x="915" 
d="M364 93q50 0 96 -3t86 -15t71.5 -36.5t53.5 -68.5v193q-78 115 -196.5 182.5t-260.5 98.5l-145 149q36 25 77.5 56.5t82.5 66t80 69.5t71 68q-15 -8 -33 -14t-36.5 -11t-36 -7.5t-32.5 -2.5q-45 0 -85 13t-70.5 37t-48.5 58.5t-18 77.5q0 30 13 59.5t38 50.5h-71v116h925
v-116h-130v-1295l-64 40q-47 50 -103.5 67t-116.5 17q-57 0 -114.5 -7.5t-111.5 -7.5q-75 0 -134.5 21t-101 58.5t-63.5 89t-22 112.5q0 41 10 84t31 89l41 -41q-9 -24 -13 -45t-4 -40q0 -51 27 -83t69 -50t93.5 -24t101.5 -6h44zM527 838q-35 -40 -62.5 -68.5t-54.5 -54
t-57.5 -53t-73.5 -66.5q46 -14 100 -42t107 -69.5t101.5 -96t83.5 -122.5v848h-435q-33 -23 -48 -49.5t-15 -60.5q0 -23 10.5 -43t28.5 -35t43 -23.5t54 -8.5q44 0 75.5 10t49.5 26z" />
    <glyph glyph-name="bn_c_ra" horiz-adv-x="951" 
d="M289 341q0 -22 3 -35.5t8.5 -21t13.5 -10.5t17 -3q21 0 53.5 18t69 46.5t73.5 65t67 73.5t48.5 71t18.5 58q0 14 -21 36t-54 49t-74.5 59.5t-83 67.5t-78.5 73t-61 76v-623zM289 1071q45 -54 103 -98.5t118 -83t118 -73t103 -67.5t72.5 -67t27.5 -72v-791l-64 40
q-47 50 -103.5 67t-116.5 17q-57 0 -114.5 -7.5t-111.5 -7.5q-75 0 -134.5 21t-101 58.5t-63.5 89t-22 112.5q0 41 10 84t31 89l41 -41q-9 -24 -13 -45t-4 -40q0 -51 27 -83t69 -50t93.5 -24t101.5 -6h44q50 0 96 -3t86 -15t71.5 -36.5t53.5 -68.5v440q-45 -46 -97.5 -90
t-105 -78t-100.5 -54.5t-82 -20.5q-35 0 -64 11.5t-50 30t-32.5 43.5t-11.5 52v810h-164v116h961v-116h-672v-43z" />
    <glyph glyph-name="bn_ch_ra" horiz-adv-x="1085" 
d="M1095 1230v-116h-779q21 -35 53.5 -65t70 -52t77.5 -35t76 -13q23 0 50.5 3.5t55.5 7t54.5 7t47.5 3.5q36 0 73.5 -10.5t67.5 -35t49.5 -66t19.5 -103.5q0 -93 -35 -174.5t-97.5 -146t-147 -109.5t-183.5 -66q51 -12 112.5 -33t126.5 -55.5t129 -84t120 -117.5v-70
q-39 36 -78 65.5t-77 53.5v-249l-64 40q-47 50 -103.5 67t-116.5 17q-57 0 -114.5 -7.5t-111.5 -7.5q-75 0 -134.5 21t-101 58.5t-63.5 89t-22 112.5q0 41 10 84t31 89l41 -41q-9 -24 -13 -45t-4 -40q0 -51 27 -83t69 -50t93.5 -24t101.5 -6h44q50 0 96 -3t86 -15
t71.5 -36.5t53.5 -68.5v166q-108 48 -216.5 71t-224.5 37l-112 192q32 -11 64 -15.5t65 -4.5q118 0 220 39t177.5 101.5t118.5 140.5t43 156q0 22 -9.5 36t-23 21t-29 9.5t-27.5 2.5q-29 0 -58.5 -9t-52.5 -15q-6 -83 -39.5 -144t-81 -101t-103 -59t-105.5 -19
q-37 0 -68.5 12t-54 37.5t-35.5 66t-13 96.5v377h-192v116h1095zM316 737q6 -40 19 -57.5t45 -17.5q28 0 60.5 8.5t61.5 29.5t50.5 55.5t26.5 86.5q-21 0 -57 9t-74.5 28.5t-74 50t-57.5 73.5v-266z" />
    <glyph glyph-name="bn_j_ra" horiz-adv-x="1245" 
d="M695 93q50 0 96 -3t86 -15t71.5 -36.5t53.5 -68.5v121q-29 109 -47.5 202t-18.5 183q0 82 18 167.5t59 186.5q-45 -12 -94 -12q-57 0 -114.5 16t-108.5 45t-92.5 70t-66.5 91q-15 -10 -37 -29t-46.5 -43.5t-49 -52.5t-44 -55t-31.5 -51.5t-12 -42.5q0 -43 24 -60.5
t60 -17.5q33 0 72 11.5t75 28t65 35t43 32.5q42 -24 72.5 -56t51 -68.5t30 -77t9.5 -80.5q0 -60 -20.5 -117t-59.5 -101.5t-95 -71.5t-128 -27q-97 0 -171 35.5t-129 94t-92.5 134t-60 156.5t-32.5 161.5t-10 148.5v29l61 -44q1 -117 30.5 -219t84 -177t131.5 -118.5
t172 -43.5q35 0 79 13.5t83 38t65.5 58t26.5 74.5q0 23 -10.5 48t-33.5 51q-21 -11 -48 -24.5t-55.5 -25.5t-58.5 -20t-57 -8q-72 0 -120 15.5t-77 45t-41 71t-12 93.5q0 66 15.5 121t36.5 97t43.5 71t36.5 42h-373v116h1256v-116h-571q5 -33 26.5 -62t53.5 -51t72.5 -34.5
t83.5 -12.5q35 0 70.5 9.5t68.5 29.5l154 -166q-33 -29 -61.5 -75.5t-49 -106.5t-32.5 -131.5t-12 -150.5q0 -86 16 -177t51 -185v-182l-64 40q-23 25 -62 41.5t-82.5 26t-85.5 13t-72 3.5q-19 0 -48.5 -1t-64 -3t-71.5 -3.5t-71 -3.5t-62.5 -3t-46.5 -1q-75 0 -134.5 21
t-101 58.5t-63.5 89t-22 112.5q0 41 10 84t31 89l41 -41q-9 -24 -13 -45t-4 -40q0 -51 27 -83t69 -50t93.5 -24t101.5 -6h264z" />
    <glyph glyph-name="bn_tt_ra" horiz-adv-x="971" 
d="M420 93q50 0 96 -3t86 -15t71.5 -36.5t53.5 -68.5v329q-33 -36 -71.5 -63.5t-79 -46t-82 -28t-81.5 -9.5q-11 0 -31 2.5t-43 11t-47 24.5t-43.5 42.5t-32 66.5t-12.5 95v720h-204v116h605q30 16 43.5 35.5t13.5 33.5q0 30 -23 46.5t-60.5 25t-85.5 13t-97.5 10t-97.5 16
t-85.5 31.5t-60.5 55.5t-23 89.5q0 25 13.5 55t44.5 57l36 -28q-25 -21 -30.5 -37.5t-5.5 -30.5q0 -27 25.5 -42.5t67 -24.5t94 -13.5t107.5 -10.5t108 -16t94.5 -29.5t66.5 -50.5t25 -80q0 -18 -6 -33.5t-15 -28.5t-20 -23.5t-21 -19.5h268v-116h-653v-672q0 -23 6.5 -43.5
t19.5 -36t31 -25t42 -9.5q35 0 75 13t80 36t77 54t65.5 67t45.5 75t17 78q0 5 -2 13q-34 -35 -66.5 -50.5t-62.5 -15.5q-32 0 -59 12t-46.5 32t-31 47t-11.5 56q0 33 11.5 62t32 51t47.5 35t59 13q58 0 95.5 -26t59.5 -65.5t30 -87.5t8 -92v-816l-64 40q-47 50 -103.5 67
t-116.5 17q-57 0 -114.5 -7.5t-111.5 -7.5q-75 0 -134.5 21t-101 58.5t-63.5 89t-22 112.5q0 41 10 84t31 89l41 -41q-9 -24 -13 -45t-4 -40q0 -51 27 -83t69 -50t93.5 -24t101.5 -6h44z" />
    <glyph glyph-name="bn_tth_ra" horiz-adv-x="970" 
d="M980 1230v-116h-401q48 -66 96.5 -129t87 -127t63 -132.5t24.5 -145.5v-761l-64 40q-47 50 -103.5 67t-116.5 17q-57 0 -114.5 -7.5t-111.5 -7.5q-75 0 -134.5 21t-101 58.5t-63.5 89t-22 112.5q0 41 10 84t31 89l41 -41q-9 -24 -13 -45t-4 -40q0 -51 27 -83t69 -50
t93.5 -24t101.5 -6h44q50 0 96 -3t86 -15t71.5 -36.5t53.5 -68.5v285q-45 -41 -107 -64t-142 -23q-74 0 -142 27t-121 74.5t-84.5 112t-31.5 138.5q0 59 16 106q67 21 123 53.5t96 77.5t62 101t22 124q0 69 -24 132h-393v116h389q-34 46 -63.5 93t-51.5 93.5t-34.5 93.5
t-12.5 95q0 64 26 128.5t87 131.5l130 -96q-56 -54 -80 -108.5t-24 -111.5q0 -77 37.5 -157t93.5 -162h483zM543 898q0 -71 -33.5 -132t-82.5 -107.5t-103.5 -76.5t-97.5 -39q0 -56 23 -100.5t58.5 -76t78.5 -48.5t83 -17q75 0 126.5 24.5t84 67.5t47 100.5t14.5 122.5
q0 55 -19 109t-50 106.5t-69 102.5t-76 98q6 -27 9 -45.5t4.5 -32.5t2 -27t0.5 -29z" />
    <glyph glyph-name="bn_dd_ra" horiz-adv-x="1156" 
d="M481 93q50 0 96 -3t86 -15t71.5 -36.5t53.5 -68.5v217q-82 -35 -167 -35q-122 0 -225.5 51.5t-182 156.5t-128 263.5t-62.5 371.5l64 -38q5 -71 22.5 -146.5t48 -147.5t74 -136.5t100 -113t126 -77t152.5 -28.5q61 0 123.5 23t112 62.5t81 93t31.5 114.5q0 18 -2.5 39.5
t-8.5 43.5t-17 44t-29 41q-32 -61 -72.5 -108t-82.5 -79t-83.5 -48.5t-75.5 -16.5q-83 0 -116 54t-33 158v385h-438v116h1166v-116h-604v-402q0 -26 21 -26q15 0 46.5 16t69 47.5t74.5 77t63 105.5q52 -39 89.5 -84.5t62 -95t36 -100.5t11.5 -100q0 -91 -34 -162.5
t-89 -122.5v-448l-64 40q-47 50 -103.5 67t-116.5 17q-57 0 -114.5 -7.5t-111.5 -7.5q-75 0 -134.5 21t-101 58.5t-63.5 89t-22 112.5q0 41 10 84t31 89l41 -41q-9 -24 -13 -45t-4 -40q0 -51 27 -83t69 -50t93.5 -24t101.5 -6h44z" />
    <glyph glyph-name="bn_ddh_ra" horiz-adv-x="971" 
d="M420 93q50 0 96 -3t86 -15t71.5 -36.5t53.5 -68.5v329q-33 -36 -71.5 -63.5t-79 -46t-82 -28t-81.5 -9.5q-11 0 -31 2.5t-43 11t-47 24.5t-43.5 42.5t-32 66.5t-12.5 95v720h-204v116h981v-116h-653v-672q0 -23 6.5 -43.5t19.5 -36t31 -25t42 -9.5q35 0 75 13t80 36
t77 54t65.5 67t45.5 75t17 78q0 5 -2 13q-34 -35 -66.5 -50.5t-62.5 -15.5q-32 0 -59 12t-46.5 32t-31 47t-11.5 56q0 33 11.5 62t32 51t47.5 35t59 13q58 0 95.5 -26t59.5 -65.5t30 -87.5t8 -92v-816l-64 40q-47 50 -103.5 67t-116.5 17q-57 0 -114.5 -7.5t-111.5 -7.5
q-75 0 -134.5 21t-101 58.5t-63.5 89t-22 112.5q0 41 10 84t31 89l41 -41q-9 -24 -13 -45t-4 -40q0 -51 27 -83t69 -50t93.5 -24t101.5 -6h44z" />
    <glyph glyph-name="bn_t_ra" horiz-adv-x="1072" 
d="M0 1114v116h1082v-116h-1082zM952 0l-64 40q-33 40 -68 63.5t-73.5 36t-80.5 16t-90 3.5q-60 0 -120 -5t-114 -5q-75 0 -134.5 21t-101 58.5t-63.5 89t-22 112.5q0 41 10 84t31 89l41 -41q-9 -24 -13 -45t-4 -40q0 -51 27 -83t69 -50t93.5 -24t101.5 -6q29 0 58.5 0.5
t58.5 0.5q51 0 100.5 -7.5t93.5 -26t80 -50t60 -80.5v689q0 45 -31 66.5t-85 21.5q-31 0 -80 -4.5t-104.5 -23t-112 -56t-102.5 -102.5q41 42 76 57t70 15t61 -12.5t43.5 -32t26.5 -44.5t9 -49q0 -34 -13 -60t-34.5 -43t-50.5 -26t-61 -9q-41 0 -73.5 14.5t-55 38.5
t-34.5 55.5t-12 66.5q0 49 22 94.5t59 85t86.5 72t103.5 56t110 36.5t107 13q43 0 79.5 -7t63 -28.5t41.5 -61.5t15 -106v-867z" />
    <glyph glyph-name="bn_th_ra" horiz-adv-x="971" 
d="M374 561q40 -18 84.5 -45t90 -63.5t91 -83t87.5 -104.5v1181l124 -111v-105h130v-116h-130v-1295l-64 40q-47 50 -103.5 67t-116.5 17q-57 0 -114.5 -7.5t-111.5 -7.5q-75 0 -134.5 21t-101 58.5t-63.5 89t-22 112.5q0 41 10 84t31 89l41 -41q-9 -24 -13 -45t-4 -40
q0 -51 27 -83t69 -50t93.5 -24t101.5 -6h44q50 0 96 -3t86 -15t71.5 -36.5t53.5 -68.5v185q-44 64 -100.5 118.5t-122.5 98.5t-140.5 76.5t-153.5 51.5l-148 162q54 1 111.5 10t113 25.5t105.5 40.5t87.5 54.5t59.5 67t22 79.5q0 42 -21 75t-53.5 55t-72 33.5t-77.5 11.5
q-58 0 -107 -21.5t-91 -78.5q10 4 23 10t26 11t24.5 9t19.5 4q42 0 66.5 -15t38 -35.5t17.5 -40.5t4 -30q0 -25 -11.5 -46t-29.5 -36.5t-41 -24.5t-46 -9q-33 0 -58.5 14.5t-43 37.5t-27 52.5t-9.5 59.5q0 62 23.5 109.5t61 80t85 49t94.5 16.5q64 0 114.5 -25.5t85 -67.5
t52.5 -95.5t18 -108.5q0 -65 -15.5 -118.5t-47 -98.5t-79 -83.5t-110.5 -71.5z" />
    <glyph glyph-name="bn_d_ra" horiz-adv-x="972" 
d="M419 93q50 0 96 -3t86 -15t71.5 -36.5t53.5 -68.5v307q-11 62 -17.5 122t-6.5 121q0 62 7 124.5t24 128.5q-50 -15 -112 -52t-124 -90.5t-118.5 -122t-95.5 -146.5l-124 159v593h-159v116h982v-116h-699v-491q42 58 99.5 111t121 97t128 76.5t120.5 47.5l166 -122
q-62 -124 -86 -238.5t-24 -229.5q0 -47 3 -90t8 -87t13 -90t18 -98v-181l-64 40q-47 50 -103.5 67t-116.5 17q-57 0 -114.5 -7.5t-111.5 -7.5q-75 0 -134.5 21t-101 58.5t-63.5 89t-22 112.5q0 41 10 84t31 89l41 -41q-9 -24 -13 -45t-4 -40q0 -51 27 -83t69 -50t93.5 -24
t101.5 -6h44z" />
    <glyph glyph-name="bn_dh_ra" horiz-adv-x="969" 
d="M419 101q50 0 96 -3t86 -15t71.5 -36.5t53.5 -68.5v189q-40 65 -91.5 121t-111.5 100.5t-127.5 76t-138.5 46.5l-154 188q43 39 83 73.5t78 64.5q-32 12 -58.5 34t-46.5 50.5t-31 63t-11 71.5q0 34 12 65.5t33 55.5t50 38.5t62 14.5q28 0 52.5 -10.5t42.5 -28.5
t28.5 -41.5t10.5 -49.5q0 -27 -12 -51t-30.5 -41t-42 -27t-47.5 -10q-21 0 -43.5 9t-42.5 35q7 -26 22 -48t34.5 -38.5t42.5 -27t47 -12.5q94 64 187.5 103t202.5 62v176h254v-116h-130v-1287l-64 40q-47 50 -103.5 67t-116.5 17q-57 0 -114.5 -7.5t-111.5 -7.5
q-75 0 -134.5 21t-101 58.5t-63.5 89t-22 112.5q0 41 10 84t31 89l41 -41q-9 -24 -13 -45t-4 -40q0 -51 27 -83t69 -50t93.5 -24t101.5 -6h44zM726 903q-69 -8 -134 -34.5t-121 -62.5t-100.5 -76t-72.5 -74q42 -18 99.5 -52t117.5 -83.5t116 -113t95 -141.5v637z" />
    <glyph glyph-name="bn_n_ra" horiz-adv-x="972" 
d="M728 463q-35 79 -85 147t-107 118t-116.5 79t-113.5 29q32 -20 52 -56t20 -84q0 -26 -12 -53t-33.5 -49t-51.5 -35.5t-65 -13.5q-31 0 -63.5 10.5t-59.5 34t-44.5 59.5t-17.5 87q0 55 22.5 98t58.5 72t82 44t93 15q58 0 109.5 -16t95.5 -43t81.5 -62t67 -73.5t51.5 -78
t36 -74.5v496h-728v116h982v-116h-130v-1295l-64 40q-47 50 -103.5 67t-116.5 17q-57 0 -114.5 -7.5t-111.5 -7.5q-75 0 -134.5 21t-101 58.5t-63.5 89t-22 112.5q0 41 10 84t31 89l41 -41q-9 -24 -13 -45t-4 -40q0 -51 27 -83t69 -50t93.5 -24t101.5 -6h44q50 0 96 -3
t86 -15t71.5 -36.5t53.5 -68.5v493z" />
    <glyph glyph-name="bn_p_ra" horiz-adv-x="1146" 
d="M595 93q50 0 96 -3t86 -15t71.5 -36.5t53.5 -68.5v718l-14 23q-38 60 -75 116t-75 104l-333 -344l-125 60q19 19 34 35l34 36q26 49 26 93q0 52 -33 82.5t-82 30.5q-23 0 -49 -7.5t-52 -24.5q1 0 -20 8.5t-46.5 19t-46.5 19.5t-21 10q33 59 76.5 110t93.5 89t107 60
t117 22q90 0 156 -30t121 -85t104 -132t103 -171v634l124 -111v-105h130v-116h-130v-1295l-64 40q-47 50 -103.5 67t-116.5 17q-57 0 -114.5 -7.5t-111.5 -7.5q-75 0 -134.5 21t-101 58.5t-63.5 89t-22 112.5q0 41 10 84t31 89l41 -41q-9 -24 -13 -45t-4 -40q0 -51 27 -83
t69 -50t93.5 -24t101.5 -6h44zM458 1114q-43 0 -80 -14.5t-66.5 -34.5t-49 -41t-27.5 -34q25 6 49 6q34 0 62 -11.5t48.5 -31t32 -45.5t11.5 -56q0 -16 -5 -38l215 215q-45 40 -91.5 62.5t-98.5 22.5z" />
    <glyph glyph-name="bn_ph_ra" horiz-adv-x="1370" 
d="M376 93q50 0 96 -3t86 -15t71.5 -36.5t53.5 -68.5v171q-55 74 -116 123t-124 81t-125 50.5t-119 32.5l-144 171q31 37 71 78t88.5 80.5t105.5 76t123 65.5q-63 58 -119.5 93t-110 56.5t-106 35.5t-106.5 30l-59 116h1438v-116h-1064q36 -21 76.5 -59t78.5 -83t69.5 -93
t49.5 -88q-50 -19 -99 -46t-94 -58t-85 -64.5t-70 -65.5q61 -21 114.5 -44t106 -55.5t106 -78.5t114.5 -113v683h124q88 0 168.5 -31t141.5 -86.5t97 -132.5t36 -169q0 -54 -14.5 -96.5t-39.5 -72t-58.5 -45.5t-71.5 -16q-29 0 -54 10.5t-43.5 29t-29.5 42.5t-11 51
q0 57 38 92t98 35q13 0 30 -4t33.5 -14.5t29.5 -28.5t18 -47q9 9 14 27.5t5 33.5q0 72 -37.5 123.5t-95 84.5t-125.5 48.5t-129 15.5v-980l-64 40q-47 50 -103.5 67t-116.5 17q-29 0 -53.5 -2.5t-48.5 -5t-47.5 -5t-50.5 -2.5q-75 0 -134.5 21t-101 58.5t-63.5 89t-22 112.5
q0 41 10 84t31 89l41 -41q-9 -24 -13 -45t-4 -40q0 -51 27 -83t69 -50t93.5 -24t101.5 -6h18z" />
    <glyph glyph-name="bn_b_ra" horiz-adv-x="971" 
d="M420 93q50 0 96 -3t86 -15t71.5 -36.5t53.5 -68.5v197q-40 65 -91.5 121t-111.5 100.5t-127.5 76t-138.5 46.5l-154 188q76 79 148.5 138.5t147 102.5t154.5 71t173 43v60h-727v116h981v-116h-130v-1295l-64 40q-47 50 -103.5 67t-116.5 17q-57 0 -114.5 -7.5
t-111.5 -7.5q-75 0 -134.5 21t-101 58.5t-63.5 89t-22 112.5q0 41 10 84t31 89l41 -41q-9 -24 -13 -45t-4 -40q0 -51 27 -83t69 -50t93.5 -24t101.5 -6h44zM727 889q-43 -2 -88 -16.5t-88 -36.5t-83 -48.5t-73 -53t-57 -51t-36 -40.5q44 -17 101.5 -49t116.5 -79t113.5 -109
t93.5 -140v623z" />
    <glyph glyph-name="bn_bh_ra" horiz-adv-x="972" 
d="M728 736q-57 -46 -107 -72t-94.5 -39.5t-83.5 -17t-72 -3.5q-48 0 -90 15t-73.5 42t-50 65t-18.5 84q0 35 12 65t33.5 51.5t50 34t61.5 12.5q31 0 58.5 -11t48.5 -30.5t33 -46t12 -57.5q0 -58 -30.5 -96t-79.5 -57q62 8 114 29t94 49t74 60t55 62.5t36 56t17 41.5h124
v-973l-64 40q-47 50 -103.5 67t-116.5 17q-57 0 -114.5 -7.5t-111.5 -7.5q-75 0 -134.5 21t-101 58.5t-63.5 89t-22 112.5q0 41 10 84t31 89l41 -41q-9 -24 -13 -45t-4 -40q0 -51 27 -83t69 -50t93.5 -24t101.5 -6h44q50 0 96 -3t86 -15t71.5 -36.5t53.5 -68.5v585zM0 1114
v116h982v-116h-982z" />
    <glyph glyph-name="bn_m_ra" horiz-adv-x="1049" 
d="M805 205q-48 84 -122.5 154t-180.5 118q-26 -52 -59.5 -71t-85.5 -19q-21 0 -47.5 8.5t-49.5 27t-39 48.5t-16 72q0 25 8.5 51.5t27 48.5t47 35.5t68.5 13.5q29 0 55.5 -12t42.5 -25q0 92 -38.5 167.5t-102.5 133t-145.5 97.5t-167.5 61l-55 116h1114v-116h-130v-1295
l-64 40q-47 50 -103.5 67t-116.5 17q-57 0 -114.5 -7.5t-111.5 -7.5q-75 0 -134.5 21t-101 58.5t-63.5 89t-22 112.5q0 41 10 84t31 89l41 -41q-9 -24 -13 -45t-4 -40q0 -51 27 -83t69 -50t93.5 -24t101.5 -6h44q50 0 96 -3t86 -15t71.5 -36.5t53.5 -68.5v235zM289 1114
q58 -31 107 -78.5t84 -104t54.5 -118t19.5 -121.5q0 -28 -3 -49t-7 -41q48 -34 117 -92.5t144 -156.5v761h-516z" />
    <glyph glyph-name="bn_sh_ra" horiz-adv-x="1072" 
d="M521 93q50 0 96 -3t86 -15t71.5 -36.5t53.5 -68.5v837q-17 44 -44.5 94t-62.5 92.5t-75 70.5t-80 28q-16 0 -32 -7t-29.5 -19.5t-23.5 -28.5t-14 -34q23 -18 49.5 -42.5t48.5 -53.5t36.5 -61.5t14.5 -67.5q0 -66 -37 -101.5t-92 -35.5q-45 0 -82 30t-69 84
q-10 -24 -27.5 -45t-39 -36.5t-47 -24t-51.5 -8.5q-29 0 -51.5 11t-38.5 29.5t-24.5 42.5t-8.5 50q0 34 15 67.5t39.5 63.5t56 55t64.5 43q-15 42 -36 64.5t-44 33t-46.5 12t-43.5 1.5h-53v116h51q41 0 83.5 -15t79 -42.5t65 -66t40.5 -84.5q23 95 81 151.5t148 56.5
q28 0 58 -15.5t58.5 -40.5t55 -56t48.5 -62.5t37.5 -60t22.5 -48.5v499l124 -111v-105h130v-116h-130v-1295l-64 40q-47 50 -103.5 67t-116.5 17q-57 0 -114.5 -7.5t-111.5 -7.5q-75 0 -134.5 21t-101 58.5t-63.5 89t-22 112.5q0 41 10 84t31 89l41 -41q-9 -24 -13 -45
t-4 -40q0 -51 27 -83t69 -50t93.5 -24t101.5 -6h44z" />
    <glyph glyph-name="bn_ss_ra" horiz-adv-x="927" 
d="M376 93q50 0 96 -3t86 -15t71.5 -36.5t53.5 -68.5v167q-57 75 -118.5 125t-123.5 82t-123.5 51t-118.5 33l-144 171q28 34 66.5 72.5t85 77t100 74.5t111.5 66q-44 38 -87.5 68t-93 56.5t-107 50.5t-129.5 50l-59 116h995v-116h-130v-1295l-64 40q-47 50 -103.5 67
t-116.5 17q-29 0 -53.5 -2.5t-48.5 -5l-48 -5t-51 -2.5q-75 0 -134.5 21t-101 58.5t-63.5 89t-22 112.5q0 41 10 84t31 89l41 -41q-9 -24 -13 -45t-4 -40q0 -51 27 -83t69 -50t93.5 -24t101.5 -6h19zM242 557q61 -21 117.5 -47.5t110.5 -61t107 -79t106 -103.5v339
q-41 48 -76.5 88.5t-67.5 75.5q-43 -20 -85 -45t-80.5 -53t-72 -57t-59.5 -57zM683 1114h-367q32 -19 66.5 -49t69 -66t67.5 -76t63 -80.5t55.5 -79.5t45.5 -72v423z" />
    <glyph glyph-name="bn_s_ra" horiz-adv-x="1091" 
d="M540 93q50 0 96 -3t86 -15t71.5 -36.5t53.5 -68.5v668q-13 21 -30.5 41t-37 35.5t-40 25t-38.5 9.5q-41 0 -73 -26t-60 -65.5t-54 -85.5t-54.5 -85.5t-62.5 -65.5t-77 -26q-54 0 -93 22.5t-68.5 58t-51.5 78t-40 81.5l54 46q8 -20 20.5 -42t28.5 -40t35 -30t40 -12
q30 0 57 19t52.5 49.5t50 68t49.5 74.5q-36 98 -93.5 160t-121 99t-127 56t-112.5 31l-55 116h1156v-116h-130v-1295l-64 40q-47 50 -103.5 67t-116.5 17q-57 0 -114.5 -7.5t-111.5 -7.5q-75 0 -134.5 21t-101 58.5t-63.5 89t-22 112.5q0 41 10 84t31 89l41 -41
q-9 -24 -13 -45t-4 -40q0 -51 27 -83t69 -50t93.5 -24t101.5 -6h44zM644 921q28 0 57 -20t56.5 -48t50.5 -59t39 -53v373h-474q51 -47 85.5 -122t43.5 -159q32 38 66 63t76 25z" />
    <glyph glyph-name="bn_h_ra" horiz-adv-x="953" 
d="M402 93q50 0 96 -3t86 -15t71.5 -36.5t53.5 -68.5v196q-141 108 -285.5 160.5t-289.5 69.5l-85 236q17 -2 43.5 -11.5t60 -21t72 -20.5t79.5 -9q40 0 90 14t94 40t74 63.5t30 85.5t-15.5 82t-42 57.5t-62 36.5t-75.5 18q17 -22 23.5 -48t6.5 -46q0 -35 -13.5 -62.5
t-36 -47t-51 -30t-59.5 -10.5q-29 0 -57 11t-50 31t-35 49t-13 64q0 34 12.5 61t33.5 47.5t49 34.5t60 22q-5 15 -20.5 35t-43.5 36h-203v116h963v-116h-654q9 -7 24.5 -21.5t29.5 -37.5q73 0 141 -22t121 -63t85 -99.5t32 -132.5q0 -68 -31 -121t-79.5 -90.5t-107.5 -58.5
t-114 -24q46 -22 93.5 -44t99.5 -55t109.5 -82.5t123.5 -126.5l52 -135q-14 15 -27.5 29t-27.5 28v-239l-64 40q-47 50 -103.5 67t-116.5 17q-57 0 -114.5 -7.5t-111.5 -7.5q-75 0 -134.5 21t-101 58.5t-63.5 89t-22 112.5q0 41 10 84t31 89l41 -41q-9 -24 -13 -45t-4 -40
q0 -51 27 -83t69 -50t93.5 -24t101.5 -6h44z" />
    <glyph glyph-name="asa_b_ra" horiz-adv-x="955" 
d="M404 93q50 0 96 -3t86 -15t71.5 -36.5t53.5 -68.5v197q-40 65 -91.5 121t-111.5 100.5t-127.5 76t-138.5 46.5l-154 188q76 79 148.5 138.5t147 102.5t154.5 71t173 43v60h-711v116h965v-116h-130v-1295l-64 40q-47 50 -103.5 67t-116.5 17q-57 0 -114.5 -7.5
t-111.5 -7.5q-75 0 -134.5 21t-101 58.5t-63.5 89t-22 112.5q0 41 10 84t31 89l41 -41q-9 -24 -13 -45t-4 -40q0 -51 27 -83t69 -50t93.5 -24t101.5 -6h44zM711 889q-43 -2 -88 -16.5t-88 -36.5t-83 -48.5t-73 -53t-57 -51t-36 -40.5q44 -17 101.5 -49t116.5 -79t113.5 -109
t93.5 -140v623zM583 118q-37 35 -68.5 58.5t-72.5 41.5t-98 33t-145 34l44 132q41 -12 88 -30t95 -47t95 -70.5t89 -99.5z" />
    <glyph glyph-name="bn_k_ss_ra" horiz-adv-x="1572" 
d="M578 93q50 0 96 -3t86 -15t71.5 -36.5t53.5 -68.5v197q-46 79 -104.5 149.5t-130.5 120.5q-17 -46 -52 -76.5t-90 -30.5q-32 0 -59 12t-47.5 32t-32 46.5t-11.5 55.5q0 28 10 54t30 46.5t48.5 33t66.5 12.5q32 0 62 -12.5t59 -31.5q-10 52 -37.5 101t-67.5 87.5t-90 63.5
t-104 31q4 -15 4 -32q0 -27 -11.5 -49.5t-30.5 -38t-44.5 -24.5t-52.5 -9t-52.5 10t-44.5 28.5t-30.5 44t-11.5 56.5q0 37 13.5 64t36 45t50.5 27.5t58 12.5q-27 33 -60 55t-64.5 35t-57 19.5t-37.5 8.5l-55 116h1637v-116h-573v-197q36 15 68.5 27.5t68.5 12.5
q58 0 105.5 -25.5t82 -65t53.5 -87t19 -92.5q0 -33 -10.5 -73t-31.5 -75.5t-54 -59t-78 -23.5q-28 0 -52.5 9t-43 26.5t-29.5 42t-11 55.5q0 21 9 42t25 38.5t38.5 28t49.5 10.5q18 0 38 -4.5t37.5 -16.5t31 -32t19.5 -51q6 14 9 29t3 28q0 45 -12 76t-34.5 50.5t-54 28
t-71.5 8.5q-38 0 -82.5 -14.5t-92.5 -28.5v-962l-64 40q-47 50 -103.5 67t-116.5 17q-57 0 -114.5 -7.5t-111.5 -7.5q-75 0 -134.5 21t-101 58.5t-63.5 89t-22 112.5q0 41 10 84t31 89l41 -41q-9 -24 -13 -45t-4 -40q0 -51 27 -83t69 -50t93.5 -24t101.5 -6h44zM231 1114
q15 -32 29.5 -61.5t21.5 -52.5q86 -12 160 -50t128 -94t84.5 -125t30.5 -141v-19t-2 -19q31 -28 55.5 -51.5t47.5 -51.5t46.5 -65.5t52.5 -93.5v474q-65 2 -117.5 26t-89.5 63t-57 90t-20 108q0 15 1.5 30.5t6.5 32.5h-378zM704 982q0 -29 8.5 -50.5t22 -35t31 -20
t36.5 -6.5q23 0 43.5 2t39.5 5v237h-149q-17 -41 -24.5 -73.5t-7.5 -58.5z" />
    <glyph glyph-name="bn_k_ka" horiz-adv-x="1250" 
d="M174 635l-154 188q63 72 138.5 121.5t152 80.5t150 46t132.5 18v25h-593v116h1260v-116h-543v-25q49 0 101.5 -7t101.5 -22.5t92.5 -40t76.5 -60.5t52 -84t19 -110q0 -54 -13 -90.5t-35 -59.5t-50 -33t-59 -10q-19 0 -37.5 7.5t-33.5 20.5t-24 31t-9 40q0 15 5 32.5
t16.5 33t30 25.5t45.5 10q13 0 26 -3t25.5 -11t22.5 -21.5t17 -35.5q9 9 13 25.5t4 37.5q0 39 -18.5 67t-48.5 47.5t-70 31.5t-83 18.5t-86.5 8.5t-80.5 2v-347q49 0 101.5 -7.5t101.5 -24.5t92.5 -43.5t76.5 -63.5t52 -86t19 -111q0 -54 -13 -90.5t-35 -59.5t-50 -33
t-59 -10q-19 0 -37.5 7.5t-33.5 20.5t-24 31t-9 40q0 15 5 32.5t16.5 33t30 25.5t45.5 10q13 0 26 -3t25.5 -11t22.5 -21.5t17 -35.5q9 9 13 25.5t4 37.5q0 45 -18.5 76t-48.5 52t-70 32.5t-83 17.5t-86.5 7.5t-80.5 1.5v-623l-60 40q-50 76 -99 122t-105 74.5t-123.5 46
t-155.5 36.5l-154 188q42 48 92 86.5t103.5 68.5t107 51.5t103.5 35.5q-50 24 -116.5 38t-135.5 29zM593 442q-54 -5 -101.5 -11.5t-93.5 -21.5t-93 -44t-100 -79q61 -21 113 -43.5t98.5 -49.5t89.5 -62t87 -82v393zM593 592v347q-54 -5 -101.5 -11.5t-93.5 -21.5t-93 -44
t-100 -79q53 -19 100 -37t89 -39.5t80.5 -50t75.5 -68.5q11 2 21.5 2.5t21.5 1.5z" />
    <glyph glyph-name="bn_k_tta" horiz-adv-x="1328" 
d="M739 310q0 -23 4.5 -47t15.5 -44.5t29.5 -33.5t47.5 -13q68 0 128 14.5t104.5 41.5t70 66t25.5 88q0 8 -2 20.5t-7 17.5q-10 -24 -24.5 -38.5t-30.5 -22t-31 -9.5t-25 -2q-21 0 -41 7.5t-35 21.5t-24.5 35t-9.5 47q0 28 11.5 49.5t30.5 36.5t43 23t49 8q41 0 71 -16
t50 -44.5t29.5 -67t9.5 -82.5q0 -78 -22.5 -134t-59 -94.5t-81.5 -61.5t-89.5 -35.5t-85 -16.5t-66.5 -4q-11 0 -31 2.5t-43 11t-47 24.5t-43.5 42.5t-32 66.5t-12.5 95v225q-51 51 -110.5 80.5t-120 44.5t-119.5 19.5t-108 6.5l-127 157q81 91 165.5 146.5t162.5 86
t144.5 41.5t112.5 13v32h-615v116h1016q30 16 43.5 35.5t13.5 33.5q0 30 -23 46.5t-60.5 25t-85.5 13t-97.5 10t-97.5 16t-85.5 31.5t-60.5 55.5t-23 89.5q0 25 13.5 55t44.5 57l36 -28q-25 -21 -30.5 -37.5t-5.5 -30.5q0 -27 25.5 -42.5t67 -24.5t94 -13.5t107.5 -10.5
t108 -16t94.5 -29.5t66.5 -50.5t25 -80q0 -18 -6 -33.5t-15 -28.5t-20 -23.5t-21 -19.5h214v-116h-599v-32q31 0 74 -5t89 -17t91 -33.5t80 -54t57 -78.5t22 -108q0 -54 -13 -90.5t-35 -59.5t-50 -33t-59 -10q-19 0 -37.5 7.5t-33.5 20.5t-24 31t-9 40q0 15 5 32.5t16.5 33
t30 25.5t45.5 10q13 0 26 -3t25.5 -11t22.5 -21.5t17 -35.5q9 9 13 25.5t4 37.5q0 54 -34.5 83.5t-87.5 43.5t-116 17t-119 3v-622zM615 932q-54 -5 -99 -13t-91 -26t-98 -49t-120 -82q108 -11 215 -59t193 -129v358z" />
    <glyph glyph-name="bn_k_tt_ra" horiz-adv-x="1328" 
d="M739 1082q31 0 74 -5t89 -17t91 -33.5t80 -54t57 -78.5t22 -108q0 -54 -13 -90.5t-35 -59.5t-50 -33t-59 -10q-19 0 -37.5 7.5t-33.5 20.5t-24 31t-9 40q0 15 5 32.5t16.5 33t30 25.5t45.5 10q13 0 26 -3t25.5 -11t22.5 -21.5t17 -35.5q9 9 13 25.5t4 37.5
q0 54 -34.5 83.5t-87.5 43.5t-116 17t-119 3v-622q0 -23 4.5 -47t15.5 -44.5t29.5 -33.5t47.5 -13q68 0 128 14.5t104.5 41.5t70 66t25.5 88q0 8 -2 20.5t-7 17.5q-10 -24 -24.5 -38.5t-30.5 -22t-31 -9.5t-25 -2q-21 0 -41 7.5t-35 21.5t-24.5 35t-9.5 47q0 28 11.5 49.5
t30.5 36.5t43 23t49 8q41 0 71 -16t50 -44.5t29.5 -67t9.5 -82.5q0 -69 -17.5 -120t-46.5 -88v-429l-64 40q-40 29 -86 39.5t-96 10.5q-67 0 -134.5 -10.5t-129.5 -10.5q-75 0 -134.5 21t-101 58.5t-63.5 89t-22 112.5q0 41 10 84t31 89l41 -41q-9 -24 -13 -45t-4 -40
q0 -51 27 -83t69 -50t93.5 -24t101.5 -6h44q37 0 71.5 3t66.5 3q27 0 52 -3.5t46 -13.5t39 -27t32 -45v183q-31 -14 -62 -22t-59.5 -13t-52.5 -6.5t-42 -1.5q-11 0 -31 2.5t-43 11t-47 24.5t-43.5 42.5t-32 66.5t-12.5 95v225q-51 51 -110.5 80.5t-120 44.5t-119.5 19.5
t-108 6.5l-127 157q81 91 165.5 146.5t162.5 86t144.5 41.5t112.5 13v32h-615v116h1016q30 16 43.5 35.5t13.5 33.5q0 30 -23 46.5t-60.5 25t-85.5 13t-97.5 10t-97.5 16t-85.5 31.5t-60.5 55.5t-23 89.5q0 25 13.5 55t44.5 57l36 -28q-25 -21 -30.5 -37.5t-5.5 -30.5
q0 -27 25.5 -42.5t67 -24.5t94 -13.5t107.5 -10.5t108 -16t94.5 -29.5t66.5 -50.5t25 -80q0 -18 -6 -33.5t-15 -28.5t-20 -23.5t-21 -19.5h214v-116h-599v-32zM615 932q-54 -5 -99 -13t-91 -26t-98 -49t-120 -82q108 -11 215 -59t193 -129v358z" />
    <glyph glyph-name="bn_k_ta" horiz-adv-x="1698" 
d="M1185 330q0 -91 -31 -154t-84.5 -102t-126 -56.5t-156.5 -17.5q-130 0 -237.5 52t-199.5 170.5t-173 310t-157 470.5l89 -62q33 -95 68 -189.5t77 -181.5t93 -162t115.5 -131t144.5 -87.5t180 -31.5q64 0 116 20.5t89.5 56.5t58 85t20.5 106q0 18 -2 31t-6.5 24t-11 21.5
t-14.5 22.5q-34 -42 -68 -58t-52 -16q-62 0 -96 34t-34 97q0 16 6.5 37.5t21.5 40.5t40 32.5t62 13.5q19 0 34.5 -3.5t30 -12t29.5 -22t33 -32.5q14 18 24.5 38.5t10.5 49.5q0 38 -17 67.5t-44.5 51.5t-63 37t-72 24.5t-71.5 14t-62 4.5q-36 0 -88 -4t-104.5 -23.5
t-97 -61.5t-64.5 -117q38 22 70.5 32.5t55.5 10.5q38 0 63 -14.5t40 -34.5t21.5 -42.5t6.5 -37.5q0 -24 -8.5 -48.5t-25 -44.5t-40.5 -32.5t-55 -12.5q-39 0 -71 17t-54.5 46.5t-34.5 70t-12 88.5q0 97 36 164.5t93.5 110t131 61.5t148.5 19q82 0 154.5 -20t127 -60t86 -100
t31.5 -141q0 -8 -0.5 -14.5t-1.5 -13.5q40 34 83.5 52.5t94.5 18.5q60 0 108.5 -22t83 -62t53 -95.5t18.5 -122.5q0 -53 -13 -96.5t-36 -75t-54.5 -48.5t-67.5 -17q-30 0 -56.5 10t-46 27t-30.5 40t-11 49q0 60 36 95.5t93 38.5q15 0 32.5 -3.5t34 -13t29.5 -27t19 -44.5
q8 8 12 25.5t4 35.5q0 45 -16.5 78.5t-45 55t-67.5 32.5t-84 11q-86 0 -142 -25t-98 -73q45 -51 70 -114t25 -121zM0 1114v116h1708v-116h-1708z" />
    <glyph glyph-name="bn_k_t_ba" horiz-adv-x="1698" 
d="M0 1114v116h1708v-116h-1708zM1186 -261l-60 40q-45 51 -98 87t-108 59.5t-108.5 37t-101.5 20.5l-25 68l25 23q-72 5 -137.5 27.5t-126 67.5t-117 115.5t-109 171.5t-102.5 236.5t-98 310.5l89 -62q33 -95 66.5 -184t72.5 -168t87 -145t110 -113.5t140.5 -74
t178.5 -26.5q49 0 103.5 11.5t100 37t75 66t29.5 97.5q0 20 -9 39t-26 44q-34 -42 -68 -58t-52 -16q-62 0 -96 34t-34 97q0 16 6.5 37.5t21.5 40.5t40 32.5t62 13.5q19 0 34.5 -3.5t30 -12t29.5 -22t33 -32.5q14 18 24.5 38.5t10.5 49.5q0 38 -17 67.5t-44.5 51.5t-63 37
t-72 24.5t-71.5 14t-62 4.5q-36 0 -88 -4t-104.5 -23.5t-97 -61.5t-64.5 -117q38 22 70.5 32.5t55.5 10.5q38 0 63 -14.5t40 -34.5t21.5 -42.5t6.5 -37.5q0 -24 -8.5 -48.5t-25 -44.5t-40.5 -32.5t-55 -12.5q-39 0 -71 17t-54.5 46.5t-34.5 70t-12 88.5q0 97 36 164.5
t93.5 110t131 61.5t148.5 19q82 0 154.5 -20t127 -60t86 -100t31.5 -141q0 -8 -0.5 -14.5t-1.5 -13.5q40 34 83.5 52.5t94.5 18.5q60 0 108.5 -22t83 -62t53 -95.5t18.5 -122.5q0 -53 -13 -96.5t-36 -75t-54.5 -48.5t-67.5 -17q-30 0 -56.5 10t-46 27t-30.5 40t-11 49
q0 60 36 95.5t93 38.5q15 0 32.5 -3.5t34 -13t29.5 -27t19 -44.5q8 8 12 25.5t4 35.5q0 45 -16.5 78.5t-45 55t-67.5 32.5t-84 11q-86 0 -142 -25t-98 -73q45 -51 70.5 -106t25.5 -113q0 -34 -8 -66h8v-541zM867 17q130 -41 195 -130v224q-26 -3 -49.5 -9.5t-47 -17.5
t-47.5 -27t-51 -40z" />
    <glyph glyph-name="bn_k_t_ra" horiz-adv-x="1698" 
d="M551 7q29 0 57 1t54 1q32 0 61 -3t53.5 -13t45.5 -29t36 -50v163q-26 -3 -50 -4t-44 -1q-78 0 -149.5 17.5t-137 59t-126 110.5t-117.5 172.5t-110 244.5t-104 327l89 -62q33 -95 66.5 -184t72.5 -168t87 -145t110 -113.5t140.5 -74t178.5 -26.5q49 0 103.5 11.5t100 37
t75 66t29.5 97.5q0 20 -9 39t-26 44q-34 -42 -68 -58t-52 -16q-62 0 -96 34t-34 97q0 16 6.5 37.5t21.5 40.5t40 32.5t62 13.5q19 0 34.5 -3.5t30 -12t29.5 -22t33 -32.5q14 18 24.5 38.5t10.5 49.5q0 38 -17 67.5t-44.5 51.5t-63 37t-72 24.5t-71.5 14t-62 4.5
q-36 0 -88 -4t-104.5 -23.5t-97 -61.5t-64.5 -117q38 22 70.5 32.5t55.5 10.5q38 0 63 -14.5t40 -34.5t21.5 -42.5t6.5 -37.5q0 -24 -8.5 -48.5t-25 -44.5t-40.5 -32.5t-55 -12.5q-39 0 -71 17t-54.5 46.5t-34.5 70t-12 88.5q0 97 36 164.5t93.5 110t131 61.5t148.5 19
q82 0 154.5 -20t127 -60t86 -100t31.5 -141q0 -8 -0.5 -14.5t-1.5 -13.5q40 34 83.5 52.5t94.5 18.5q60 0 108.5 -22t83 -62t53 -95.5t18.5 -122.5q0 -53 -13 -96.5t-36 -75t-54.5 -48.5t-67.5 -17q-30 0 -56.5 10t-46 27t-30.5 40t-11 49q0 60 36 95.5t93 38.5
q15 0 32.5 -3.5t34 -13t29.5 -27t19 -44.5q8 8 12 25.5t4 35.5q0 45 -16.5 78.5t-45 55t-67.5 32.5t-84 11q-86 0 -142 -25t-98 -73q45 -51 70.5 -106t25.5 -113q0 -53 -16.5 -93.5t-45 -70t-65.5 -49.5t-77 -32v-338l-64 40q-34 36 -73 45.5t-81 9.5q-78 0 -149 -8t-143 -8
q-75 0 -134.5 25.5t-101 68.5t-63.5 99.5t-22 117.5q0 41 10 84t31 89l41 -41q-9 -24 -13 -45t-4 -40q0 -51 27 -88t69 -60t93.5 -34t101.5 -11h44zM0 1114v116h1708v-116h-1708z" />
    <glyph glyph-name="bn_k_na" horiz-adv-x="1250" 
d="M717 0l-57 40q-10 27 -33.5 60t-60 61.5t-86 48t-110.5 19.5q-13 0 -28 -3t-29 -9q31 -6 51 -19.5t32 -31t16.5 -37.5t4.5 -38q0 -27 -10.5 -49.5t-28 -38.5t-38.5 -25t-42 -9q-31 0 -55.5 11t-42 29.5t-26.5 43t-9 52.5q0 45 16 83.5t45 66.5t69 44t87 16q32 0 66 -4.5
t68.5 -19.5t70 -44.5t70.5 -79.5q-34 88 -81 153.5t-107 113.5t-133.5 79t-161.5 50l-154 188q63 72 138.5 128t152 95t150 60.5t132.5 24.5v55h-593v116h1260v-116h-543v-55q74 0 148 -30t133 -85.5t95.5 -134.5t36.5 -177q0 -54 -14.5 -96.5t-39.5 -72t-58.5 -45.5
t-71.5 -16q-29 0 -54 10.5t-43.5 29t-29.5 42.5t-11 51q0 57 38 92t98 35q13 0 30 -4t33.5 -14.5t29.5 -28.5t18 -47q9 9 14 27.5t5 33.5q0 77 -34.5 130.5t-87.5 86.5t-116 48t-119 15v-909zM593 909q-54 -5 -101.5 -18t-93.5 -36t-93 -58.5t-100 -85.5q61 -21 118.5 -50
t107.5 -66.5t91.5 -84t70.5 -104.5v503z" />
    <glyph glyph-name="bn_k_ma" horiz-adv-x="1494" 
d="M1504 1230v-116h-130v-1205l-60 40q-50 102 -113 159.5t-127.5 86t-123 35t-98.5 6.5q-27 0 -59.5 -3t-67.5 -12t-73.5 -24.5t-77.5 -40.5q8 2 19 4t23 3.5t23 2.5t19 1q23 0 46 -10t41 -28.5t29.5 -43.5t11.5 -55q0 -26 -11.5 -48.5t-31 -39t-46 -26t-56.5 -9.5
q-36 0 -66.5 10.5t-52.5 32.5t-34 56t-12 81q0 65 37 115.5t92 85.5q-35 59 -79.5 103.5t-98.5 77.5t-117.5 56t-135.5 38l-154 188q63 72 138.5 128t152 95t150 60.5t132.5 24.5v55h-593v116h1504zM1250 1114h-533v-55q74 0 148 -30t133 -85.5t95.5 -134.5t36.5 -177
q0 -54 -14.5 -96.5t-39.5 -72t-58.5 -45.5t-71.5 -16q-29 0 -54 10.5t-43.5 29t-29.5 42.5t-11 51q0 57 38 92t98 35q13 0 30 -4t33.5 -14.5t29.5 -28.5t18 -47q9 9 14 27.5t5 33.5q0 77 -34.5 130.5t-87.5 86.5t-116 48t-119 15v-569q37 12 72.5 18t66.5 6q75 0 133 -13.5
t104 -40t84 -65t73 -89.5v958zM593 909q-54 -5 -101.5 -18t-93.5 -36t-93 -58.5t-100 -85.5q61 -21 118.5 -50t107.5 -66.5t91.5 -84t70.5 -104.5v503z" />
    <glyph glyph-name="bn_k_la" horiz-adv-x="1442" 
d="M909 -77l-124 80v33q-9 23 -21.5 46.5t-30 43t-40 31.5t-51.5 12q-38 0 -61.5 -19.5t-38 -48.5t-21.5 -64t-12 -66h-50q-9 53 -29.5 90.5t-48 61.5t-60 35t-66.5 11q-25 0 -56 -4t-58.5 -16t-46.5 -35t-19 -62q0 -18 4 -35.5t12 -25.5q6 27 19 44.5t29.5 27t34 13
t32.5 3.5q57 -3 93 -38.5t36 -95.5q0 -26 -11.5 -49t-31 -40t-45.5 -27t-56 -10q-36 0 -67.5 17t-54.5 48.5t-36 75t-13 96.5q0 67 22 115t56.5 79.5t77 46.5t83.5 15q33 0 65.5 -12.5t62 -36.5t53.5 -59.5t39 -80.5q4 33 16.5 67t32 61t45.5 44t57 17q51 0 91.5 -38
t63.5 -110v131q-72 112 -175 175t-244 93l-154 188q63 72 138.5 128t152 95t150 60.5t132.5 24.5v55h-785v116h1452v-116h-543v-55q74 0 148 -30t133 -85.5t95.5 -134.5t36.5 -177q0 -54 -14.5 -96.5t-39.5 -72t-58.5 -45.5t-71.5 -16q-29 0 -54 10.5t-43.5 29t-29.5 42.5
t-11 51q0 57 38 92t98 35q13 0 30 -4t33.5 -14.5t29.5 -28.5t18 -47q9 9 14 27.5t5 33.5q0 77 -34.5 130.5t-87.5 86.5t-116 48t-119 15v-986zM785 909q-54 -5 -101.5 -18t-93.5 -36t-93 -58.5t-100 -85.5q61 -21 118.5 -50t107.5 -66.5t91.5 -84t70.5 -104.5v503z" />
    <glyph glyph-name="bn_k_ssa" horiz-adv-x="1507" 
d="M650 437q-17 -46 -52 -76.5t-90 -30.5q-32 0 -59 12t-47.5 32t-32 46.5t-11.5 55.5q0 28 10 54t30 46.5t48.5 33t66.5 12.5q32 0 62 -12.5t59 -31.5q-10 52 -37.5 101t-67.5 87.5t-90 63.5t-104 31q4 -15 4 -32q0 -27 -11.5 -49.5t-30.5 -38t-44.5 -24.5t-52.5 -9
t-52.5 10t-44.5 28.5t-30.5 44t-11.5 56.5q0 37 13.5 64t36 45t50.5 27.5t58 12.5q-27 33 -60 55t-64.5 35t-57 19.5t-37.5 8.5l-55 116h1572v-116h-508v-197q36 15 68.5 27.5t68.5 12.5q58 0 105.5 -25.5t82 -65t53.5 -87t19 -92.5q0 -33 -10.5 -73t-31.5 -75.5t-54 -59
t-78 -23.5q-28 0 -52.5 9t-43 26.5t-29.5 42t-11 55.5q0 21 9 42t25 38.5t38.5 28t49.5 10.5q18 0 38 -4.5t37.5 -16.5t31 -32t19.5 -51q6 14 9 29t3 28q0 45 -12 76t-34.5 50.5t-54 28t-71.5 8.5q-38 0 -82.5 -14.5t-92.5 -28.5v-781l-57 40q-25 56 -57 112.5t-70 108
t-82 97t-93 79.5zM231 1114q15 -32 29.5 -61.5t21.5 -52.5q86 -12 160 -50t128 -94t84.5 -125t30.5 -141v-19t-2 -19q31 -28 55.5 -51.5t47.5 -51.5t46.5 -65.5t52.5 -93.5v474q-65 2 -117.5 26t-89.5 63t-57 90t-20 108q0 15 1.5 30.5t6.5 32.5h-378zM704 982
q0 -29 8.5 -50.5t22 -35t31 -20t36.5 -6.5q23 0 43.5 2t39.5 5v237h-149q-17 -41 -24.5 -73.5t-7.5 -58.5z" />
    <glyph glyph-name="bn_k_ss_nna" horiz-adv-x="1572" 
d="M1009 -91l-57 41q-8 34 -29.5 67.5t-53 60.5t-72 44t-85.5 17q-13 0 -28 -3t-29 -9q31 -6 51 -19.5t32 -31t16.5 -37.5t4.5 -38q0 -27 -10.5 -49.5t-28 -38.5t-38.5 -25t-42 -9q-31 0 -55.5 11t-42 29.5t-26.5 43t-9 52.5q0 45 19 80.5t51 59.5t73.5 37t86.5 13
q41 0 84 -17t81 -46q-48 88 -111.5 164.5t-140.5 130.5q-17 -46 -52 -76.5t-90 -30.5q-32 0 -59 12t-47.5 32t-32 46.5t-11.5 55.5q0 28 10 54t30 46.5t48.5 33t66.5 12.5q32 0 62 -12.5t59 -31.5q-10 52 -37.5 101t-67.5 87.5t-90 63.5t-104 31q4 -15 4 -32
q0 -27 -11.5 -49.5t-30.5 -38t-44.5 -24.5t-52.5 -9t-52.5 10t-44.5 28.5t-30.5 44t-11.5 56.5q0 37 13.5 64t36 45t50.5 27.5t58 12.5q-27 33 -60 55t-64.5 35t-57 19.5t-37.5 8.5l-55 116h1637v-116h-573v-197q36 15 68.5 27.5t68.5 12.5q58 0 105.5 -25.5t82 -65
t53.5 -87t19 -92.5q0 -33 -10.5 -73t-31.5 -75.5t-54 -59t-78 -23.5q-28 0 -52.5 9t-43 26.5t-29.5 42t-11 55.5q0 21 9 42t25 38.5t38.5 28t49.5 10.5q18 0 38 -4.5t37.5 -16.5t31 -32t19.5 -51q6 14 9 29t3 28q0 45 -12 76t-34.5 50.5t-54 28t-71.5 8.5q-38 0 -82.5 -14.5
t-92.5 -28.5v-872zM231 1114q15 -32 29.5 -61.5t21.5 -52.5q86 -12 160 -50t128 -94t84.5 -125t30.5 -141v-19t-2 -19q31 -28 55.5 -51.5t47.5 -51.5t46.5 -65.5t52.5 -93.5v474q-65 2 -117.5 26t-89.5 63t-57 90t-20 108q0 15 1.5 30.5t6.5 32.5h-378zM704 982
q0 -29 8.5 -50.5t22 -35t31 -20t36.5 -6.5q23 0 43.5 2t39.5 5v237h-149q-17 -41 -24.5 -73.5t-7.5 -58.5z" />
    <glyph glyph-name="bn_k_ss_ma" horiz-adv-x="1694" 
d="M744 156q8 2 19 4t23 3.5t23 2.5t19 1q23 0 46 -10t41 -28.5t29.5 -43.5t11.5 -55q0 -26 -11.5 -48.5t-31 -39t-46 -26t-56.5 -9.5q-36 0 -66.5 10.5t-52.5 32.5t-34 56t-12 81q0 39 14 72.5t37.5 62t55 51.5t66.5 40q-42 45 -83 74t-86 50q-17 -46 -52 -76.5t-90 -30.5
q-32 0 -59 12t-47.5 32t-32 46.5t-11.5 55.5q0 28 10 54t30 46.5t48.5 33t66.5 12.5q32 0 62 -12.5t59 -31.5q-10 52 -37.5 101t-67.5 87.5t-90 63.5t-104 31q4 -15 4 -32q0 -27 -11.5 -49.5t-30.5 -38t-44.5 -24.5t-52.5 -9t-52.5 10t-44.5 28.5t-30.5 44t-11.5 56.5
q0 37 13.5 64t36 45t50.5 27.5t58 12.5q-27 33 -60 55t-64.5 35t-57 19.5t-37.5 8.5l-55 116h1759v-116h-130v-1205l-60 40q-33 68 -73.5 115t-84 77.5t-88 48t-85.5 25.5t-76 9.5t-59 1.5q-31 0 -62 -2t-66.5 -9t-78 -21t-97.5 -38zM1026 364q75 0 136.5 -13t112.5 -37
t94 -59.5t81 -80.5v940h-441v-197q36 15 68.5 27.5t68.5 12.5q58 0 105.5 -25.5t82 -65t53.5 -87t19 -92.5q0 -33 -10.5 -73t-31.5 -75.5t-54 -59t-78 -23.5q-28 0 -52.5 9t-43 26.5t-29.5 42t-11 55.5q0 21 9 42t25 38.5t38.5 28t49.5 10.5q18 0 38 -4.5t37.5 -16.5t31 -32
t19.5 -51q6 14 9 29t3 28q0 45 -12 76t-34.5 50.5t-54 28t-71.5 8.5q-38 0 -82.5 -14.5t-92.5 -28.5v-418q5 1 8.5 1h8.5zM231 1114q15 -32 29.5 -61.5t21.5 -52.5q86 -12 160 -50t128 -94t84.5 -125t30.5 -141v-19t-2 -19q30 -21 53.5 -37.5t46 -36t46.5 -46t56 -68.5v400
q-65 2 -117.5 26t-89.5 63t-57 90t-20 108q0 15 1.5 30.5t6.5 32.5h-378zM704 982q0 -29 8.5 -50.5t22 -35t31 -20t36.5 -6.5q23 0 43.5 2t39.5 5v237h-149q-17 -41 -24.5 -73.5t-7.5 -58.5z" />
    <glyph glyph-name="bn_k_sa" horiz-adv-x="1512" 
d="M1392 -174l-124 80v170q-29 28 -60 54t-64 46.5t-66.5 32.5t-67.5 12q-50 0 -103 -14t-107.5 -35.5t-109.5 -46.5t-107.5 -46.5t-102.5 -35.5t-94 -14q-75 0 -133.5 24.5t-99 66t-62 96.5t-21.5 116q0 41 10 84t31 89l41 -41q-9 -24 -13 -45t-4 -40q0 -51 25.5 -86.5
t66 -57.5t90.5 -32t100 -10q63 0 122.5 20.5t119.5 47.5q-35 73 -81 122.5t-103 83.5t-126.5 56t-150.5 40l-154 188q63 72 138.5 128t152 95t150 60.5t132.5 24.5v55h-617v116h1522v-116h-130v-1288zM959 360q45 0 83 -11t74.5 -33.5t73.5 -55.5t78 -77v931h-527v-55
q74 0 148 -24t133 -72t95.5 -120.5t36.5 -170.5q0 -54 -14.5 -96.5t-39.5 -72t-58.5 -45.5t-71.5 -16q-29 0 -54 10.5t-43.5 29t-29.5 42.5t-11 51q0 57 38 92t98 35q13 0 30 -4t33.5 -14.5t29.5 -28.5t18 -47q9 9 14 27.5t5 33.5q0 77 -34.5 124t-87.5 73t-116 34.5
t-119 8.5v-611q55 25 109.5 43.5t108.5 18.5zM617 909q-54 -5 -101.5 -18t-93.5 -36t-93 -58.5t-100 -85.5q61 -21 118.5 -43t107.5 -51t91.5 -69t70.5 -98v459z" />
    <glyph glyph-name="bn_g_ga" horiz-adv-x="944" 
d="M700 386q-46 65 -89 111.5t-86.5 76t-90 43t-99.5 13.5q-28 0 -58 -7.5t-55 -23t-41.5 -38.5t-16.5 -54v-8t1 -9q6 2 20.5 6t33 7.5t37.5 6t34 2.5q93 0 143 -45.5t50 -119.5q0 -44 -12.5 -79.5t-33 -65.5t-47 -54.5t-54.5 -46.5l-113 99q58 46 91.5 78.5t50.5 56
t22 39.5t5 29q0 23 -23 35t-58 12q-24 0 -52.5 -5t-58 -17t-57 -31.5t-50.5 -48.5q-41 36 -57 79t-16 76q0 58 22 109t61 88t93.5 58.5t120.5 21.5q18 0 41 -5q23 28 28.5 46t5.5 32q0 23 -23 35t-58 12q-24 0 -52.5 -5t-58 -17t-57 -31.5t-50.5 -48.5q-41 36 -57 79t-16 76
q0 58 22 109t61 88t93.5 58.5t120.5 21.5q49 0 101.5 -23.5t102.5 -62.5t96 -90t83 -107v499l124 -111v-105h130v-116h-130v-1114l-124 80v306zM700 836q-46 65 -89 111.5t-86.5 76t-90 43t-99.5 13.5q-28 0 -58 -7.5t-55 -23t-41.5 -38.5t-16.5 -54v-8t1 -9q6 2 20.5 6
t33 7.5t37.5 6t34 2.5q93 0 143 -45.5t50 -119.5q0 -19 -2.5 -36t-7.5 -34q64 -39 122.5 -100t104.5 -130v339z" />
    <glyph glyph-name="bn_g_da" horiz-adv-x="1513" 
d="M700 814q-52 68 -96 118t-86 83t-86 49t-97 16q-36 0 -67 -10t-54 -28t-36 -43.5t-13 -56.5q0 -4 0.5 -11.5t2.5 -11.5q7 4 20 9.5t30 10t36.5 7.5t37.5 3q46 0 81.5 -15t60 -40.5t37 -59t12.5 -70.5q0 -65 -19.5 -123.5t-45 -104.5t-50.5 -77t-37 -41l-109 105
q58 46 91.5 86.5t51 75t22.5 62t5 46.5q0 44 -22 68t-57 24q-24 0 -54.5 -11t-61 -27t-58 -33.5t-45.5 -30.5q-38 32 -56 78t-18 84q0 58 22.5 110t63 91t97.5 61.5t125 22.5q54 0 104.5 -23.5t98 -62.5t90 -90t79.5 -107v283h823v-116h-699v-491q42 58 99.5 111t121 97
t128 76.5t120.5 47.5l166 -122q-62 -124 -86 -238.5t-24 -229.5q0 -47 3 -90t8 -87t13 -90t18 -98l-73 50q-32 128 -53.5 242t-21.5 228q0 62 7 124.5t24 128.5q-50 -15 -112 -52t-124 -90.5t-118.5 -122t-95.5 -146.5l-124 159v293z" />
    <glyph glyph-name="bn_g_dha" horiz-adv-x="1243" 
d="M824 -47l-60 40q-42 56 -91 95t-100 66t-102.5 43t-96.5 26t-82 15.5t-61 10.5l-154 188q129 113 284.5 194.5t338.5 125.5v79q-46 65 -89 111.5t-86.5 76t-90 43t-99.5 13.5q-28 0 -58 -4.5t-55 -16t-41.5 -31.5t-16.5 -51v-8t1 -9q6 2 25.5 11t45.5 18.5t54 17.5t50 8
q29 0 55 -7t45.5 -23t31 -41.5t11.5 -62.5q0 -23 -16.5 -49.5t-41.5 -54t-55 -53.5t-58 -48l-89 84q58 46 91.5 72.5t50.5 42t22 25.5t5 23q0 9 -7 14.5t-17.5 9t-23 5t-22.5 1.5q-49 0 -109 -36.5t-120 -98.5q-41 36 -57 79t-16 76q0 58 22.5 105.5t60 81.5t87.5 52t105 18
q49 0 105 -23.5t110 -62.5t103.5 -90t86.5 -107v499l124 -111v-105h429v-116h-429v-332q63 10 129.5 15t135.5 5l68 -103q-9 -24 -16 -61t-11 -78t-6 -82t-2 -73t2 -73t6.5 -85t12.5 -87.5t20 -79.5l-128 -80q-37 151 -37 306q0 49 5 94.5t16 89.5t27 89.5t39 95.5
q-127 -3 -261 -32v-690zM275 381q41 -9 91 -22t105 -38t113 -66t116 -106v462q-68 -20 -131.5 -45t-118.5 -54.5t-99.5 -62.5t-75.5 -68z" />
    <glyph glyph-name="bn_g_dh_ba" horiz-adv-x="1243" 
d="M764 -221q-45 51 -98 87t-108 59.5t-108.5 37t-101.5 20.5l-24 80q36 35 88.5 74.5t113.5 73.5q-72 25 -137 32t-109 7q-12 0 -23 -0.5t-26 -0.5l-154 188q129 113 284.5 194.5t338.5 125.5v79q-46 65 -89 111.5t-86.5 76t-90 43t-99.5 13.5q-28 0 -58 -4.5t-55 -16
t-41.5 -31.5t-16.5 -51v-8t1 -9q6 2 25.5 11t45.5 18.5t54 17.5t50 8q29 0 55 -7t45.5 -23t31 -41.5t11.5 -62.5q0 -23 -16.5 -49.5t-41.5 -54t-55 -53.5t-58 -48l-89 84q58 46 91.5 72.5t50.5 42t22 25.5t5 23q0 9 -7 14.5t-17.5 9t-23 5t-22.5 1.5q-49 0 -109 -36.5
t-120 -98.5q-41 36 -57 79t-16 76q0 58 22.5 105.5t60 81.5t87.5 52t105 18q49 0 105 -23.5t110 -62.5t103.5 -90t86.5 -107v499l124 -111v-105h429v-116h-429v-332q63 10 129.5 15t135.5 5l68 -103q-9 -24 -16 -61t-11 -78t-6 -82t-2 -73t2 -73t6.5 -85t12.5 -87.5
t20 -79.5l-128 -80q-37 151 -37 306q0 49 5 94.5t16 89.5t27 89.5t39 95.5q-127 -3 -261 -32v-904zM700 284v327q-68 -20 -131.5 -45t-118.5 -54.5t-99.5 -62.5t-75.5 -68q33 -5 72 -14.5t81.5 -24.5t88 -37.5t91.5 -53.5q23 10 46 18.5t46 14.5zM506 29q64 -20 112.5 -58.5
t81.5 -83.5v247q-54 -11 -102 -34t-92 -71z" />
    <glyph glyph-name="bn_g_la" horiz-adv-x="1029" 
d="M785 113q-9 23 -21.5 46.5t-30 43t-40 31.5t-51.5 12q-38 0 -61.5 -19.5t-38 -48.5t-21.5 -64t-12 -66h-50q-9 53 -29.5 90.5t-48 61.5t-60 35t-66.5 11q-25 0 -56 -4t-58.5 -16t-46.5 -35t-19 -62q0 -18 4 -35.5t12 -25.5q6 27 19 44.5t29.5 27t34 13t32.5 3.5
q57 -3 93 -38.5t36 -95.5q0 -26 -11.5 -49t-31 -40t-45.5 -27t-56 -10q-36 0 -67.5 17t-54.5 48.5t-36 75t-13 96.5q0 67 22 115t56.5 79.5t77 46.5t83.5 15q33 0 65.5 -12.5t62 -36.5t53.5 -59.5t39 -80.5q4 33 16.5 67t32 61t45.5 44t57 17q51 0 91.5 -38t63.5 -110v573
q-52 68 -96 118t-86 83t-86 49t-97 16q-36 0 -67 -10t-54 -28t-36 -43.5t-13 -56.5q0 -4 0.5 -11.5t2.5 -11.5q7 4 20 9.5t30 10t36.5 7.5t37.5 3q46 0 81.5 -15t60 -40.5t37 -59t12.5 -70.5q0 -65 -19.5 -123.5t-45 -104.5t-50.5 -77t-37 -41l-109 105q58 46 91.5 86.5
t51 75t22.5 62t5 46.5q0 44 -22 68t-57 24q-24 0 -54.5 -11t-61 -27t-58 -33.5t-45.5 -30.5q-38 32 -56 78t-18 84q0 58 22.5 110t63 91t97.5 61.5t125 22.5q54 0 104.5 -23.5t98 -62.5t90 -90t79.5 -107v499l124 -111v-105h130v-116h-130v-1114l-124 80v33z" />
    <glyph glyph-name="bn_g_na" horiz-adv-x="944" 
d="M764 40q-34 62 -75.5 118.5t-89.5 99t-102.5 68t-114.5 25.5q-20 0 -47.5 -3.5t-56.5 -13t-56 -27.5t-47 -47q16 9 45.5 16.5t57.5 7.5q23 0 46 -9t41 -26t29.5 -41.5t11.5 -56.5q0 -28 -11.5 -51t-31.5 -39.5t-46.5 -25.5t-56.5 -9q-36 0 -66.5 13t-52 37.5t-33.5 59.5
t-12 78q0 58 24 107t63.5 84.5t90.5 55.5t106 20q56 0 105 -23.5t89.5 -57t72.5 -70.5t53 -65v571q-46 65 -89 111.5t-86.5 76t-90 43t-99.5 13.5q-28 0 -58 -7.5t-55 -23t-41.5 -38.5t-16.5 -54v-8t1 -9q6 2 20.5 6t33 7.5t37.5 6t34 2.5q93 0 143 -45.5t50 -119.5
q0 -44 -12.5 -79.5t-33 -65.5t-47 -54.5t-54.5 -46.5l-113 99q58 46 91.5 78.5t50.5 56t22 39.5t5 29q0 23 -23 35t-58 12q-24 0 -52.5 -5t-58 -17t-57 -31.5t-50.5 -48.5q-41 36 -57 79t-16 76q0 58 22 109t61 88t93.5 58.5t120.5 21.5q49 0 101.5 -23.5t102.5 -62.5
t96 -90t83 -107v499l124 -111v-105h130v-116h-130v-1114z" />
    <glyph glyph-name="bn_g_ma" horiz-adv-x="1260" 
d="M824 393q51 -7 97 -48t95 -110v879h-192v-721zM700 814q-52 68 -96 118t-86 83t-86 49t-97 16q-36 0 -67 -10t-54 -28t-36 -43.5t-13 -56.5q0 -4 0.5 -11.5t2.5 -11.5q7 4 20 9.5t30 10t36.5 7.5t37.5 3q46 0 81.5 -15t60 -40.5t37 -59t12.5 -70.5q0 -65 -19.5 -123.5
t-45 -104.5t-50.5 -77t-37 -41l-109 105q58 46 91.5 86.5t51 75t22.5 62t5 46.5q0 44 -22 68t-57 24q-24 0 -54.5 -11t-61 -27t-58 -33.5t-45.5 -30.5q-38 32 -56 78t-18 84q0 58 22.5 110t63 91t97.5 61.5t125 22.5q54 0 104.5 -23.5t98 -62.5t90 -90t79.5 -107v499
l124 -111v-105h446v-116h-130v-1114l-60 40q-51 75 -90 121.5t-69 72.5t-53.5 36.5t-43.5 13.5v-90q0 -42 -11.5 -75t-32 -56t-47 -35t-56.5 -12q-36 0 -67.5 10t-55 31t-36.5 54t-13 80q0 35 12.5 67t37 58t61 45t84.5 28v425z" />
    <glyph glyph-name="bn_gh_na" horiz-adv-x="940" 
d="M760 -125q-34 62 -75.5 118.5t-89.5 99t-102.5 68t-114.5 25.5q-20 0 -47.5 -3.5t-56.5 -13t-56 -27.5t-47 -47q16 9 45.5 16.5t57.5 7.5q23 0 46 -9t41 -26t29.5 -41.5t11.5 -56.5q0 -28 -11.5 -51t-31.5 -39.5t-46.5 -25.5t-56.5 -9q-36 0 -66.5 13t-52 37.5
t-33.5 59.5t-12 78q0 58 24 107t63.5 84.5t90.5 55.5t106 20q56 0 105 -23.5t89.5 -57t72.5 -70.5t53 -65v117q-41 55 -93 94t-111.5 65.5t-123.5 42.5t-129 25l-145 149q36 25 77.5 56.5t82.5 66t80 69.5t71 68q-15 -8 -33 -14t-36.5 -11t-36 -7.5t-32.5 -2.5q-45 0 -85 13
t-70.5 37t-48.5 58.5t-18 77.5q0 30 13 59.5t38 50.5h-96v116h950v-116h-130v-1279zM552 838q-35 -40 -62.5 -68.5t-54.5 -54t-57.5 -53t-73.5 -66.5q46 -11 97 -27.5t103 -46t101 -76.5t91 -120v788h-435q-33 -23 -48 -49.5t-15 -60.5q0 -23 10.5 -43t28.5 -35t43 -23.5
t54 -8.5q44 0 75.5 10t49.5 26z" />
    <glyph glyph-name="bn_ng_ka" horiz-adv-x="1330" 
d="M766 710q49 0 101.5 -7.5t101.5 -24t92.5 -42.5t76.5 -63t52 -85.5t19 -110.5q0 -54 -13 -91t-35 -60.5t-50 -34t-59 -10.5q-19 0 -37.5 7.5t-33.5 20.5t-24 31t-9 40q0 15 5 32.5t16.5 33t30 25.5t45.5 10q13 0 26 -3t25.5 -11t22.5 -21.5t17 -35.5q9 9 13 28t4 34
q0 45 -18 76t-48.5 51.5t-70.5 32.5t-83 17.5t-86.5 7t-80.5 1.5v-558l-62 43q-32 37 -74.5 67t-91.5 53t-101 40t-101.5 28t-95 16.5t-80.5 6.5l-141 172q42 48 93.5 87.5t108 70.5t114.5 53.5t113 38t105 24t89 10.5q0 44 -9.5 89.5t-29.5 83t-51.5 61.5t-75.5 24
q-6 0 -17.5 -1t-19.5 -3q29 -20 48.5 -52.5t19.5 -66.5q0 -67 -39.5 -102t-99.5 -35q-29 0 -56 11t-47 31t-32 49t-12 64q0 33 11 59.5t29.5 46.5t44 34.5t55.5 22.5q-19 47 -51 88h-310v116h1340v-116h-213q27 -23 42 -52.5t15 -55.5q0 -27 -10.5 -52t-31.5 -44t-52 -30.5
t-72 -11.5q-58 0 -107 23.5t-89 59.5t-71 79.5t-53 83.5h-267q12 -17 22 -36t17 -38q55 0 108 -22.5t95 -65t67.5 -103.5t25.5 -139zM642 560q-54 -5 -109.5 -14t-111 -28t-110 -50.5t-107.5 -81.5q55 -10 114 -24.5t116 -36.5t110.5 -54t97.5 -78v367zM809 1114
q12 -17 31.5 -37t44 -37.5t51 -29.5t51.5 -12q35 0 52.5 16t17.5 33q0 20 -18 38t-44 29h-186z" />
    <glyph glyph-name="bn_ng_k_ra" horiz-adv-x="1523" 
d="M837 -31v130q-53 40 -118 69t-131 47.5t-128 28t-107 10.5l-141 156q42 48 93.5 88.5t108 73t114.5 57.5t113 42.5t105 27t89 11.5q0 44 -9.5 89.5t-29.5 83t-51.5 61.5t-75.5 24q-6 0 -17.5 -1t-19.5 -3q29 -20 48.5 -52.5t19.5 -66.5q0 -67 -39.5 -102t-99.5 -35
q-29 0 -56 11t-47 31t-32 49t-12 64q0 33 11 59.5t29.5 46.5t44 34.5t55.5 22.5q-19 47 -51 88h-503v116h1533v-116h-213q27 -23 42 -52.5t15 -55.5q0 -27 -10.5 -52t-31.5 -44t-52 -30.5t-72 -11.5q-58 0 -107 23.5t-89 59.5t-71 79.5t-53 83.5h-267q12 -17 22 -36t17 -38
q55 0 108 -22.5t95 -65t67.5 -103.5t25.5 -139q49 0 101.5 -7.5t101.5 -24t92.5 -42.5t76.5 -63t52 -85.5t19 -110.5q0 -54 -13 -91t-35 -60.5t-50 -34t-59 -10.5q-19 0 -37.5 7.5t-33.5 20.5t-24 31t-9 40q0 15 5 32.5t16.5 33t30 25.5t45.5 10q13 0 26 -3t25.5 -11
t22.5 -21.5t17 -35.5q9 9 13 28t4 34q0 45 -18 76t-49 51.5t-70.5 32.5t-82.5 17.5t-86.5 7t-80.5 1.5v-739l-64 40q-27 31 -59 51.5t-68 31.5t-75 15.5t-79 4.5q-68 0 -135.5 -7t-129.5 -7q-75 0 -134.5 21t-101 58.5t-63.5 89t-22 112.5q0 41 10 84t31 89l41 -41
q-9 -24 -13 -45t-4 -40q0 -51 27 -83t69 -50t93.5 -24t101.5 -6q29 0 58.5 0.5t58.5 0.5q51 0 100.5 -4t93.5 -19t80.5 -44t61.5 -78zM835 560q-54 -5 -109.5 -14t-111 -28t-110 -50.5t-107.5 -81.5q55 -10 114 -24.5t116 -36.5t110.5 -54t97.5 -78v367zM1002 1114
q12 -17 31.5 -37t44 -37.5t51 -29.5t51.5 -12q35 0 52.5 16t17.5 33q0 20 -18 38t-44 29h-186z" />
    <glyph glyph-name="bn_ng_k_ssa" horiz-adv-x="2359" 
d="M1483 437q-17 -46 -52 -76.5t-90 -30.5q-32 0 -59 12t-47.5 32t-32 46.5t-11.5 55.5q0 28 10 54t30 46.5t48.5 33t66.5 12.5q32 0 62 -12.5t59 -31.5q-10 52 -37.5 101t-67.5 87.5t-90 63.5t-104 31q4 -15 4 -32q0 -27 -11.5 -49.5t-30.5 -38t-44.5 -24.5t-52.5 -9
t-52.5 10t-44.5 28.5t-30.5 44t-11.5 56.5q0 37 13.5 64t36 45t50.5 27.5t58 12.5q-20 24 -45 42.5t-53 31.5t-56.5 21.5t-53.5 13.5q6 -18 9.5 -38.5t3.5 -43.5q0 -54 -24.5 -94.5t-66.5 -67.5t-97.5 -40.5t-117.5 -13.5q-23 0 -49.5 4.5t-48.5 9.5q-6 -17 -9 -39.5
t-3 -38.5q0 -29 10 -47t25 -28.5t33 -14.5t34 -4q29 0 49 9.5t34 24.5t23.5 34t18.5 39q76 -35 124 -66.5t74 -62.5t35.5 -63t9.5 -67q0 -48 -17 -86t-44.5 -67.5t-63.5 -51t-74 -35.5t-75.5 -20.5t-68.5 -6.5q-124 0 -221 59t-165.5 158t-109 228.5t-52.5 270.5l54 -42
q20 -112 58 -208t98.5 -166t144.5 -110t197 -40q48 0 94.5 12t82.5 32.5t58 49t22 61.5q0 24 -19 45t-41 29q-26 -45 -52.5 -70.5t-51 -37.5t-45 -15t-35.5 -3q-47 0 -89 22t-73.5 63.5t-50.5 101.5t-19 136q0 30 5 68.5t16.5 79.5t29 82.5t42.5 77.5h-446v116h2369v-116
h-527v-197q36 15 68.5 27.5t68.5 12.5q58 0 105.5 -25.5t82 -65t53.5 -87t19 -92.5q0 -33 -10.5 -73t-31.5 -75.5t-54 -59t-78 -23.5q-28 0 -52.5 9t-43 26.5t-29.5 42t-11 55.5q0 21 9 42t25 38.5t38.5 28t49.5 10.5q18 0 38 -4.5t37.5 -16.5t31 -32t19.5 -51q6 14 9 29
t3 28q0 45 -12 76t-34.5 50.5t-54 28t-71.5 8.5q-38 0 -82.5 -14.5t-92.5 -28.5v-781l-57 40q-25 56 -57 112.5t-70 108t-82 97t-93 79.5zM1027 1114q35 -23 58 -57t30 -57q86 -12 160 -50t128 -94t84.5 -125t30.5 -141v-19t-2 -19q31 -28 55.5 -51.5t47.5 -51.5t46.5 -65.5
t52.5 -93.5v474q-65 2 -117.5 26t-89.5 63t-57 90t-20 108q0 15 1.5 30.5t6.5 32.5h-415zM1537 982q0 -29 8.5 -50.5t22 -35t31 -20t36.5 -6.5q23 0 43.5 2t39.5 5v237h-149q-17 -41 -24.5 -73.5t-7.5 -58.5zM624 918q34 0 64.5 6.5t53 19.5t35.5 32.5t13 44.5q0 18 -8.5 31
t-20.5 21t-26 12t-26 4q-36 0 -66.5 -11.5t-56 -32t-46 -49t-36.5 -61.5q30 -9 60.5 -13t59.5 -4z" />
    <glyph glyph-name="bn_ng_k_ss_ra" horiz-adv-x="2359" 
d="M1407 43q26 0 59 3t68 3q25 0 51.5 -5t51 -14.5t45.5 -24.5t36 -35v199q-47 79 -105.5 149t-129.5 119q-17 -46 -52 -76.5t-90 -30.5q-32 0 -59 12t-47.5 32t-32 46.5t-11.5 55.5q0 28 10 54t30 46.5t48.5 33t66.5 12.5q32 0 62 -12.5t59 -31.5q-10 52 -37.5 101
t-67.5 87.5t-90 63.5t-104 31q4 -15 4 -32q0 -27 -11.5 -49.5t-30.5 -38t-44.5 -24.5t-52.5 -9t-52.5 10t-44.5 28.5t-30.5 44t-11.5 56.5q0 37 13.5 64t36 45t50.5 27.5t58 12.5q-20 24 -45 42.5t-53 31.5t-56.5 21.5t-53.5 13.5q6 -18 9.5 -38.5t3.5 -43.5
q0 -54 -24.5 -94.5t-66.5 -67.5t-97.5 -40.5t-117.5 -13.5q-23 0 -49.5 4.5t-48.5 9.5q-6 -17 -9 -39.5t-3 -38.5q0 -29 10 -47t25 -28.5t33 -14.5t34 -4q29 0 49 9.5t34 24.5t23.5 34t18.5 39q76 -35 124 -66.5t74 -62.5t35.5 -63t9.5 -67q0 -48 -17 -86t-44.5 -67.5
t-63.5 -51t-74 -35.5t-75.5 -20.5t-68.5 -6.5q-124 0 -221 59t-165.5 158t-109 228.5t-52.5 270.5l54 -42q20 -112 58 -208t98.5 -166t144.5 -110t197 -40q48 0 94.5 12t82.5 32.5t58 49t22 61.5q0 24 -19 45t-41 29q-26 -45 -52.5 -70.5t-51 -37.5t-45 -15t-35.5 -3
q-47 0 -89 22t-73.5 63.5t-50.5 101.5t-19 136q0 30 5 68.5t16.5 79.5t29 82.5t42.5 77.5h-446v116h2369v-116h-527v-197q36 15 68.5 27.5t68.5 12.5q58 0 105.5 -25.5t82 -65t53.5 -87t19 -92.5q0 -33 -10.5 -73t-31.5 -75.5t-54 -59t-78 -23.5q-28 0 -52.5 9t-43 26.5
t-29.5 42t-11 55.5q0 21 9 42t25 38.5t38.5 28t49.5 10.5q18 0 38 -4.5t37.5 -16.5t31 -32t19.5 -51q6 14 9 29t3 28q0 45 -12 76t-34.5 50.5t-54 28t-71.5 8.5q-38 0 -82.5 -14.5t-92.5 -28.5v-962l-64 40q-38 29 -76 40t-76 11q-30 0 -59.5 -5t-58 -11t-55 -11t-51.5 -5
q-75 0 -134.5 21t-101 58.5t-63.5 89t-22 112.5q0 41 10 84t31 89l41 -41q-9 -24 -13 -45t-4 -40q0 -51 24 -83t61.5 -50t84 -24t91.5 -6zM1027 1114q35 -23 58 -57t30 -57q86 -12 160 -50t128 -94t84.5 -125t30.5 -141v-19t-2 -19q31 -28 55.5 -51.5t47.5 -51.5t46.5 -65.5
t52.5 -93.5v474q-65 2 -117.5 26t-89.5 63t-57 90t-20 108q0 15 1.5 30.5t6.5 32.5h-415zM1537 982q0 -29 8.5 -50.5t22 -35t31 -20t36.5 -6.5q23 0 43.5 2t39.5 5v237h-149q-17 -41 -24.5 -73.5t-7.5 -58.5zM624 918q34 0 64.5 6.5t53 19.5t35.5 32.5t13 44.5q0 18 -8.5 31
t-20.5 21t-26 12t-26 4q-36 0 -66.5 -11.5t-56 -32t-46 -49t-36.5 -61.5q30 -9 60.5 -13t59.5 -4z" />
    <glyph glyph-name="bn_ng_kha" horiz-adv-x="1706" 
d="M431 765q0 -33 11 -56.5t27.5 -38.5t36 -22.5t37.5 -7.5q40 0 72.5 13t56.5 32.5t40 42t25 42.5q64 -18 110 -38.5t76 -47.5t44 -63.5t14 -86.5q0 -27 -5 -50.5t-14 -45.5q71 13 117.5 70.5t54.5 171.5q55 -8 101.5 -27.5t81 -52t54 -77.5t19.5 -104q0 -56 -28 -102
t-69.5 -80.5t-89.5 -57t-89 -32.5q33 -4 72.5 -11.5t83.5 -24.5t92.5 -47t99.5 -78v1460l124 -111v-105h130v-116h-130v-1295l-60 40q-62 63 -124 99.5t-124.5 55.5t-126 25.5t-128.5 9.5l-123 189q29 0 70 7t85 21t88 34t78.5 45.5t56 56t21.5 66.5q0 39 -20.5 62.5
t-46.5 38.5q-14 -46 -42 -83t-65 -63.5t-80 -40.5t-88 -14q-9 0 -18 0.5t-18 1.5q-31 -36 -73 -62.5t-88.5 -43t-93.5 -24.5t-87 -8q-150 0 -253.5 47.5t-169.5 132.5t-100 203t-46 259l54 -42q20 -112 55.5 -196.5t94.5 -141t144 -85t204 -28.5q65 0 125.5 15.5t107.5 42.5
t75.5 63.5t28.5 79.5q0 12 -6 23.5t-15 20.5t-19.5 15.5t-19.5 8.5q-28 -55 -66 -87.5t-76 -50t-72 -23t-53 -5.5q-53 0 -96 22t-73.5 60.5t-47.5 90.5t-17 113q0 107 43 194.5t115 149.5h-496v116h803q63 0 120 -16t100 -44t68.5 -67.5t25.5 -85.5q0 -57 -30.5 -96
t-82 -62.5t-119 -33.5t-140.5 -10q-66 0 -138 19t-144 49q-32 -58 -32 -118zM811 919q46 0 89 6.5t76.5 18.5t53.5 29.5t20 39.5q0 13 -14 27t-42.5 25t-71 18t-98.5 7q-81 0 -152.5 -29t-125.5 -76q67 -30 134.5 -48t130.5 -18z" />
    <glyph glyph-name="bn_ng_ga" horiz-adv-x="1074" 
d="M236 1114q12 -17 22 -36t17 -38q55 0 102 -25t81 -66t53 -95.5t19 -112.5q0 -74 -11.5 -124.5t-21.5 -75.5q37 49 81 90t89 73t89 56t80 38l130 -135q-30 -60 -50.5 -111.5t-34 -100t-19.5 -98.5t-6 -108q0 -78 10 -160t27 -175l-73 50q-28 110 -45 219.5t-17 215.5
q0 32 2 58t6 50t10 48.5t14 53.5q-21 -10 -53.5 -44.5t-73.5 -80.5t-90 -97.5t-103.5 -94.5t-113 -71.5t-118.5 -28.5q-49 0 -87.5 23t-65.5 58.5t-43 77t-20 78.5l66 39q9 -23 20 -45.5t25.5 -40t33.5 -28.5t43 -11q38 0 70 16.5t58.5 44.5t46.5 65.5t34 78.5t21 84t7 82
q0 44 -9.5 89.5t-29.5 83t-51.5 61.5t-75.5 24q-6 0 -17.5 -1t-19.5 -3q29 -20 48.5 -52.5t19.5 -66.5q0 -67 -39.5 -102t-99.5 -35q-29 0 -56 11t-47 31t-32 49t-12 64q0 33 11 59.5t29.5 46.5t44 34.5t55.5 22.5q-19 47 -51 88h-114v116h1082v-116h-151q27 -23 42 -52.5
t15 -55.5q0 -27 -10.5 -52t-31.5 -44t-52 -30.5t-72 -11.5q-58 0 -107 23.5t-89 59.5t-71 79.5t-53 83.5h-267zM614 1114q12 -17 31.5 -37t44 -37.5t51 -29.5t51.5 -12q35 0 52.5 16t17.5 33q0 20 -18 38t-44 29h-186z" />
    <glyph glyph-name="bn_ng_gha" horiz-adv-x="1835" 
d="M0 1230h1845v-116h-130v-1114l-60 40q-34 88 -86.5 155t-120 116t-147 81.5t-167.5 51.5l-145 149q36 25 77.5 56.5t82.5 66t80 69.5t71 68q-15 -8 -33 -14t-36.5 -11t-36 -7.5t-32.5 -2.5q-45 0 -85 13t-70.5 37t-48.5 58.5t-18 77.5q0 30 13 59.5t38 50.5h-150
q8 -20 12 -42.5t4 -48.5q0 -54 -24.5 -94.5t-66.5 -67.5t-97.5 -40.5t-117.5 -13.5q-23 0 -49.5 4.5t-48.5 9.5q-6 -17 -9 -39.5t-3 -38.5q0 -29 10 -47t25 -28.5t33 -14.5t34 -4q29 0 49 9.5t34 24.5t23.5 34t18.5 39q76 -35 124 -66.5t74 -62.5t35.5 -63t9.5 -67
q0 -48 -17 -86t-44.5 -67.5t-63.5 -51t-74 -35.5t-75.5 -20.5t-68.5 -6.5q-124 0 -221 59t-165.5 158t-109 228.5t-52.5 270.5l54 -42q20 -112 58 -208t98.5 -166t144.5 -110t197 -40q48 0 94.5 12t82.5 32.5t58 49t22 61.5q0 24 -19 45t-41 29q-26 -45 -52.5 -70.5
t-51 -37.5t-45 -15t-35.5 -3q-47 0 -89 22t-73.5 63.5t-50.5 101.5t-19 136q0 30 5 68.5t16.5 79.5t29 82.5t42.5 77.5h-446v116zM1447 838q-35 -40 -62.5 -68.5t-54.5 -54t-57.5 -53t-73.5 -66.5q46 -14 100 -42t107 -69.5t101.5 -96t83.5 -122.5v848h-435
q-33 -23 -48 -49.5t-15 -60.5q0 -23 10.5 -43t28.5 -35t43 -23.5t54 -8.5q44 0 75.5 10t49.5 26zM624 918q34 0 64.5 6.5t53 19.5t35.5 32.5t13 44.5q0 18 -8.5 31t-20.5 21t-26 12t-26 4q-36 0 -66.5 -11.5t-56 -32t-46 -49t-36.5 -61.5q30 -9 60.5 -13t59.5 -4z" />
    <glyph glyph-name="bn_ng_gh_ra" horiz-adv-x="1835" 
d="M1344 93q39 0 76 -9t69 -25t58.5 -39t43.5 -50v193q-78 115 -196.5 182.5t-260.5 98.5l-145 149q36 25 77.5 56.5t82.5 66t80 69.5t71 68q-15 -8 -33 -14t-36.5 -11t-36 -7.5t-32.5 -2.5q-45 0 -85 13t-70.5 37t-48.5 58.5t-18 77.5q0 30 13 59.5t38 50.5h-150
q8 -20 12 -42.5t4 -48.5q0 -54 -24.5 -94.5t-66.5 -67.5t-97.5 -40.5t-117.5 -13.5q-23 0 -49.5 4.5t-48.5 9.5q-6 -17 -9 -39.5t-3 -38.5q0 -29 10 -47t25 -28.5t33 -14.5t34 -4q29 0 49 9.5t34 24.5t23.5 34t18.5 39q76 -35 124 -66.5t74 -62.5t35.5 -63t9.5 -67
q0 -48 -17 -86t-44.5 -67.5t-63.5 -51t-74 -35.5t-75.5 -20.5t-68.5 -6.5q-124 0 -221 59t-165.5 158t-109 228.5t-52.5 270.5l54 -42q20 -112 58 -208t98.5 -166t144.5 -110t197 -40q48 0 94.5 12t82.5 32.5t58 49t22 61.5q0 24 -19 45t-41 29q-26 -45 -52.5 -70.5
t-51 -37.5t-45 -15t-35.5 -3q-47 0 -89 22t-73.5 63.5t-50.5 101.5t-19 136q0 30 5 68.5t16.5 79.5t29 82.5t42.5 77.5h-446v116h1845v-116h-130v-1295l-64 40q-47 50 -102 67t-118 17q-35 0 -55.5 -2.5t-38.5 -5t-38 -5t-52 -2.5q-54 0 -102 21t-83.5 58.5t-56.5 89
t-21 112.5q0 41 10 84t31 89l41 -41q-9 -24 -13 -45t-4 -40q0 -51 27 -83t69 -50t93.5 -24t101.5 -6h4zM1447 838q-35 -40 -62.5 -68.5t-54.5 -54t-57.5 -53t-73.5 -66.5q46 -14 100 -42t107 -69.5t101.5 -96t83.5 -122.5v848h-435q-33 -23 -48 -49.5t-15 -60.5
q0 -23 10.5 -43t28.5 -35t43 -23.5t54 -8.5q44 0 75.5 10t49.5 26zM624 918q34 0 64.5 6.5t53 19.5t35.5 32.5t13 44.5q0 18 -8.5 31t-20.5 21t-26 12t-26 4q-36 0 -66.5 -11.5t-56 -32t-46 -49t-36.5 -61.5q30 -9 60.5 -13t59.5 -4z" />
    <glyph glyph-name="bn_ng_ma" horiz-adv-x="1377" 
d="M0 1230h1387v-116h-130v-1274l-124 80v86q-53 63 -99.5 105t-92 67.5t-92 36t-98.5 10.5q-35 0 -71 -7t-66 -24t-49 -46.5t-19 -74.5q0 -18 4 -35.5t12 -25.5q6 27 19 44.5t29.5 27t34 13t32.5 3.5q57 -3 93 -38.5t36 -95.5q0 -26 -11.5 -49t-31 -40t-45.5 -27t-56 -10
q-36 0 -67.5 17t-54.5 48.5t-36 75t-13 96.5q0 90 35 155q-114 10 -203.5 72.5t-153 160t-101 222t-48.5 259.5l54 -42q20 -112 58 -208t98.5 -166t144.5 -110t197 -40q48 0 94.5 12t82.5 32.5t58 49t22 61.5q0 24 -19 45t-41 29q-26 -45 -52.5 -70.5t-51 -37.5t-45 -15
t-35.5 -3q-47 0 -89 22t-73.5 63.5t-50.5 101.5t-19 136q0 30 5 68.5t16.5 79.5t29 82.5t42.5 77.5h-446v116zM1133 1114h-292q8 -20 12 -42.5t4 -48.5q0 -54 -24.5 -94.5t-66.5 -67.5t-97.5 -40.5t-117.5 -13.5q-23 0 -49.5 4.5t-48.5 9.5q-6 -17 -9 -39.5t-3 -38.5
q0 -29 10 -47t25 -28.5t33 -14.5t34 -4q29 0 49 9.5t34 24.5t23.5 34t18.5 39q76 -35 124 -66.5t74 -62.5t35.5 -63t9.5 -67q0 -48 -17 -86t-45 -68q75 -25 151 -83t133 -143v997zM624 918q34 0 64.5 6.5t53 19.5t35.5 32.5t13 44.5q0 18 -8.5 31t-20.5 21t-26 12t-26 4
q-36 0 -66.5 -11.5t-56 -32t-46 -49t-36.5 -61.5q30 -9 60.5 -13t59.5 -4z" />
    <glyph glyph-name="bn_c_ca" horiz-adv-x="1597" 
d="M245 539q0 -22 3 -35.5t8.5 -21t13.5 -10.5t17 -3q13 0 42.5 12.5t66 33t76 46.5t71.5 53.5t53 54.5t21 48t-20.5 41t-54 39.5t-74.5 39t-82.5 40t-78.5 41.5t-62 44v-423zM935 334q0 -22 3 -35.5t8.5 -21t13.5 -10.5t17 -3q21 0 53.5 18.5t69 48t73.5 66.5t67 75
t48.5 72.5t18.5 58.5q0 14 -21 36t-54 49t-74.5 59.5t-83 67.5t-78.5 73t-61 76v-630zM935 1114v-43q45 -54 103 -99.5t118 -84.5t118 -74t103 -69t72.5 -68.5t27.5 -72.5q0 -33 -27.5 -83.5t-71.5 -106.5t-100 -112.5t-112.5 -101.5t-108.5 -73.5t-89 -28.5q-35 0 -64 11.5
t-50 30t-32.5 43.5t-11.5 52v880h-565v-43q38 -33 92 -61t112.5 -55t116 -54.5t103 -57.5t74 -65t28.5 -78q0 -33 -27.5 -74.5t-71 -84.5t-98.5 -84.5t-109.5 -73.5t-104 -51.5t-82.5 -19.5q-35 0 -64 11.5t-50 30t-32.5 43.5t-11.5 52v665h-120v116h1607v-116h-672z" />
    <glyph glyph-name="bn_c_cha" horiz-adv-x="1735" 
d="M949 737q6 -40 19 -57.5t45 -17.5q28 0 60.5 8.5t61.5 29.5t50.5 55.5t26.5 86.5q-21 0 -57 9t-74.5 28.5t-74 50t-57.5 73.5v-266zM245 539q0 -22 3 -35.5t8.5 -21t13.5 -10.5t17 -3q13 0 42.5 12.5t66 33t76 46.5t71.5 53.5t53 54.5t21 48t-20.5 41t-54 39.5t-74.5 39
t-82.5 40t-78.5 41.5t-62 44v-423zM245 1114v-43q38 -33 92 -61t112.5 -55t116 -54.5t103 -57.5t74 -65t28.5 -78q0 -33 -27.5 -74.5t-71 -84.5t-98.5 -84.5t-109.5 -73.5t-104 -51.5t-82.5 -19.5q-35 0 -64 11.5t-50 30t-32.5 43.5t-11.5 52v665h-120v116h1745v-116h-796
q21 -35 53.5 -65t70 -52t77.5 -35t76 -13q23 0 50.5 3.5t55.5 7t54.5 7t47.5 3.5q36 0 73.5 -10.5t67.5 -35t49.5 -66t19.5 -103.5q0 -93 -35 -174.5t-97.5 -146t-147 -109.5t-183.5 -66q51 -12 112.5 -33t126.5 -55.5t129 -84t120 -117.5v-70q-93 74 -189 125t-189 84.5
t-180 53.5t-162 32l-112 192q32 -11 64 -15.5t65 -4.5q118 0 220 39t177.5 101.5t118.5 140.5t43 156q0 22 -9.5 36t-23 21t-29 9.5t-27.5 2.5q-29 0 -58.5 -9t-52.5 -15q-6 -83 -39.5 -144t-81 -101t-103 -59t-105.5 -19q-37 0 -68.5 12t-54 37.5t-35.5 66t-13 96.5v377
h-580z" />
    <glyph glyph-name="bn_c_ch_ba" horiz-adv-x="1727" 
d="M245 1114v-43q38 -33 92 -61t112.5 -55t116 -54.5t103 -57.5t74 -65t28.5 -78q0 -33 -27.5 -74.5t-71 -84.5t-98.5 -84.5t-109.5 -73.5t-104 -51.5t-82.5 -19.5q-35 0 -64 11.5t-50 30t-32.5 43.5t-11.5 52v665h-120v116h1745v-116h-796q21 -35 53.5 -65t70 -52t77.5 -35
t76 -13q23 0 50.5 3.5t55.5 7t54.5 7t47.5 3.5q36 0 73.5 -10.5t67.5 -35t49.5 -66t19.5 -103.5q0 -93 -35 -174.5t-97.5 -146t-147 -109.5t-183.5 -66q51 -12 112.5 -33t126.5 -55.5t129 -84t120 -117.5v-70q-68 62 -134.5 106t-133.5 76v-392l-60 40q-45 51 -98 87
t-108 59.5t-108.5 37t-101.5 20.5q-8 20 -12 39.5t-12 40.5q38 38 94.5 79.5t122.5 76.5q-42 8 -84 14t-85 11l-112 192q32 -11 64 -15.5t65 -4.5q118 0 220 39t177.5 101.5t118.5 140.5t43 156q0 22 -9.5 36t-23 21t-29 9.5t-27.5 2.5q-29 0 -58.5 -9t-52.5 -15
q-6 -83 -39.5 -144t-81 -101t-103 -59t-105.5 -19q-37 0 -68.5 12t-54 37.5t-35.5 66t-13 96.5v377h-580zM245 539q0 -22 3 -35.5t8.5 -21t13.5 -10.5t17 -3q13 0 42.5 12.5t66 33t76 46.5t71.5 53.5t53 54.5t21 48t-20.5 41t-54 39.5t-74.5 39t-82.5 40t-78.5 41.5t-62 44
v-423zM949 737q6 -40 19 -57.5t45 -17.5q28 0 60.5 8.5t61.5 29.5t50.5 55.5t26.5 86.5q-21 0 -57 9t-74.5 28.5t-74 50t-57.5 73.5v-266zM1083 -21q64 -20 112.5 -58.5t81.5 -83.5v247q-54 -11 -102 -34t-92 -71z" />
    <glyph glyph-name="bn_c_ch_ra" horiz-adv-x="1709" 
d="M245 1114v-43q38 -33 92 -61t112.5 -55t116 -54.5t103 -57.5t74 -65t28.5 -78q0 -33 -27.5 -74.5t-71 -84.5t-98.5 -84.5t-109.5 -73.5t-104 -51.5t-82.5 -19.5q-35 0 -64 11.5t-50 30t-32.5 43.5t-11.5 52v665h-120v116h1745v-116h-796q21 -35 53.5 -65t70 -52t77.5 -35
t76 -13q23 0 50.5 3.5t55.5 7t54.5 7t47.5 3.5q36 0 73.5 -10.5t67.5 -35t49.5 -66t19.5 -103.5q0 -93 -35 -174.5t-97.5 -146t-147 -109.5t-183.5 -66q51 -12 112.5 -33t126.5 -55.5t129 -84t120 -117.5v-70q-47 43 -93 76.5t-92 61.5v-268l-64 40q-47 50 -103.5 67
t-116.5 17q-57 0 -114.5 -7.5t-111.5 -7.5q-75 0 -134.5 21t-101 58.5t-63.5 89t-22 112.5q0 41 10 84t31 89l41 -41q-9 -24 -13 -45t-4 -40q0 -51 27 -83t69 -50t93.5 -24t101.5 -6h44q50 0 96 -3t86 -15t71.5 -36.5t53.5 -68.5v179q-100 42 -201.5 62t-209.5 33l-112 192
q32 -11 64 -15.5t65 -4.5q118 0 220 39t177.5 101.5t118.5 140.5t43 156q0 22 -9.5 36t-23 21t-29 9.5t-27.5 2.5q-29 0 -58.5 -9t-52.5 -15q-6 -83 -39.5 -144t-81 -101t-103 -59t-105.5 -19q-37 0 -68.5 12t-54 37.5t-35.5 66t-13 96.5v377h-580zM245 539q0 -22 3 -35.5
t8.5 -21t13.5 -10.5t17 -3q13 0 42.5 12.5t66 33t76 46.5t71.5 53.5t53 54.5t21 48t-20.5 41t-54 39.5t-74.5 39t-82.5 40t-78.5 41.5t-62 44v-423zM949 737q6 -40 19 -57.5t45 -17.5q28 0 60.5 8.5t61.5 29.5t50.5 55.5t26.5 86.5q-21 0 -57 9t-74.5 28.5t-74 50
t-57.5 73.5v-266z" />
    <glyph glyph-name="bn_c_nya" horiz-adv-x="2045" 
d="M1512 -66l-64 40q-42 32 -95 43t-113 11q-42 0 -85.5 -4t-87 -8.5t-85.5 -8.5t-80 -4q-75 0 -134.5 21t-101 58.5t-63.5 89t-22 112.5q0 41 10 84t31 89l41 -41q-9 -24 -13 -45t-4 -40q0 -51 27 -83t69 -50t93.5 -24t101.5 -6q52 0 111.5 6t117.5 6q35 0 68 -4
t61.5 -14.5t52 -29t40.5 -47.5v920q0 19 -8 34.5t-21 27t-30 17.5t-35 6q-26 0 -61.5 -7t-75.5 -23t-82 -41.5t-81 -62t-71.5 -85.5t-54.5 -112q40 37 85 55t83 18q32 0 55 -13t38 -33t22.5 -43.5t7.5 -43.5q0 -67 -40 -105t-112 -38q-46 0 -80.5 19.5t-57 51t-33.5 71.5
t-11 80q0 72 22 133.5t59 111.5t86.5 89t103.5 65t110 39.5t107 13.5q43 0 79.5 -6.5t63 -30t41.5 -70t15 -126.5v-46q29 55 61.5 93t67 62t70.5 34.5t71 10.5q39 0 77 -15t68.5 -43t49.5 -67.5t19 -88.5q0 -37 -8.5 -68t-22 -55t-29.5 -41.5t-31 -28.5q15 -11 31 -28.5
t29.5 -41.5t22 -55t8.5 -68q0 -49 -19 -88.5t-49.5 -67.5t-68.5 -43t-77 -15q-35 0 -71 10.5t-70.5 34.5t-67 62t-61.5 93v-603zM245 539q0 -22 3 -35.5t8.5 -21t13.5 -10.5t17 -3q13 0 42.5 12.5t66 33t76 46.5t71.5 53.5t53 54.5t21 48t-20.5 41t-54 39.5t-74.5 39
t-82.5 40t-78.5 41.5t-62 44v-423zM245 1114v-43q38 -33 92 -61t112.5 -55t116 -54.5t103 -57.5t74 -65t28.5 -78q0 -33 -27.5 -74.5t-71 -84.5t-98.5 -84.5t-109.5 -73.5t-104 -51.5t-82.5 -19.5q-35 0 -64 11.5t-50 30t-32.5 43.5t-11.5 52v665h-120v116h902v-116h-657z
M1507 744q18 -51 45.5 -96t62 -78t75.5 -52.5t87 -19.5q24 0 47 6t41 19t29 34.5t11 52.5q0 16 -6.5 41t-29.5 49q-26 -34 -53 -43.5t-53 -9.5q-11 0 -27 4.5t-30.5 15.5t-25 29.5t-10.5 47.5t10.5 47.5t25 29.5t30.5 15.5t27 4.5q26 0 53 -9.5t53 -43.5q23 24 29.5 49
t6.5 41q0 31 -11 52.5t-29 34.5t-41 19t-47 6q-46 0 -87 -19.5t-75.5 -52.5t-62 -78t-45.5 -96z" />
    <glyph glyph-name="bn_c_na" horiz-adv-x="907" 
d="M245 341q0 -22 3 -35.5t8.5 -21t13.5 -10.5t17 -3q21 0 53.5 18t69 46.5t73.5 65t67 73.5t48.5 71t18.5 58q0 14 -21 36t-54 49t-74.5 59.5t-83 67.5t-78.5 73t-61 76v-623zM245 1071q45 -54 103 -98.5t118 -83t118 -73t103 -67.5t72.5 -67t27.5 -72v-719l-57 40l-28 83
q-16 25 -38 47.5t-49.5 39.5t-59 27t-65.5 10q-13 0 -28 -3t-29 -9q31 -6 51 -19.5t32 -31t16.5 -37.5t4.5 -38q0 -27 -10.5 -49.5t-28 -38.5t-38.5 -25t-42 -9q-31 0 -55.5 11t-42 29.5t-26.5 43t-9 52.5q0 45 19 80.5t51 59.5t73.5 37t86.5 13q36 0 74.5 -13.5t73.5 -37.5
v257q-45 -46 -97.5 -90t-105 -78t-100.5 -54.5t-82 -20.5q-35 0 -64 11.5t-50 30t-32.5 43.5t-11.5 52v810h-120v116h917v-116h-672v-43z" />
    <glyph glyph-name="bn_j_ja" horiz-adv-x="1853" 
d="M1624 -15q-17 60 -24.5 123.5t-7.5 127.5q0 57 5.5 113.5t16 108t25 97.5t32.5 84q-23 -6 -51 -11.5t-52 -5.5q-57 0 -112 20t-102.5 54.5t-86.5 80t-64 95.5q-15 -10 -36.5 -31.5t-46 -49t-48.5 -58.5t-43 -61.5t-31 -57t-12 -44.5q0 -43 24 -60.5t60 -17.5
q33 0 72 11.5t75 28t65 35t43 32.5q42 -24 72.5 -56t51 -68.5t30 -77t9.5 -80.5q0 -60 -16.5 -117t-54.5 -101.5t-99.5 -71.5t-151.5 -27q-92 0 -159 26.5t-114 73t-75.5 109.5t-42.5 136q-38 -66 -103 -107.5t-156 -41.5q-97 0 -168.5 35.5t-123.5 94t-85.5 134t-53 156.5
t-27 161.5t-7.5 148.5v29l61 -44q1 -117 26 -219t74 -177t121 -118.5t167 -43.5q35 0 79 13.5t83 38t65.5 58t26.5 74.5q0 23 -10.5 48t-33.5 51q-21 -11 -48 -24.5t-55.5 -25.5t-58.5 -20t-57 -8q-72 0 -120 15.5t-77 45t-41 71t-12 93.5q0 66 19.5 121t45.5 97t53.5 71
t44.5 42h-404v116h1863v-116h-1198q5 -33 26.5 -62t53.5 -51t72.5 -34.5t83.5 -12.5q18 0 45.5 2t58.5 7t61.5 14t53.5 24l134 -40q5 -33 39 -69t81 -65.5t100 -49t96 -19.5q35 0 70.5 9.5t68.5 29.5l104 -140q-26 -40 -46.5 -88t-35 -101t-22 -109t-7.5 -113
q0 -55 7.5 -108.5t24.5 -103.5zM1147 145q41 0 89 15.5t89.5 42t69.5 62t28 76.5q0 23 -10.5 48t-33.5 51q-21 -11 -48 -24.5t-55.5 -25.5t-58.5 -20t-57 -8q-72 0 -120 15.5t-77 45t-41 71t-12 93.5q0 38 7.5 72.5t19.5 65t26.5 56.5t29.5 49q-45 -12 -94 -12
q-57 0 -111.5 16t-101.5 45t-85.5 70t-63.5 91q-15 -10 -37 -29t-46.5 -43.5t-49 -52.5t-44 -55t-31.5 -51.5t-12 -42.5q0 -43 24 -60.5t60 -17.5q33 0 72 11.5t75 28t65 35t43 32.5q42 -24 72.5 -56t51 -68.5t30 -77t9.5 -80.5q0 -8 -2 -20t-2 -23v-4q5 -69 24 -119.5
t47 -86.5t62 -58t69 -35t69 -17.5t61 -4.5z" />
    <glyph glyph-name="bn_j_j_ba" horiz-adv-x="2095" 
d="M1975 -146l-60 40q-45 51 -95 87t-101 59.5t-101.5 37t-98.5 20.5l-24 80q28 28 63.5 58t76.5 59t88 54t99 42q0 36 4 77t11.5 79.5t18 71t24.5 52.5q-36 -18 -77 -29.5t-81.5 -18t-77 -9t-61.5 -2.5q-68 0 -126 22t-106 58t-85.5 83t-62.5 97q-15 -10 -36.5 -31.5
t-46 -49t-48.5 -58.5t-43 -61.5t-31 -57t-12 -44.5q0 -43 24 -60.5t60 -17.5q33 0 72 11.5t75 28t65 35t43 32.5q42 -24 72.5 -56t51 -68.5t30 -77t9.5 -80.5q0 -60 -16.5 -117t-54.5 -101.5t-99.5 -71.5t-151.5 -27q-92 0 -159 26.5t-114 73t-75.5 109.5t-42.5 136
q-38 -66 -103 -107.5t-156 -41.5q-97 0 -168.5 35.5t-123.5 94t-85.5 134t-53 156.5t-27 161.5t-7.5 148.5v29l61 -44q1 -117 26 -219t74 -177t121 -118.5t167 -43.5q35 0 79 13.5t83 38t65.5 58t26.5 74.5q0 23 -10.5 48t-33.5 51q-21 -11 -48 -24.5t-55.5 -25.5t-58.5 -20
t-57 -8q-72 0 -120 15.5t-77 45t-41 71t-12 93.5q0 66 19.5 121t45.5 97t53.5 71t44.5 42h-404v116h2105v-116h-1440q5 -33 26.5 -62t53.5 -51t72.5 -34.5t83.5 -12.5q18 0 45.5 2t58.5 7t61.5 14t53.5 24l134 -40q5 -33 39 -69.5t82.5 -67t104 -50.5t105.5 -20q25 0 63.5 1
t83 6.5t91 17.5t87.5 35l112 -132q-15 -23 -24 -53t-14 -65t-7 -72.5t-2 -73.5v-564zM1147 145q41 0 89 15.5t89.5 42t69.5 62t28 76.5q0 23 -10.5 48t-33.5 51q-21 -11 -48 -24.5t-55.5 -25.5t-58.5 -20t-57 -8q-72 0 -120 15.5t-77 45t-41 71t-12 93.5q0 38 7.5 72.5
t19.5 65t26.5 56.5t29.5 49q-45 -12 -94 -12q-57 0 -111.5 16t-101.5 45t-85.5 70t-63.5 91q-15 -10 -37 -29t-46.5 -43.5t-49 -52.5t-44 -55t-31.5 -51.5t-12 -42.5q0 -43 24 -60.5t60 -17.5q33 0 72 11.5t75 28t65 35t43 32.5q42 -24 72.5 -56t51 -68.5t30 -77t9.5 -80.5
q0 -12 -0.5 -23t-3.5 -24q5 -69 24 -119.5t47 -86.5t62 -58t69 -35t69 -17.5t61 -4.5zM1677 144q32 -10 57 -22t45.5 -26.5t37.5 -33t34 -40.5v227q-27 -5 -49 -13.5t-42.5 -21t-40.5 -29.5t-42 -41z" />
    <glyph glyph-name="bn_j_jha" horiz-adv-x="1542" 
d="M1106 954v-840q21 -3 47.5 -14.5t53.5 -28.5t51 -39t40 -47v1461l124 -111v-105h130v-116h-130v-1294l-60 40q-36 43 -73.5 70t-72 42t-63.5 21t-47 7v-180l-60 40q-37 36 -83.5 60.5t-97 40.5t-102 24.5t-99 13.5t-86.5 7t-65 5l-136 166q76 71 146.5 117t142.5 75.5
t149 46t167 27.5v401q-65 9 -120 32t-99 56.5t-76.5 77t-52.5 92.5q-32 -20 -71.5 -34.5t-79.5 -26.5t-78 -23.5t-67.5 -25.5t-47.5 -32t-18 -43q0 -31 28 -54t91 -23q33 0 66.5 11t63 27t53 34.5t37.5 32.5q42 -24 72.5 -56t51 -68.5t30 -77t9.5 -80.5q0 -60 -29 -107.5
t-75 -80t-103 -50t-112 -17.5q-123 0 -204 43t-128.5 114.5t-67 165t-19.5 195.5v29l61 -44q2 -105 29 -172.5t74 -106.5t112 -54t143 -15q35 0 79 7t83 26t65.5 53.5t26.5 89.5q0 23 -11.5 45.5t-39.5 41.5q-20 -17 -46.5 -37t-56.5 -37.5t-62.5 -29.5t-64.5 -12
q-64 0 -108.5 18.5t-72 46.5t-40 61t-12.5 62q0 44 20 74t49.5 53t63 43t60.5 46h-388v116h1106v-116h-397q25 -50 56.5 -81.5t66.5 -49t73.5 -23.5t76.5 -6h124zM982 298q-53 -3 -111 -14t-115 -32t-110 -53t-95 -76q43 0 101 -8.5t118.5 -26.5t116.5 -47.5t95 -72.5v330z
" />
    <glyph glyph-name="bn_j_nya" horiz-adv-x="1475" 
d="M1163 995q32 0 66 -12t61.5 -36t45.5 -60.5t18 -85.5q0 -37 -8.5 -66t-22 -51.5t-29.5 -38.5t-31 -27q15 -11 31 -27t29.5 -38.5t22 -51.5t8.5 -66q0 -49 -18 -85.5t-45.5 -60.5t-61.5 -36t-66 -12q-68 0 -133 41.5t-122 143.5q-23 -47 -65 -89t-95 -73.5t-113.5 -49.5
t-118.5 -18q-97 0 -171 35.5t-129 94t-92.5 134t-60 156.5t-32.5 161.5t-10 148.5v29l61 -44q1 -117 30.5 -219t84 -177t131.5 -118.5t172 -43.5q23 0 59.5 6t77 17.5t81 28t73 37t53 44.5t20.5 51q0 23 -10.5 48t-33.5 51q-21 -11 -65 -24.5t-93.5 -25.5t-96.5 -20t-74 -8
q-72 0 -120 15.5t-77 45t-41 71t-12 93.5q0 66 15.5 121t36.5 97t43.5 71t36.5 42h-373v116h1485v-116h-824q-3 -14 -4 -28t-1 -29q0 -37 8 -75.5t23 -74t37 -66t51 -52.5q28 -17 50.5 -38t39.5 -44q16 50 42.5 101.5t63.5 93t84.5 67.5t107.5 26zM1153 402q19 0 39 4.5
t35.5 16.5t25.5 32t10 51q0 16 -4 37.5t-28 39.5q-32 -39 -53.5 -50.5t-46.5 -11.5q-11 0 -27 4.5t-30.5 15.5t-25 29.5t-10.5 47.5t10.5 47.5t25 29.5t30.5 15.5t27 4.5q13 0 23.5 -1.5t21.5 -7.5t24 -17.5t30 -31.5q24 18 28.5 37.5t4.5 35.5q0 31 -10 51t-25.5 32
t-35.5 16.5t-39 4.5q-33 0 -68.5 -13t-69 -38t-62.5 -61t-49 -82q17 -40 22 -89q22 -36 49 -63.5t57 -46.5t61 -29t60 -10zM537 1040q-15 -10 -37 -29t-46.5 -43.5t-49 -52.5t-44 -55t-31.5 -51.5t-12 -42.5q0 -43 24 -60.5t60 -17.5q23 0 59 6t76 15.5t80.5 21.5t73.5 25
q-39 30 -66 64t-44.5 70.5t-27.5 74t-15 75.5z" />
    <glyph glyph-name="bn_ny_ca" horiz-adv-x="1284" 
d="M244 532q36 -16 78.5 -42t87 -64t89.5 -89t87 -117v537q-26 -39 -62.5 -72.5t-80.5 -61.5t-94.5 -50.5t-104.5 -40.5zM705 744q18 -51 45.5 -96t62 -78t75.5 -52.5t87 -19.5q24 0 47 6t41 19t29 34.5t11 52.5q0 16 -6.5 41t-29.5 49q-26 -34 -53 -43.5t-53 -9.5
q-11 0 -27 4.5t-30.5 15.5t-25 29.5t-10.5 47.5t10.5 47.5t25 29.5t30.5 15.5t27 4.5q26 0 53 -9.5t53 -43.5q23 24 29.5 49t6.5 41q0 31 -11 52.5t-29 34.5t-41 19t-47 6q-46 0 -87 -19.5t-75.5 -52.5t-62 -78t-45.5 -96zM710 951q29 55 61.5 93t67 62t70.5 34.5t71 10.5
q39 0 77 -15t68.5 -43t49.5 -67.5t19 -88.5q0 -37 -8.5 -68t-22 -55t-29.5 -41.5t-31 -28.5q15 -11 31 -28.5t29.5 -41.5t22 -55t8.5 -68q0 -49 -19 -88.5t-49.5 -67.5t-68.5 -43t-77 -15q-35 0 -71 10.5t-70.5 34.5t-67 62t-61.5 93v-568l-60 40q-38 86 -97.5 160
t-134.5 133t-164 101.5t-185 65.5l-48 135q42 7 99 21.5t118.5 36.5t122 50.5t108 62.5t77 73t29.5 83q0 42 -23 75.5t-59.5 57.5t-81.5 37t-89 13q-29 0 -64.5 -5.5t-71 -17.5t-67 -31.5t-52.5 -47.5q10 4 23 10t26 11t24.5 9t19.5 4q42 0 66.5 -15t38 -35.5t17.5 -40.5
t4 -30q0 -25 -11.5 -46t-29.5 -36.5t-41 -24.5t-46 -9q-33 0 -58.5 14.5t-43 37.5t-27 52.5t-9.5 59.5q0 62 28.5 110t72.5 80.5t97.5 49.5t103.5 17q43 0 82 -10.5t72.5 -29.5t61 -44t48.5 -55v355l124 -111v-384z" />
    <glyph glyph-name="bn_ny_cha" horiz-adv-x="1228" 
d="M586 761q-29 -38 -64 -67t-70.5 -52.5t-69.5 -42.5t-60 -35.5t-41.5 -32.5t-15.5 -33q0 -21 16 -38.5t42.5 -30.5t61 -20.5t71.5 -7.5q57 0 93 17t36 52q0 25 -3 41.5t-6 30.5t-6 29t-3 38q0 18 2.5 41t6 45.5t6.5 40.5t4 25zM703 798q18 -51 47.5 -91t65 -68t73 -42.5
t72.5 -14.5q19 0 39 4.5t35.5 16.5t25.5 32t10 51q0 16 -4 37.5t-28 39.5q-32 -39 -53.5 -50.5t-46.5 -11.5q-11 0 -27 4.5t-30.5 15.5t-25 29.5t-10.5 47.5t10.5 47.5t25 29.5t30.5 15.5t27 4.5q13 0 23.5 -1.5t21.5 -7.5t24 -17.5t30 -31.5q24 18 28.5 37.5t4.5 35.5
q0 31 -10 51t-25.5 32t-35.5 16.5t-39 4.5q-35 0 -72.5 -14.5t-73 -42.5t-65 -68t-47.5 -91zM707 621q0 -44 7 -77.5t18 -61.5t23.5 -53t23.5 -52.5t18 -59.5t7 -73q0 -42 -25 -74.5t-67 -57t-96.5 -43t-113.5 -31.5q48 -8 118 -26t146.5 -47.5t152 -70t133.5 -93.5l52 -135
q-86 82 -192 135t-218 87t-222.5 52t-206.5 29l-112 192q32 -11 60.5 -15.5t51.5 -4.5q91 0 167 11t130.5 31.5t85 50t30.5 65.5q0 27 -6 48.5t-14 35.5q-14 -24 -35 -43.5t-46 -33t-52.5 -20.5t-54.5 -7q-89 0 -157.5 16t-115 44t-70.5 66t-24 82q0 20 21 44.5t54.5 52.5
t77 59t89 64.5t89 68t77 70.5t54.5 72t21 71q0 45 -32 72t-86 27q-31 0 -80 -4.5t-104.5 -23t-112 -56t-102.5 -102.5q41 42 76 57t70 15t61 -12.5t43.5 -32t26.5 -44.5t9 -49q0 -34 -13 -60t-34.5 -43t-50.5 -26t-61 -9q-41 0 -73.5 14.5t-55 38.5t-34.5 55.5t-12 66.5
q0 49 22 94.5t59 85t86.5 72t103.5 56t110 36.5t107 13q43 0 79 -7t62.5 -28.5t41.5 -61.5t15 -106v-52q58 110 125.5 155t138.5 45q32 0 66 -12t61.5 -36t45.5 -60.5t18 -85.5q0 -37 -8.5 -66t-22 -51.5t-29.5 -38.5t-31 -27q15 -11 31 -27t29.5 -38.5t22 -51.5t8.5 -66
q0 -49 -18 -85.5t-45.5 -60.5t-61.5 -36t-66 -12q-71 0 -138.5 45t-125.5 155z" />
    <glyph glyph-name="bn_ny_ja" horiz-adv-x="1460" 
d="M865 942q37 67 72.5 112t71 72t70.5 38t70 11q32 0 66 -12t61.5 -36t45.5 -60.5t18 -85.5q0 -37 -8.5 -66t-22 -51.5t-29.5 -38.5t-31 -27q15 -11 31 -27t29.5 -38.5t22 -51.5t8.5 -66q0 -49 -18 -85.5t-45.5 -60.5t-61.5 -36t-66 -12q-35 0 -73 13t-73 38t-66 62.5
t-52 86.5q-23 53 -42 102.5t-30 99.5q-39 -71 -78 -117t-70 -78t-50 -55t-19 -49q0 -27 10 -51t29 -41.5t45.5 -27.5t58.5 -10q56 0 88 22t56 57q62 -38 89.5 -88t27.5 -104t-21 -104.5t-63.5 -90t-106 -63t-148.5 -23.5q-90 0 -164 26.5t-134.5 72.5t-108.5 107.5
t-85 130.5t-64 141.5t-45.5 142t-30 131t-17.5 108.5l58 -27q7 -52 25.5 -122.5t50.5 -146.5t79.5 -150t111.5 -132.5t146.5 -95t185.5 -36.5q60 0 106.5 13.5t78 36t47.5 51.5t16 61q0 26 -8 47t-22 35q-10 -14 -22.5 -29t-31.5 -28t-46 -21t-66 -8q-53 0 -101.5 15.5
t-86 44t-60 69.5t-22.5 92q0 33 22 65.5t55 66.5t71.5 69t71.5 74t55 81.5t22 90.5q0 31 -15 52t-38 34.5t-51 19.5t-55 6q-31 0 -71 -4.5t-85 -23t-92.5 -56t-93.5 -102.5q41 42 76 57t70 15t61 -12.5t43.5 -32t26.5 -44.5t9 -49q0 -34 -13 -60t-34.5 -43t-50.5 -26t-61 -9
q-41 0 -73.5 14.5t-55 38.5t-34.5 55.5t-12 66.5q0 73 38.5 138t100.5 113.5t138.5 77t153.5 28.5q39 0 81 -10.5t77.5 -36t58.5 -69.5t23 -111q0 -14 -1.5 -29t-3.5 -32zM881 798q18 -51 47.5 -91t65 -68t73 -42.5t72.5 -14.5q19 0 39 4.5t35.5 16.5t25.5 32t10 51
q0 16 -4 37.5t-28 39.5q-32 -39 -53.5 -50.5t-46.5 -11.5q-11 0 -27 4.5t-30.5 15.5t-25 29.5t-10.5 47.5t10.5 47.5t25 29.5t30.5 15.5t27 4.5q13 0 23.5 -1.5t21.5 -7.5t24 -17.5t30 -31.5q24 18 28.5 37.5t4.5 35.5q0 31 -10 51t-25.5 32t-35.5 16.5t-39 4.5
q-35 0 -72.5 -14.5t-73 -42.5t-65 -68t-47.5 -91zM1254 349q-45 -59 -62.5 -119.5t-17.5 -119.5q0 -45 7.5 -86t18.5 -79l-39 -32q-11 20 -23 49.5t-22.5 66t-17 78.5t-6.5 86q0 58 14.5 116t50.5 112z" />
    <glyph glyph-name="bn_ny_jha" horiz-adv-x="1487" 
d="M1176 1175q32 0 66 -12t61.5 -36t45.5 -60.5t18 -85.5q0 -37 -8.5 -66t-22 -51.5t-29.5 -38.5t-31 -27q15 -11 31 -27t29.5 -38.5t22 -51.5t8.5 -66q0 -44 -14 -77t-37 -57t-51.5 -38t-57.5 -19v-604l-60 40q-36 43 -73.5 70t-72 42t-63.5 21t-47 7v-180l-60 40
q-37 36 -83.5 60.5t-97 40.5t-102 24.5t-99 13.5t-86.5 7t-65 5l-136 166q119 93 272 154.5t333 84.5v7q-23 11 -47.5 15.5t-49.5 4.5q-39 0 -75.5 -4t-72 -8.5t-70.5 -8.5t-71 -4q-86 0 -153 26t-113 69t-70.5 99t-24.5 117q0 41 10 84t31 89l41 -41q-9 -24 -13 -45t-4 -40
q0 -51 27 -88t69 -60t93.5 -34t101.5 -11h84q29 0 57 1t54 1q32 0 61 -3t53.5 -13t45.5 -29t36 -50v489q0 31 -13.5 51.5t-35.5 33.5t-48.5 18.5t-53.5 5.5q-31 0 -71 -4.5t-85 -23t-92.5 -56t-93.5 -102.5q41 42 76 57t70 15t61 -12.5t43.5 -32t26.5 -44.5t9 -49
q0 -34 -13 -60t-34.5 -43t-50.5 -26t-61 -9q-41 0 -73.5 14.5t-55 38.5t-34.5 55.5t-12 66.5q0 73 38.5 138t100.5 113.5t138.5 77t153.5 28.5q39 0 80 -10t75.5 -35.5t56.5 -69.5t22 -111v-61q36 66 72 110.5t72 71.5t71 38.5t70 11.5zM908 798q18 -51 47.5 -91t65 -68
t73 -42.5t72.5 -14.5q19 0 39 4.5t35.5 16.5t25.5 32t10 51q0 16 -4 37.5t-28 39.5q-32 -39 -53.5 -50.5t-46.5 -11.5q-11 0 -27 4.5t-30.5 15.5t-25 29.5t-10.5 47.5t10.5 47.5t25 29.5t30.5 15.5t27 4.5q13 0 23.5 -1.5t21.5 -7.5t24 -17.5t30 -31.5q24 18 28.5 37.5
t4.5 35.5q0 31 -10 51t-25.5 32t-35.5 16.5t-39 4.5q-35 0 -72.5 -14.5t-73 -42.5t-65 -68t-47.5 -91zM912 621q-5 12 -10.5 24.5t-10.5 24.5v-556q21 -3 47.5 -14.5t53.5 -28.5t51 -39t40 -47v456q-51 23 -96.5 67.5t-74.5 112.5zM767 271q-115 -10 -222 -45.5t-209 -102.5
q43 0 101 -8.5t118.5 -26.5t116.5 -47.5t95 -72.5v303z" />
    <glyph glyph-name="bn_tt_tt_ra" horiz-adv-x="1073" 
d="M432 44q50 0 96 -3t86 -15t71.5 -36.5t53.5 -68.5v191q-51 -12 -111 -12q-79 0 -150.5 23t-133.5 63t-114 95.5t-93 120t-70.5 136t-46.5 144.5l58 -27q34 -107 85.5 -183.5t118.5 -125.5t148.5 -72.5t176.5 -23.5q67 0 115.5 12t79.5 31t46 43.5t15 49.5q0 34 -16 58
t-36 39q-39 -30 -82 -51.5t-84.5 -34.5t-78.5 -19t-64 -6q-11 0 -30 2.5t-41 11t-44 24.5t-40 42.5t-29.5 66t-11.5 95.5v500h-306v116h741q30 16 43.5 35.5t13.5 33.5q0 30 -23 46.5t-60.5 25t-85.5 13t-97.5 10t-97.5 16t-85.5 31.5t-60.5 55.5t-23 89.5q0 25 13.5 55
t44.5 57l36 -28q-25 -21 -30.5 -37.5t-5.5 -30.5q0 -27 25.5 -42.5t67 -24.5t94 -13.5t107.5 -10.5t108 -16t94.5 -29.5t66.5 -50.5t25 -80q0 -18 -6 -33.5t-15 -28.5t-20 -23.5t-21 -19.5h234v-116h-653v-452q0 -25 5 -46t18 -36t35 -23.5t56 -8.5q58 0 118.5 15.5
t110.5 44.5t82.5 70t33.5 93q0 5 -2 13q-34 -35 -66.5 -50.5t-62.5 -15.5q-32 0 -59 12t-46.5 32t-31 47t-11.5 56q0 33 11.5 62t32 51t47.5 35t59 13q58 0 95.5 -25.5t59.5 -63.5t30 -82t8 -81q0 -83 -28 -145.5t-73 -108.5q44 -29 72.5 -75.5t28.5 -112.5q0 -50 -23.5 -92
t-66.5 -74v-396l-64 40q-47 50 -103.5 67t-116.5 17q-57 0 -114.5 -7.5t-111.5 -7.5q-75 0 -134.5 21t-101 58.5t-63.5 89t-22 112.5q0 41 10 84t31 89l41 -41q-9 -24 -13 -45t-4 -40q0 -51 27 -83t69 -50t93.5 -24t101.5 -6h44z" />
    <glyph glyph-name="bn_tt_tta" horiz-adv-x="1073" 
d="M741 1230q30 16 43.5 35.5t13.5 33.5q0 30 -23 46.5t-60.5 25t-85.5 13t-97.5 10t-97.5 16t-85.5 31.5t-60.5 55.5t-23 89.5q0 25 13.5 55t44.5 57l36 -28q-25 -21 -30.5 -37.5t-5.5 -30.5q0 -27 25.5 -42.5t67 -24.5t94 -13.5t107.5 -10.5t108 -16t94.5 -29.5
t66.5 -50.5t25 -80q0 -18 -6 -33.5t-15 -28.5t-20 -23.5t-21 -19.5h234v-116h-653v-552q0 -23 6.5 -43.5t19.5 -36t31 -25t42 -9.5q35 0 75 13t80 36t77 54t65.5 67t45.5 75t17 78q0 5 -2 13q-34 -35 -66.5 -50.5t-62.5 -15.5q-32 0 -59 12t-46.5 32t-31 47t-11.5 56
q0 33 11.5 62t32 51t47.5 35t59 13q58 0 95.5 -26t59.5 -65.5t30 -87.5t8 -92q0 -103 -32 -184.5t-84 -141.5q50 -29 83 -77t33 -120q0 -49 -23 -91t-66 -73.5t-103 -49.5t-133 -18q-79 0 -150.5 23t-133.5 63t-114 95.5t-93 120t-70.5 136t-46.5 144.5l58 -27
q34 -107 85.5 -183.5t118.5 -125.5t148.5 -72.5t176.5 -23.5q67 0 115.5 12t79.5 31t46 43.5t15 49.5q0 38 -19.5 64t-43.5 40q-63 -59 -138 -88.5t-147 -29.5q-11 0 -31 2.5t-43 11t-47 24.5t-43.5 42.5t-32 66t-12.5 95.5v600h-306v116h741z" />
    <glyph glyph-name="bn_tt_ma" horiz-adv-x="1105" 
d="M0 1230h601q30 16 43.5 35.5t13.5 33.5q0 30 -23 46.5t-60.5 25t-85.5 13t-97.5 10t-97.5 16t-85.5 31.5t-60.5 55.5t-23 89.5q0 25 13.5 55t44.5 57l36 -28q-25 -21 -30.5 -37.5t-5.5 -30.5q0 -27 25.5 -42.5t67 -24.5t94 -13.5t107.5 -10.5t108 -16t94.5 -29.5
t66.5 -50.5t25 -80q0 -18 -6 -33.5t-15 -28.5t-20 -23.5t-21 -19.5h407v-116h-130v-1205l-60 40q-64 81 -131.5 128t-127 72t-105 33t-65.5 11v-90q0 -42 -11.5 -75t-32 -56t-47 -35t-56.5 -12q-36 0 -67.5 10t-55 31t-36.5 54t-13 80q0 35 12.5 66.5t37 57t61 44t84.5 27.5
v39q-11 -2 -22 -2h-22t-31 2t-43 10t-47 23.5t-43.5 42t-32 65.5t-12.5 95v544h-120v116zM497 301q51 -5 97.5 -19.5t91 -39t88 -60t88.5 -82.5v1014h-618v-496q0 -33 6.5 -54.5t19.5 -34t31 -17t42 -4.5q35 0 75 9.5t80 27t77 42t65.5 55t45.5 65.5t17 74q0 5 -2 13
q-34 -35 -66.5 -50.5t-62.5 -15.5q-32 0 -59 12t-46.5 32t-31 47t-11.5 56q0 33 11.5 62t32 51t47.5 35t59 13q58 0 95.5 -26t59.5 -65.5t30 -87.5t8 -92q0 -84 -22 -150.5t-59.5 -116t-86 -83.5t-102.5 -53v-61z" />
    <glyph glyph-name="bn_dd_ga" horiz-adv-x="1820" 
d="M1576 1446l124 -111v-105h130v-116h-130v-1114l-124 80v734q-52 68 -96 118t-86 83t-86 49t-97 16q-36 0 -67 -10t-54 -28t-36 -43.5t-13 -56.5q0 -4 0.5 -11.5t2.5 -11.5q7 4 20 9.5t30 10t36.5 7.5t37.5 3q46 0 81.5 -15t60 -40.5t37 -59t12.5 -70.5
q0 -65 -19.5 -123.5t-45 -104.5t-50.5 -77t-37 -41l-109 105q58 46 91.5 86.5t51 75t22.5 62t5 46.5q0 44 -22 68t-57 24q-24 0 -54.5 -11t-61 -27t-58 -33.5t-45.5 -30.5q33 -57 49 -115.5t16 -115.5q0 -95 -37.5 -169.5t-97 -125.5t-133 -78t-146.5 -27
q-122 0 -225.5 51.5t-182 156.5t-128 263.5t-62.5 371.5l64 -38q5 -71 22.5 -146.5t48 -147.5t74 -136.5t100 -113t126 -77t152.5 -28.5q61 0 123.5 23t112 62.5t81 93t31.5 114.5q0 18 -2.5 39.5t-8.5 43.5t-17 44t-29 41q-32 -61 -72.5 -108t-82.5 -79t-83.5 -48.5
t-75.5 -16.5q-83 0 -116 54t-33 158v385h-438v116h911v-116h-349v-402q0 -26 21 -26q15 0 46.5 16t69 47.5t74.5 77t63 105.5q16 -12 30 -24t27 -26l25 -31q-11 24 -16.5 48.5t-5.5 45.5q0 58 22.5 110t63 91t97.5 61.5t125 22.5q54 0 104.5 -23.5t98 -62.5t90 -90
t79.5 -107v499z" />
    <glyph glyph-name="bn_dd_dda" horiz-adv-x="2008" 
d="M2018 1230v-116h-604v-402q0 -26 21 -26q15 0 46.5 16t69 47.5t74.5 77t63 105.5q52 -39 89.5 -84.5t62 -95t36 -100.5t11.5 -100q0 -95 -37.5 -169.5t-97 -125.5t-133 -78t-146.5 -27q-142 0 -258.5 69.5t-197.5 212.5q-21 -68 -62.5 -120.5t-95.5 -88.5t-116 -54.5
t-122 -18.5q-122 0 -225.5 51.5t-182 156.5t-128 263.5t-62.5 371.5l64 -38q5 -71 22.5 -146.5t48 -147.5t74 -136.5t100 -113t126 -77t152.5 -28.5q61 0 123.5 23t112 62.5t81 93t31.5 114.5q0 18 -2.5 39.5t-8.5 43.5t-17 44t-29 41q-32 -61 -72.5 -108t-82.5 -79
t-83.5 -48.5t-75.5 -16.5q-83 0 -116 54t-33 158v385h-438v116h2018zM1462 308q61 0 123.5 23t112 62.5t81 93t31.5 114.5q0 18 -2.5 39.5t-8.5 43.5t-17 44t-29 41q-32 -61 -72.5 -108t-82.5 -79t-83.5 -48.5t-75.5 -16.5q-83 0 -116 54t-33 158v385h-728v-402
q0 -26 21 -26q15 0 46.5 16t69 47.5t74.5 77t63 105.5q86 -65 133 -146t60 -166q32 -65 74.5 -122t96.5 -99t119.5 -66.5t142.5 -24.5z" />
    <glyph glyph-name="bn_dd_ma" horiz-adv-x="1313" 
d="M1323 1230v-116h-130v-1205l-60 40q-51 75 -102.5 121.5t-96.5 72.5t-81 36.5t-56 13.5v-90q0 -42 -11.5 -75t-32 -56t-47 -35t-56.5 -12q-36 0 -67.5 10t-55 31t-36.5 54t-13 80q0 35 12.5 67t37 58t61 45t84.5 28v74q-37 -11 -70.5 -16t-60.5 -5q-54 0 -110.5 10.5
t-110.5 38t-103 75t-87.5 122.5t-64.5 180.5t-35 247.5l64 -38q7 -106 39 -194t87.5 -151.5t136 -98.5t185.5 -35q30 0 67 7t75.5 20.5t74.5 33.5t64.5 47t45.5 61t17 75q0 37 -7.5 74.5t-21.5 55.5q-32 -61 -72.5 -105t-82.5 -73t-83 -43t-75 -14q-83 0 -116 54t-33 158
v255h-396v116h1323zM1069 144v970h-549v-272q0 -26 21 -26q15 0 46.5 13t69 40.5t74.5 70t63 102.5q88 -69 128.5 -155t40.5 -185q0 -49 -13 -90t-35.5 -75t-53 -61.5t-64.5 -48.5v-125q25 -3 62 -15.5t75.5 -32.5t74.5 -48t60 -62z" />
    <glyph glyph-name="bn_nn_tta" horiz-adv-x="1419" 
d="M652 714q-53 63 -104 102t-98.5 60.5t-91.5 29t-82 7.5q-31 0 -68 -7t-68.5 -24t-53 -46.5t-21.5 -74.5q0 -18 4 -35.5t12 -25.5q6 27 19 44.5t29.5 27t34 13t32.5 3.5q57 -3 93 -38.5t36 -95.5q0 -26 -11.5 -49t-31 -40t-45.5 -27t-56 -10q-36 0 -67.5 17t-54.5 48.5
t-36 75t-13 96.5q0 67 19.5 119.5t54 89t84 55.5t109.5 19q43 0 91 -18t97 -49.5t96.5 -75t90.5 -94.5v419h401q30 16 43.5 35.5t13.5 33.5q0 30 -23 46.5t-60.5 25t-85.5 13t-97.5 10t-97.5 16t-85.5 31.5t-60.5 55.5t-23 89.5q0 25 13.5 55t44.5 57l36 -28
q-25 -21 -30.5 -37.5t-5.5 -30.5q0 -27 25.5 -42.5t67 -24.5t94 -13.5t107.5 -10.5t108 -16t94.5 -29.5t66.5 -50.5t25 -80q0 -18 -6 -33.5t-15 -28.5t-20 -23.5t-21 -19.5h268v-116h-653v-672q0 -23 6.5 -43.5t19.5 -36t31 -25t42 -9.5q35 0 75 13t80 36t77 54t65.5 67
t45.5 75t17 78q0 5 -2 13q-34 -35 -66.5 -50.5t-62.5 -15.5q-32 0 -59 12t-46.5 32t-31 47t-11.5 56q0 33 11.5 62t32 51t47.5 35t59 13q58 0 95.5 -26t59.5 -65.5t30 -87.5t8 -92q0 -117 -41 -207t-105 -151.5t-141.5 -93t-150.5 -31.5q-11 0 -31 2.5t-43 11t-47 24.5
t-43.5 42.5t-32 66.5t-12.5 95v320z" />
    <glyph glyph-name="bn_nn_tt_ra" horiz-adv-x="1494" 
d="M420 243q50 0 96 -3t86 -15t71.5 -36.5t53.5 -68.5v594q-53 63 -104 102t-98.5 60.5t-91.5 29t-82 7.5q-31 0 -68 -7t-68.5 -24t-53 -46.5t-21.5 -74.5q0 -18 4 -35.5t12 -25.5q6 27 19 44.5t29.5 27t34 13t32.5 3.5q57 -3 93 -38.5t36 -95.5q0 -26 -11.5 -49t-31 -40
t-45.5 -27t-56 -10q-36 0 -67.5 17t-54.5 48.5t-36 75t-13 96.5q0 67 19.5 119.5t54 89t84 55.5t109.5 19q43 0 91 -18t97 -49.5t96.5 -75t90.5 -94.5v419h401q30 16 43.5 35.5t13.5 33.5q0 30 -23 46.5t-60.5 25t-85.5 13t-97.5 10t-97.5 16t-85.5 31.5t-60.5 55.5
t-23 89.5q0 25 13.5 55t44.5 57l36 -28q-25 -21 -30.5 -37.5t-5.5 -30.5q0 -27 25.5 -42.5t67 -24.5t94 -13.5t107.5 -10.5t108 -16t94.5 -29.5t66.5 -50.5t25 -80q0 -18 -6 -33.5t-15 -28.5t-20 -23.5t-21 -19.5h268v-116h-653v-672q0 -23 6.5 -43.5t19.5 -36t31 -25
t42 -9.5q35 0 75 13t80 36t77 54t65.5 67t45.5 75t17 78q0 5 -2 13q-34 -35 -66.5 -50.5t-62.5 -15.5q-32 0 -59 12t-46.5 32t-31 47t-11.5 56q0 33 11.5 62t32 51t47.5 35t59 13q58 0 95.5 -26t59.5 -65.5t30 -87.5t8 -92q0 -117 -41 -207t-105 -151.5t-141.5 -93
t-150.5 -31.5q-13 0 -36 3t-49 14v-200l-64 40q-47 50 -103.5 67t-116.5 17q-57 0 -114.5 -7.5t-111.5 -7.5q-75 0 -134.5 21t-101 58.5t-63.5 89t-22 112.5q0 41 10 84t31 89l41 -41q-9 -24 -13 -45t-4 -40q0 -51 27 -83t69 -50t93.5 -24t101.5 -6h44z" />
    <glyph glyph-name="bn_nn_ttha" horiz-adv-x="1204" 
d="M1214 1230v-116h-401q49 -67 97.5 -130.5t87 -128.5t62.5 -134t24 -147q0 -81 -21 -154.5t-66.5 -130t-116 -89.5t-169.5 -33q-74 0 -142.5 27.5t-121 75t-84 112t-31.5 138.5q0 59 16 106q120 36 199.5 110.5t98.5 184.5q-62 59 -111.5 93t-92.5 51.5t-81 22.5t-75 5
q-31 0 -68 -7t-68.5 -24t-53 -46.5t-21.5 -74.5q0 -18 4 -35.5t12 -25.5q6 27 19 44.5t29.5 27t34 13t32.5 3.5q57 -3 93 -38.5t36 -95.5q0 -26 -11.5 -49t-31 -40t-45.5 -27t-56 -10q-36 0 -67.5 17t-54.5 48.5t-36 75t-13 96.5q0 67 19.5 119.5t54 89t84 55.5t109.5 19
q79 0 169.5 -52.5t194.5 -169.5q0 23 -1 55t-4 64.5t-8.5 61t-14.5 43.5q-34 46 -63.5 93t-51.5 93.5t-34.5 93.5t-12.5 95q0 64 26 128.5t87 131.5l130 -96q-56 -54 -80 -108.5t-24 -111.5q0 -77 37.5 -157t93.5 -162h483zM790 864q0 -69 -30 -129.5t-75.5 -106t-99 -74.5
t-99.5 -36q1 -44 21.5 -79t51 -60.5t67 -39t70.5 -13.5q71 0 123.5 21t87 59t51.5 91.5t17 118.5q0 55 -18 108.5t-47.5 104.5t-66.5 100.5t-75 97.5q6 -18 10 -39.5t7 -43.5t4 -43t1 -37z" />
    <glyph glyph-name="bn_nn_dda" horiz-adv-x="1337" 
d="M886 688q34 9 70.5 30t67 50t50 64t19.5 72q0 21 -11 41t-29.5 38t-42.5 33.5t-49 27.5q-10 -27 -38.5 -64t-62 -75t-65.5 -73.5t-50 -60.5l-71 77q-15 56 -37.5 101.5t-52.5 78t-68.5 50t-87.5 17.5q-31 0 -62 -8t-56 -26t-40.5 -47t-15.5 -71q0 -18 4 -35.5t12 -25.5
q6 27 19 44.5t29.5 27t34 13t32.5 3.5q57 -3 93 -38.5t36 -95.5q0 -26 -11.5 -49t-31 -40t-45.5 -27t-56 -10q-36 0 -67.5 18.5t-54.5 51t-36 75.5t-13 92q0 63 19.5 115t53 89.5t77.5 58t93 20.5q55 0 98.5 -22.5t76.5 -61.5t55.5 -91.5t34.5 -112.5q12 15 37.5 50.5
t54.5 78t55.5 85.5t38.5 74q38 -20 89.5 -53t98 -77t79 -97t32.5 -113q0 -40 -15.5 -73.5t-40 -62t-56 -51t-63.5 -39.5q49 -19 86.5 -51t62.5 -71t38 -82t13 -85q0 -97 -39.5 -168t-103.5 -117t-145 -68t-163 -22q-111 0 -205 40.5t-171.5 107.5t-139 153t-107.5 177.5
t-77 180.5t-48 162l58 -27q23 -71 57.5 -146.5t80 -147t101.5 -135t122.5 -111.5t142 -76t160.5 -28q90 0 156 20t110 54.5t65.5 82t21.5 101.5q0 32 -9 65t-28.5 62t-50 51t-72.5 31q20 -24 31.5 -47.5t11.5 -53.5q0 -27 -11.5 -48t-30.5 -35t-42.5 -21.5t-47.5 -7.5
q-29 0 -54 10t-44 28.5t-30 44t-11 56.5q0 24 10.5 49.5t32.5 46.5t56.5 35t81.5 14z" />
    <glyph glyph-name="bn_nn_dd_ra" horiz-adv-x="1348" 
d="M667 -16q33 0 74.5 -1t85.5 -5t87 -11.5t80.5 -21.5t66 -34.5t43.5 -49.5v265q-66 -50 -155 -73t-182 -23q-105 0 -196.5 38t-168.5 101.5t-139.5 145.5t-109.5 170t-78.5 175.5t-45.5 160.5l58 -27q23 -71 58 -144t81 -141.5t103 -128t124 -104t143 -70.5t161 -26
q83 0 147.5 17t109 48t67.5 75t23 98q0 32 -10.5 64t-31 59.5t-50.5 47.5t-68 28q20 -24 31.5 -47.5t11.5 -53.5q0 -27 -11.5 -48t-30.5 -35t-42.5 -21.5t-47.5 -7.5q-29 0 -54 10t-44 28.5t-30 44t-11 56.5q0 24 10.5 49.5t32.5 46.5t56.5 35t81.5 14q34 9 70.5 30t67 50
t50 64t19.5 72q0 21 -11 41t-29.5 38t-42.5 33.5t-49 27.5q-10 -27 -38.5 -64t-62 -75t-65.5 -73.5t-50 -60.5l-71 77q-15 56 -37.5 101.5t-52.5 78t-68.5 50t-87.5 17.5q-31 0 -62 -8t-56 -26t-40.5 -47t-15.5 -71q0 -18 4 -35.5t12 -25.5q6 27 19 44.5t29.5 27t34 13
t32.5 3.5q57 -3 93 -38.5t36 -95.5q0 -26 -11.5 -49t-31 -40t-45.5 -27t-56 -10q-36 0 -67.5 18.5t-54.5 51t-36 75.5t-13 92q0 63 19.5 115t53 89.5t77.5 58t93 20.5q55 0 98.5 -22.5t76.5 -61.5t55.5 -91.5t34.5 -112.5q12 15 37.5 50.5t54.5 78t55.5 85.5t38.5 74
q38 -20 89.5 -53t98 -77t79 -97t32.5 -113q0 -40 -15 -73.5t-40 -62t-56 -51t-63 -39.5q49 -19 86 -50t62 -69t38 -80.5t13 -84.5v-670l-64 40q-23 25 -69.5 41.5t-99 26t-102 13t-79.5 3.5q-29 0 -78 -2.5t-102 -5t-101 -5t-75 -2.5q-75 0 -134.5 21t-101 58.5t-63.5 89
t-22 112.5q0 41 10 84t31 89l41 -41q-9 -24 -13 -45t-4 -40q0 -51 27 -83t69 -50t93.5 -24t101.5 -6h174z" />
    <glyph glyph-name="bn_nn_ddha" horiz-adv-x="1419" 
d="M652 714q-53 63 -104 102t-98.5 60.5t-91.5 29t-82 7.5q-31 0 -68 -7t-68.5 -24t-53 -46.5t-21.5 -74.5q0 -18 4 -35.5t12 -25.5q6 27 19 44.5t29.5 27t34 13t32.5 3.5q57 -3 93 -38.5t36 -95.5q0 -26 -11.5 -49t-31 -40t-45.5 -27t-56 -10q-36 0 -67.5 17t-54.5 48.5
t-36 75t-13 96.5q0 67 19.5 119.5t54 89t84 55.5t109.5 19q43 0 91 -18t97 -49.5t96.5 -75t90.5 -94.5v419h777v-116h-653v-672q0 -23 6.5 -43.5t19.5 -36t31 -25t42 -9.5q35 0 75 13t80 36t77 54t65.5 67t45.5 75t17 78q0 5 -2 13q-34 -35 -66.5 -50.5t-62.5 -15.5
q-32 0 -59 12t-46.5 32t-31 47t-11.5 56q0 33 11.5 62t32 51t47.5 35t59 13q58 0 95.5 -26t59.5 -65.5t30 -87.5t8 -92q0 -117 -41 -207t-105 -151.5t-141.5 -93t-150.5 -31.5q-11 0 -31 2.5t-43 11t-47 24.5t-43.5 42.5t-32 66.5t-12.5 95v320z" />
    <glyph glyph-name="bn_nn_nna" horiz-adv-x="906" 
d="M662 256q-86 118 -177.5 186t-196.5 68q-37 0 -75 -12.5t-68.5 -36t-50 -58.5t-19.5 -80q0 -18 4 -35.5t12 -25.5q6 27 19 44.5t29.5 27t34 13t32.5 3.5q57 -3 93 -38.5t36 -95.5q0 -26 -11.5 -49t-31 -40t-45.5 -27t-56 -10q-36 0 -67.5 17t-54.5 48.5t-36 75t-13 96.5
q0 67 18 125.5t51.5 102.5t81.5 69.5t108 25.5q49 0 101.5 -23.5t102.5 -62.5t96 -90t83 -107v469q-86 118 -177.5 186t-196.5 68q-37 0 -75 -12.5t-68.5 -36t-50 -58.5t-19.5 -80q0 -18 4 -35.5t12 -25.5q6 27 19 44.5t29.5 27t34 13t32.5 3.5q57 -3 93 -38.5t36 -95.5
q0 -26 -11.5 -49t-31 -40t-45.5 -27t-56 -10q-36 0 -67.5 17t-54.5 48.5t-36 75t-13 96.5q0 67 18 125.5t51.5 102.5t81.5 69.5t108 25.5q49 0 101.5 -23.5t102.5 -62.5t96 -90t83 -107v499l124 -111v-105h130v-116h-130v-1114l-124 80v176z" />
    <glyph glyph-name="bn_nn_ma" horiz-adv-x="1222" 
d="M786 302q25 -3 51 -17t50.5 -35t47.5 -48t43 -58v970h-192v-812zM1232 1230v-116h-130v-1205l-60 40q-51 75 -90 121.5t-69 72.5t-53.5 36.5t-43.5 13.5v-90q0 -42 -11.5 -75t-32 -56t-47 -35t-56.5 -12q-36 0 -67.5 10t-55 31t-36.5 54t-13 80q0 35 12.5 67t37 58t61 45
t84.5 28v422q-86 118 -177.5 186t-196.5 68q-37 0 -75 -12.5t-68.5 -36t-50 -58.5t-19.5 -80q0 -18 4 -35.5t12 -25.5q6 27 19 44.5t29.5 27t34 13t32.5 3.5q57 -3 93 -38.5t36 -95.5q0 -26 -11.5 -49t-31 -40t-45.5 -27t-56 -10q-36 0 -67.5 17t-54.5 48.5t-36 75t-13 96.5
q0 67 18 125.5t51.5 102.5t81.5 69.5t108 25.5q49 0 101.5 -23.5t102.5 -62.5t96 -90t83 -107v615l124 -111v-105h446z" />
    <glyph glyph-name="bn_t_ta" horiz-adv-x="1271" 
d="M1281 1114h-1281v116h1281v-116zM1080 565q45 -51 70 -114t25 -121q0 -91 -31 -154t-84.5 -102t-126 -56.5t-156.5 -17.5q-130 0 -237.5 52t-199.5 170.5t-173 310t-157 470.5l89 -62q33 -95 68 -189.5t77 -181.5t93 -162t115.5 -131t144.5 -87.5t180 -31.5
q64 0 116 20.5t89.5 56.5t58 85t20.5 106q0 18 -2 31t-6.5 24t-11 21.5t-14.5 22.5q-34 -42 -68 -58t-52 -16q-62 0 -96 34t-34 97q0 16 6.5 37.5t21.5 40.5t40 32.5t62 13.5q19 0 34.5 -3.5t30 -12t29.5 -22t33 -32.5q14 18 24.5 40t10.5 43q0 39 -17 69.5t-44.5 53t-63 38
t-72 25t-71.5 14t-62 4.5q-36 0 -88 -4t-104.5 -23.5t-97 -61.5t-64.5 -117q38 22 70.5 32.5t55.5 10.5q38 0 63 -14.5t40 -34.5t21.5 -42.5t6.5 -37.5q0 -24 -8.5 -48.5t-25 -44.5t-40.5 -32.5t-55 -12.5q-39 0 -71 17t-54.5 46.5t-34.5 70t-12 88.5q0 97 36 164.5
t93.5 110t131 61.5t148.5 19q82 0 155 -20t127.5 -60t86.5 -100t32 -141q0 -9 -2 -28.5t-9 -44t-21 -53.5t-39 -58z" />
    <glyph glyph-name="bn_t_t_ba" horiz-adv-x="1279" 
d="M726 -12l26 12q-125 5 -228.5 60.5t-193 174t-167.5 307.5t-153 461l89 -62q33 -95 68 -189.5t77 -181.5t93 -162t115.5 -131t144.5 -87.5t180 -31.5q64 0 116 20.5t89.5 56.5t58 85t20.5 106q0 18 -2 31t-6.5 24t-11 21.5t-14.5 22.5q-34 -42 -68 -58t-52 -16
q-62 0 -96 34t-34 97q0 16 6.5 37.5t21.5 40.5t40 32.5t62 13.5q19 0 34.5 -3.5t30 -12t29.5 -22t33 -32.5q14 18 24.5 40t10.5 43q0 39 -17 69.5t-44.5 53t-63 38t-72 25t-71.5 14t-62 4.5q-36 0 -88 -4t-104.5 -23.5t-97 -61.5t-64.5 -117q38 22 70.5 32.5t55.5 10.5
q38 0 63 -14.5t40 -34.5t21.5 -42.5t6.5 -37.5q0 -24 -8.5 -48.5t-25 -44.5t-40.5 -32.5t-55 -12.5q-39 0 -71 17t-54.5 46.5t-34.5 70t-12 88.5q0 97 36 164.5t93.5 110t131 61.5t148.5 19q82 0 155 -20t127.5 -60t86.5 -100t32 -141q0 -9 -2 -28.5t-9 -44t-21 -53.5
t-39 -58q45 -51 70 -114t25 -121q0 -41 -6.5 -75.5t-17.5 -63.5l7 4v-492l-39 22q-25 33 -62 63.5t-83 54t-98 38t-106 14.5zM1289 1114h-1289v116h1289v-116zM1036 47q-23 -4 -52 -14l-9 -3q-30 -11 -60.5 -30.5t-56.5 -50.5q33 -8 58 -15.5t45.5 -17t38.5 -22t36 -29.5
v182z" />
    <glyph glyph-name="bn_t_tha" horiz-adv-x="1169" 
d="M417 952q-3 38 -16.5 68t-34 51t-46.5 32t-54 11q-33 0 -60.5 -5t-51.5 -16.5t-45 -31t-42 -47.5q10 4 23 10t26 11t24.5 9t19.5 4q42 0 66.5 -15t38 -35.5t17.5 -40.5t4 -30q0 -25 -11.5 -46t-29.5 -36.5t-41 -24.5t-46 -9q-33 0 -58.5 14.5t-43 37.5t-27 52.5
t-9.5 59.5q0 62 22 109.5t56.5 80t76.5 49t82 16.5q73 0 122 -37.5t74 -97.5q29 66 75 100.5t104 34.5q89 0 140.5 -66.5t51.5 -201.5q0 -130 -62 -232t-190 -169q40 -18 84.5 -45t90 -63.5t91 -83t87.5 -104.5v1181l124 -111v-105h130v-116h-130v-1114l-60 40
q-38 86 -97.5 160t-134.5 133t-164 101.5t-185 65.5l-148 162q54 1 111.5 12t113 30.5t105.5 46.5t87.5 60.5t59.5 73t22 82.5q0 36 -10.5 63.5t-28.5 46t-41 28t-47 9.5q-32 0 -57.5 -15.5t-44.5 -39t-31.5 -52t-18.5 -55.5h-63z" />
    <glyph glyph-name="bn_t_na" horiz-adv-x="1214" 
d="M1094 618v-768l-81 44q-6 31 -23.5 63.5t-45.5 59.5t-65 44.5t-82 17.5q-13 0 -28 -3t-29 -9q31 -6 51 -19.5t32 -31t16.5 -37.5t4.5 -38q0 -27 -10.5 -49.5t-28 -38.5t-38.5 -25t-42 -9q-31 0 -55.5 11t-42 29.5t-26.5 43t-9 52.5q0 45 19 80.5t51 59.5t73.5 37t86.5 13
q36 0 74.5 -13.5t73.5 -37.5v241q-58 -49 -129 -72t-137 -23q-100 0 -181 32.5t-146.5 88t-116.5 128t-89.5 153.5t-66 165t-47.5 161l58 -27q30 -110 79 -210t119 -176t160.5 -120.5t204.5 -44.5q67 0 121.5 18.5t92 50t58 73.5t20.5 90q0 46 -8.5 87t-32 77t-64.5 66
t-106 53q14 -18 29 -45.5t15 -57.5q0 -27 -13.5 -49.5t-35.5 -38.5t-48.5 -25t-51.5 -9q-24 0 -52 9.5t-52 28t-40 46.5t-16 65q0 34 15 62.5t41 49.5t60 32.5t73 11.5q96 0 172 -30t129 -80.5t81.5 -117t28.5 -139.5zM1224 1114h-1224v116h1224v-116z" />
    <glyph glyph-name="bn_t_ma" horiz-adv-x="1376" 
d="M0 1114v116h1386v-116h-130v-1205l-60 40q-64 81 -131.5 128t-127 72t-105 33t-65.5 11v-90q0 -42 -11.5 -75t-32 -56t-47 -35t-56.5 -12q-36 0 -67.5 10t-55 31t-36.5 54t-13 80q0 35 12.5 66.5t37 57t61 44t84.5 27.5v46q-103 4 -184.5 41t-145 96t-111 133.5t-82 154
t-59 158t-41.5 144.5l58 -27q30 -110 79 -210t119 -176t160.5 -120.5t204.5 -44.5q67 0 121.5 18.5t92 50t58 73.5t20.5 90q0 46 -8.5 87t-32 77t-64.5 66t-106 53q14 -18 29 -45.5t15 -57.5q0 -27 -13.5 -49.5t-35.5 -38.5t-48.5 -25t-51.5 -9q-24 0 -52 9.5t-52 28
t-40 46.5t-16 65q0 34 15 62.5t41 49.5t60 32.5t73 11.5q96 0 172 -30t129 -80.5t81.5 -117t28.5 -139.5q0 -82 -24.5 -144.5t-65 -107.5t-92.5 -73t-108 -41v-51q51 -5 97.5 -19.5t91 -39t88 -60t88.5 -82.5v1014h-1132z" />
    <glyph glyph-name="bn_t_la" horiz-adv-x="1214" 
d="M677 340q-90 0 -165.5 33t-138 89t-113 129.5t-89 154.5t-67 164t-47.5 158l58 -27q30 -110 79 -210t119 -176t160.5 -120.5t204.5 -44.5q67 0 121.5 18.5t92 50t58 73.5t20.5 90q0 46 -8.5 87t-32 77t-64.5 66t-106 53q14 -18 29 -45.5t15 -57.5q0 -27 -13.5 -49.5
t-35.5 -38.5t-48.5 -25t-51.5 -9q-24 0 -52 9.5t-52 28t-40 46.5t-16 65q0 34 15 62.5t41 49.5t60 32.5t73 11.5q96 0 172 -30t129 -80.5t81.5 -117t28.5 -139.5v-844l-124 80v33q-9 23 -21.5 46.5t-30 43t-40 31.5t-51.5 12q-38 0 -61.5 -19.5t-38 -48.5t-21.5 -64t-12 -66
h-50q-9 53 -29.5 90.5t-48 61.5t-60 35t-66.5 11q-25 0 -56 -4t-58.5 -16t-46.5 -35t-19 -62q0 -18 4 -35.5t12 -25.5q6 27 19 44.5t29.5 27t34 13t32.5 3.5q57 -3 93 -38.5t36 -95.5q0 -26 -11.5 -49t-31 -40t-45.5 -27t-56 -10q-36 0 -67.5 17t-54.5 48.5t-36 75t-13 96.5
q0 67 22 115t56.5 79.5t77 46.5t83.5 15q33 0 65.5 -12.5t62 -36.5t53.5 -59.5t39 -80.5q4 33 16.5 67t32 61t45.5 44t57 17q51 0 91.5 -38t63.5 -110v330q-60 -51 -136.5 -78t-156.5 -27zM1224 1114h-1224v116h1224v-116z" />
    <glyph glyph-name="bn_d_ga" horiz-adv-x="1680" 
d="M1436 1446l124 -111v-105h130v-116h-130v-1114l-124 80v734q-52 68 -96 118t-86 83t-86 49t-97 16q-36 0 -67 -10t-54 -28t-36 -43.5t-13 -56.5q0 -4 0.5 -11.5t2.5 -11.5q7 4 20 9.5t30 10t36.5 7.5t37.5 3q46 0 81.5 -14.5t60 -39.5t37 -58t12.5 -70q0 -34 -11.5 -71
t-29 -73.5t-38.5 -70.5t-41.5 -61.5t-37 -46.5t-24.5 -26l-109 105q58 46 96.5 90.5t61.5 84.5t32.5 72t9.5 53q0 31 -22 46.5t-57 15.5q-20 0 -43 -7.5t-47.5 -18.5t-48.5 -24.5t-44 -26.5q-54 -117 -75.5 -225.5t-21.5 -217.5q0 -47 3 -90t8 -87t13 -90t18 -98l-73 50
q-32 128 -53.5 242t-21.5 228q0 62 7 124.5t24 128.5q-50 -15 -112 -52t-124 -90.5t-118.5 -122t-95.5 -146.5l-124 159v593h-120v116h743v-116h-499v-491q42 58 99.5 111t121 97t128 76.5t120.5 47.5l44 -33q-1 6 -1 12v11q0 58 22.5 110t63 91t97.5 61.5t125 22.5
q54 0 104.5 -23.5t98 -62.5t90 -90t79.5 -107v499z" />
    <glyph glyph-name="bn_d_gha" horiz-adv-x="1729" 
d="M0 1230h1739v-116h-130v-1114l-60 40q-34 88 -86.5 155t-120 116t-147 81.5t-167.5 51.5l-145 149q36 25 77.5 56.5t82.5 66t80 69.5t71 68q-15 -8 -33 -14t-36.5 -11t-36 -7.5t-32.5 -2.5q-46 0 -87 13.5t-72 38.5q-30 -62 -54 -127t-40.5 -130t-25 -128t-8.5 -120
q0 -47 3 -90t8 -87t13 -90t18 -98l-73 50q-32 128 -53.5 242t-21.5 228q0 62 7 124.5t24 128.5q-50 -15 -112 -52t-124 -90.5t-118.5 -122t-95.5 -146.5l-124 159v593h-120v116zM1341 838q-35 -40 -62.5 -68.5t-54.5 -54t-57.5 -53t-73.5 -66.5q46 -14 100 -42t107 -69.5
t101.5 -96t83.5 -122.5v848h-435q-33 -23 -48 -49.5t-15 -60.5q0 -23 10.5 -43t28.5 -35t43 -23.5t54 -8.5q44 0 75.5 10t49.5 26zM244 623q24 43 64.5 86t91 83.5t108 76.5t115 65.5t112 50.5t99.5 32q3 27 15.5 52.5t35.5 44.5h-641v-491z" />
    <glyph glyph-name="bn_d_da" horiz-adv-x="1342" 
d="M1352 1114h-1108v-371q68 113 173.5 192.5t245.5 139.5l166 -122q-52 -104 -77 -200.5t-31 -193.5q34 48 77 93.5t93.5 85t108 72t122.5 55.5l166 -122q-62 -124 -86 -238.5t-24 -229.5q0 -47 3 -90t8 -87t13 -90t18 -98l-73 50q-32 128 -53.5 242t-21.5 228
q0 62 7 124.5t24 128.5q-47 -14 -96.5 -46.5t-98 -79.5t-95 -107.5t-85.5 -129.5q5 -48 13.5 -96t19.5 -104l-73 50q-32 128 -53.5 242t-21.5 228q0 62 7 124.5t24 128.5q-50 -15 -104 -52t-106.5 -90.5t-101.5 -122t-88 -146.5l-124 159v473h-120v116h1352v-116z" />
    <glyph glyph-name="bn_d_d_ba" horiz-adv-x="1342" 
d="M1184 -221q-45 51 -98 87t-108 59.5t-108.5 37t-101.5 20.5l-24 80q28 27 65.5 56.5t81.5 58t92.5 53t99.5 42.5q-3 51 -3 108q0 78 6 157.5t17 144.5q-47 -14 -96.5 -46.5t-98 -79.5t-95 -107.5t-85.5 -129.5q5 -48 13.5 -96t19.5 -104l-73 50q-32 128 -53.5 242
t-21.5 228q0 62 7 124.5t24 128.5q-50 -15 -104 -52t-106.5 -90.5t-101.5 -122t-88 -146.5l-124 159v473h-120v116h1352v-116h-1108v-371q68 113 173.5 192.5t245.5 139.5l166 -122q-52 -104 -77 -200.5t-31 -193.5q34 48 77 93.5t93.5 85t108 72t122.5 55.5l166 -122
q-16 -47 -25 -103t-13 -115t-5 -119t-1 -116v-551zM926 29q64 -20 112.5 -58.5t81.5 -83.5v247q-54 -11 -102 -34t-92 -71z" />
    <glyph glyph-name="bn_d_d_ra" horiz-adv-x="1342" 
d="M1115 167q-16 85 -25.5 162t-9.5 152q0 51 5.5 101t17.5 101q-47 -14 -96.5 -46.5t-98 -79.5t-95 -107.5t-85.5 -129.5q5 -48 13.5 -96t19.5 -104l-73 50q-32 128 -53.5 242t-21.5 228q0 62 7 124.5t24 128.5q-50 -15 -104 -52t-106.5 -90.5t-101.5 -122t-88 -146.5
l-124 159v473h-120v116h1352v-116h-1108v-371q68 113 173.5 192.5t245.5 139.5l166 -122q-52 -104 -77 -200.5t-31 -193.5q34 48 77 93.5t93.5 85t108 72t122.5 55.5l166 -122q-36 -76 -48 -152t-12 -154q0 -75 5.5 -151t5.5 -153v-314l-64 40q-47 50 -103.5 67t-116.5 17
q-57 0 -114.5 -7.5t-111.5 -7.5q-75 0 -134.5 21t-101 58.5t-63.5 89t-22 112.5q0 41 10 84t31 89l41 -41q-9 -24 -13 -45t-4 -40q0 -51 27 -83t69 -50t93.5 -24t101.5 -6h44q50 0 96 -3t86 -15t71.5 -36.5t53.5 -68.5v197z" />
    <glyph glyph-name="bn_d_dha" horiz-adv-x="1217" 
d="M766 -45l-63 36q-54 56 -118 93t-123 60.5t-105 35t-63 16.5l-120 135q43 48 90 94t104 88.5t127.5 80t159.5 66.5q2 60 5.5 106t7.5 74q-45 -2 -92.5 -10t-99.5 -31t-109.5 -66.5t-122.5 -115.5l-124 96v401h-120v116h1227v-116h-983v-312q107 102 221.5 153.5
t229.5 68.5l166 -122q-11 -23 -21 -45t-18 -47t-15 -54.5t-13 -66.5q126 21 261 21l45 -91q-19 -48 -32 -112t-13 -133q0 -72 9 -150.5t34 -150.5l-110 -73q-13 40 -22 74t-14.5 63.5t-8 57t-2.5 56.5q0 41 2.5 78t9.5 73t19.5 73t31.5 79q-59 -1 -115 -5.5t-111 -14.5
q-7 -97 -9.5 -237t-2.5 -342zM355 287q36 -11 75.5 -28.5t77.5 -40.5t73 -50.5t63 -58.5q0 104 1.5 205.5t3.5 189.5q-54 -20 -99.5 -46t-82 -55t-65 -58.5t-47.5 -57.5z" />
    <glyph glyph-name="bn_d_dh_ba" horiz-adv-x="1217" 
d="M766 -217l-39 22q-25 33 -62 63.5t-83 54t-98 38t-106 14.5l-51 107q63 62 132 106q-62 19 -117 24.5t-97 5.5q-29 0 -50 -1t-34 -1l-120 135q114 118 270.5 197t342.5 120q3 57 6.5 100t7.5 72q-45 -2 -92.5 -10t-99.5 -31t-109.5 -66.5t-122.5 -115.5l-124 96v401h-120
v116h1227v-116h-983v-312q107 102 221.5 153.5t229.5 68.5l166 -122q-13 -26 -23.5 -48t-19 -45.5t-15.5 -51.5t-13 -65q129 18 265 18l45 -91q-19 -48 -32 -112t-13 -133q0 -72 9 -150.5t34 -150.5l-110 -73q-13 40 -22 74t-14.5 63.5t-8 57t-2.5 56.5q0 41 2.5 78t9.5 73
t19.5 73t31.5 79q-59 -1 -116 -4t-112 -11q-5 -75 -7.5 -178.5t-2.5 -244.5v-333zM243 315q33 -4 69.5 -5.5t76 -7.5t82 -19.5t87.5 -41.5q41 19 86 33q0 67 1 127.5t3 114.5q-117 -27 -218.5 -76.5t-186.5 -124.5zM610 119q-35 -11 -73 -31.5t-71 -58.5q33 -8 58 -15.5
t45.5 -17t38.5 -22t36 -29.5v150z" />
    <glyph glyph-name="bn_d_na" horiz-adv-x="933" 
d="M395 245q-20 0 -47.5 -3.5t-56.5 -13t-56 -27.5t-47 -47q16 9 45.5 16.5t57.5 7.5q23 0 46 -9t41 -26t29.5 -41.5t11.5 -56.5q0 -28 -11.5 -51t-31.5 -39.5t-46.5 -25.5t-56.5 -9q-36 0 -66.5 13t-52 37.5t-33.5 59.5t-12 78q0 58 24 107t63.5 84.5t90.5 55.5t106 20
q56 0 105 -23.5t89.5 -57t72.5 -70.5t53 -65q-10 53 -18.5 111t-15 117.5t-10 118t-3.5 113.5q0 75 7 144t21 130q-50 -15 -112 -52t-124 -90.5t-118.5 -122t-95.5 -146.5l-124 159v473h-120v116h943v-116h-699v-371q42 58 99.5 111t121 97t128 76.5t120.5 47.5l166 -122
q-27 -57 -46 -124.5t-31 -140t-17.5 -149.5t-5.5 -154q0 -131 12.5 -253.5t32.5 -222.5l-60 40q-25 52 -63.5 105t-86.5 95.5t-103.5 69t-115.5 26.5z" />
    <glyph glyph-name="bn_d_bha" horiz-adv-x="1295" 
d="M721 -181q-120 0 -217 49.5t-174.5 133t-136 194t-100.5 233t-68 250t-39 243.5l65 -34q5 -47 18 -112t34.5 -138.5t52.5 -151.5t72 -152.5t92.5 -140.5t114.5 -116t137.5 -79t162.5 -29q92 0 164 23t121.5 60.5t75 86t25.5 99.5q0 26 -10.5 50.5t-24.5 40.5
q-74 -103 -160.5 -158t-186.5 -55q-48 0 -87 13t-66.5 36.5t-43 56.5t-15.5 73q0 31 10.5 58t29 47t44 31.5t55.5 11.5q22 0 45.5 -9t42 -26t30.5 -40.5t12 -53.5q0 -18 -6 -37.5t-18 -38t-30 -34t-42 -24.5q49 2 90 17.5t75 39.5t61 54t48 61q-30 33 -54 89t-40.5 119.5
t-25.5 127t-9 111.5q0 19 1 37t4 37q-38 -12 -87.5 -48.5t-101 -91t-102 -124t-89.5 -147.5l-124 159v493h-346v116h1305v-116h-835v-391q41 62 92 114.5t106 95t110.5 73.5t105.5 49l151 -122q-29 -59 -43.5 -119.5t-14.5 -119.5q0 -24 2 -62.5t6.5 -79t11.5 -77.5t16 -56
q15 30 24.5 53.5t13.5 36.5q36 -27 63 -62t45 -72t27 -73t9 -65q0 -72 -19.5 -130.5t-53.5 -105t-80 -81t-99 -57t-109.5 -33.5t-112.5 -11z" />
    <glyph glyph-name="bn_d_bh_ra" horiz-adv-x="1270" 
d="M1150 -181l-64 40q-23 25 -58.5 41.5t-74.5 26t-78 13t-69 3.5q-29 0 -70 -2.5t-84.5 -5t-84 -5t-67.5 -2.5q-75 0 -134.5 21t-101 58.5t-63.5 89t-22 112.5q0 41 10 84t31 89l41 -41q-9 -24 -13 -45t-4 -40q0 -51 27 -83t69 -50t93.5 -24t101.5 -6h124q50 0 105.5 -3
t106.5 -15t92 -36.5t63 -68.5v414q0 18 -7.5 25.5l-9.5 9.5q-16 -50 -41.5 -85.5t-56 -59.5t-64 -38t-65.5 -21.5t-61 -9.5t-49 -2q-59 0 -107 17t-81.5 46.5t-52 69.5t-18.5 86q0 35 12 65t33.5 51.5t50 34t61.5 12.5q31 0 58.5 -11t48.5 -30.5t33 -46t12 -57.5
q0 -58 -33.5 -99.5t-82.5 -60.5q43 2 81 15t70 34t58.5 47t48.5 55q-54 66 -83.5 151.5t-29.5 176.5q0 19 0.5 41.5t3.5 41.5q-41 -3 -96 -19t-116 -51.5t-122.5 -93.5t-114.5 -146l-124 159v423h-182v116h1280v-116h-974v-321q54 56 118.5 95.5t128.5 65.5t122 40.5
t100 20.5l166 -122q-29 -59 -43.5 -119.5t-14.5 -119.5q0 -41 6.5 -79.5t20.5 -73.5q23 40 36 73t18 48q37 -18 71 -51t59.5 -73.5t40.5 -86t15 -88.5v-504z" />
    <glyph glyph-name="bn_d_ma" horiz-adv-x="1174" 
d="M994 -51q-51 106 -106 164t-110.5 86t-110.5 33.5t-107 5.5q-24 0 -51 -4t-54 -12t-52.5 -22t-44.5 -33q28 13 53 19t46 6q35 0 61 -13.5t43.5 -34t26 -45.5t8.5 -48q0 -26 -11.5 -49t-31 -40t-45.5 -27t-56 -10q-36 0 -67.5 13.5t-54.5 39t-36 62t-13 83.5q0 67 28 116
t69.5 81t90.5 47.5t91 15.5q15 0 30 -1t29 -3q-6 60 -6 117q0 74 13 144t44 143q-50 -15 -110.5 -50.5t-119.5 -85.5t-111 -113t-85 -132l-124 159v553h-120v116h1184v-116h-130v-1205zM930 174v940h-686v-451q33 48 83.5 94t109 85t119.5 68.5t117 44.5l166 -122
q-19 -40 -35.5 -72t-29.5 -62.5t-23.5 -62.5t-18 -71.5t-13 -90t-8.5 -117.5q80 -29 136 -79t83 -104z" />
    <glyph glyph-name="bn_dh_na" horiz-adv-x="914" 
d="M670 903q-63 -10 -120 -34t-103.5 -51.5t-80 -54t-50.5 -41.5q36 -15 85 -48.5t99.5 -80t96 -104.5t73.5 -123v537zM734 -51q-34 62 -75.5 117.5t-89.5 97t-102.5 65.5t-114.5 24q-20 0 -47.5 -3.5t-56.5 -13t-56 -27.5t-47 -47q16 9 45.5 16.5t57.5 7.5q23 0 46 -9
t41 -26t29.5 -41.5t11.5 -56.5q0 -28 -11.5 -51t-31.5 -39.5t-46.5 -25.5t-56.5 -9q-36 0 -66.5 13t-52 37.5t-33.5 59.5t-12 78q0 58 24 107t63.5 84.5t90.5 55.5t106 20q56 0 105 -23.5t89.5 -57t72.5 -70.5t53 -65v103q-77 126 -194.5 217.5t-274.5 143.5l-154 98
q38 38 75 69t82 60q-63 25 -103 74t-40 124q0 34 12 65.5t33 55.5t50 38.5t62 14.5q28 0 52.5 -10.5t42.5 -28.5t28.5 -41.5t10.5 -49.5q0 -27 -12 -51t-30.5 -41t-42 -27t-47.5 -10q-21 0 -43.5 9t-42.5 35q14 -51 50.5 -82.5t84.5 -36.5q94 64 193 99.5t208 58.5v176h254
v-116h-130v-1205z" />
    <glyph glyph-name="bn_dh_ma" horiz-adv-x="1202" 
d="M642 1230h570v-116h-130v-1205l-60 40q-51 75 -90 121.5t-69 72.5t-53.5 36.5t-43.5 13.5v-90q0 -42 -11.5 -75t-32 -56t-47 -35t-56.5 -12q-36 0 -67.5 10t-55 31t-36.5 54t-13 80q0 35 12.5 67t37 58t61 45t84.5 28v35q-81 121 -203.5 194t-265.5 104l-154 98
q21 19 39.5 35.5t36.5 31t37 28t42 26.5q-63 25 -102 78t-39 128q0 34 12 65.5t33 55.5t50 38.5t62 14.5q28 0 52.5 -10.5t42.5 -28.5t28.5 -41.5t10.5 -49.5q0 -27 -12 -51t-30.5 -41t-42 -27t-47.5 -10q-21 0 -43.5 9t-42.5 35q14 -51 52.5 -84.5t86.5 -38.5
q94 64 191 101.5t206 60.5v176zM766 289q25 -3 52.5 -18.5t53.5 -38t48.5 -50.5t37.5 -57v989h-192v-825zM642 903q-63 -10 -118.5 -32.5t-100 -48.5t-76.5 -51t-49 -40q17 -8 44 -20.5t59 -30.5t66.5 -42.5t67 -54.5t60.5 -67t47 -80v467z" />
    <glyph glyph-name="bn_n_tta" horiz-adv-x="1484" 
d="M717 691v423h-717v116h1118q30 16 43.5 35.5t13.5 33.5q0 30 -23 46.5t-60.5 25t-85.5 13t-97.5 10t-97.5 16t-85.5 31.5t-60.5 55.5t-23 89.5q0 25 13.5 55t44.5 57l36 -28q-25 -21 -30.5 -37.5t-5.5 -30.5q0 -27 25.5 -42.5t67 -24.5t94 -13.5t107.5 -10.5t108 -16
t94.5 -29.5t66.5 -50.5t25 -80q0 -18 -6 -33.5t-15 -28.5t-20 -23.5t-21 -19.5h268v-116h-653v-672q0 -23 6.5 -43.5t19.5 -36t31 -25t42 -9.5q35 0 75 13t80 36t77 54t65.5 67t45.5 75t17 78q0 5 -2 13q-34 -35 -66.5 -50.5t-62.5 -15.5q-32 0 -59 12t-46.5 32t-31 47
t-11.5 56q0 33 11.5 62t32 51t47.5 35t59 13q58 0 95.5 -26t59.5 -65.5t30 -87.5t8 -92q0 -117 -41 -207t-105 -151.5t-141.5 -93t-150.5 -31.5q-11 0 -31 3.5t-43 13t-47 26.5t-43.5 44t-32 65t-12.5 90q0 50 -17.5 108.5t-47 117t-68.5 113t-82 96.5t-88 67t-86 25
q-15 0 -33 -5q32 -20 52 -56t20 -84q0 -26 -12 -53t-33.5 -49t-51.5 -35.5t-65 -13.5q-31 0 -63.5 10.5t-59.5 34t-44.5 59.5t-17.5 87q0 55 22.5 98t58.5 72t82 44t93 15q58 0 109.5 -16.5t95.5 -44t81.5 -64t67 -75.5t51.5 -79t36 -75z" />
    <glyph glyph-name="bn_n_tt_ra" horiz-adv-x="1494" 
d="M727 1114h-727v116h1128q30 16 43.5 35.5t13.5 33.5q0 30 -23 46.5t-60.5 25t-85.5 13t-97.5 10t-97.5 16t-85.5 31.5t-60.5 55.5t-23 89.5q0 25 13.5 55t44.5 57l36 -28q-25 -21 -30.5 -37.5t-5.5 -30.5q0 -27 25.5 -42.5t67 -24.5t94 -13.5t107.5 -10.5t108 -16
t94.5 -29.5t66.5 -50.5t25 -80q0 -18 -6 -33.5t-15 -28.5t-20 -23.5t-21 -19.5h268v-116h-653v-672q0 -23 6.5 -43.5t19.5 -36t31 -25t42 -9.5q35 0 75 13t80 36t77 54t65.5 67t45.5 75t17 78q0 5 -2 13q-34 -35 -66.5 -50.5t-62.5 -15.5q-32 0 -59 12t-46.5 32t-31 47
t-11.5 56q0 33 11.5 62t32 51t47.5 35t59 13q58 0 95.5 -26t59.5 -65.5t30 -87.5t8 -92q0 -117 -41 -207t-105 -151.5t-141.5 -93t-150.5 -31.5q-13 0 -36 3t-49 14v-200l-64 40q-47 50 -103.5 67t-116.5 17q-57 0 -114.5 -7.5t-111.5 -7.5q-75 0 -134.5 21t-101 58.5
t-63.5 89t-22 112.5q0 41 10 84t31 89l41 -41q-9 -24 -13 -45t-4 -40q0 -51 27 -83t69 -50t93.5 -24t101.5 -6h44q50 0 96 -3t86 -15t71.5 -36.5t53.5 -68.5v423q-35 79 -85 147t-107 118t-116.5 79t-113.5 29q32 -20 52 -56t20 -84q0 -26 -12 -53t-33.5 -49t-51.5 -35.5
t-65 -13.5q-31 0 -63.5 10.5t-59.5 34t-44.5 59.5t-17.5 87q0 55 22.5 98t58.5 72t82 44t93 15q58 0 109.5 -16t95.5 -43t81.5 -62t67 -73.5t51.5 -78t36 -74.5v416z" />
    <glyph glyph-name="bn_n_ttha" horiz-adv-x="1294" 
d="M0 1114v116h713q-34 46 -63.5 93t-51.5 93.5t-34.5 93.5t-12.5 95q0 64 26 128.5t87 131.5l130 -96q-56 -54 -80 -108.5t-24 -111.5q0 -77 37.5 -157t93.5 -162h483v-116h-401q49 -67 98 -141.5t88 -152.5t63.5 -158t24.5 -158q0 -81 -21 -154.5t-66.5 -130t-116 -89.5
t-169.5 -33q-74 0 -142.5 27.5t-121 75t-84 112t-31.5 138.5q0 59 16 106q66 36 120.5 79t94.5 93q-36 39 -74 73.5t-78 60t-80 40t-80 14.5h-16.5t-16.5 -2q32 -20 52 -56t20 -84q0 -26 -12 -53t-33.5 -49t-51.5 -35.5t-65 -13.5q-31 0 -63.5 10.5t-59.5 34t-44.5 59.5
t-17.5 87q0 55 21 98t56 72t80.5 44t93.5 15q55 0 106 -17t100 -50t98 -82.5t100 -114.5q25 43 38.5 89.5t13.5 98.5q0 35 -6 72t-20 75h-717zM566 465q1 -44 23.5 -82t55.5 -66t71.5 -44.5t72.5 -16.5q71 0 123.5 21t87 59t51.5 91.5t17 118.5q0 55 -18.5 119t-48.5 128.5
t-67.5 125t-75.5 108.5q11 -49 11 -94q0 -67 -20.5 -132.5t-59 -126.5t-95 -114t-128.5 -95z" />
    <glyph glyph-name="bn_n_dda" horiz-adv-x="1539" 
d="M822 870v244h-822v116h1550v-116h-604v-402q0 -26 21 -26q15 0 46.5 16t69 47.5t74.5 77t63 105.5q52 -39 89.5 -84.5t62 -95t36 -100.5t11.5 -100q0 -63 -20 -116.5t-53.5 -96.5t-79 -76t-96 -55t-104 -33t-103.5 -11q-158 0 -284 45.5t-224.5 120t-171 170.5
t-125 196.5t-86 197.5t-52.5 174l64 -29q27 -84 68.5 -170.5t97.5 -168t128 -153t160.5 -124.5t194.5 -84t230 -31q83 0 152.5 22t120 61.5t78.5 95.5t28 125q0 37 -11 78t-46 79q-32 -61 -72.5 -108t-82.5 -79t-83.5 -48.5t-75.5 -16.5q-41 0 -69.5 14.5t-46 41.5
t-25.5 66.5t-8 89.5v8q-19 49 -45.5 88t-57.5 66t-65.5 41t-69.5 14q33 -22 54.5 -59.5t21.5 -85.5q0 -26 -12 -50t-33.5 -42.5t-50.5 -29.5t-63 -11q-33 0 -63 13.5t-53.5 38.5t-37.5 60.5t-14 79.5q0 45 17.5 83.5t47.5 66t69 43t82 15.5q58 0 104.5 -20.5t81 -50.5
t56.5 -64.5t31 -62.5z" />
    <glyph glyph-name="bn_n_dd_ra" horiz-adv-x="1426" 
d="M1094 -225l-64 40q-34 36 -73 45.5t-81 9.5q-78 0 -149 -8t-143 -8q-75 0 -134.5 25.5t-101 68.5t-63.5 99.5t-22 117.5q0 41 10 84t31 89l41 -41q-9 -24 -13 -45t-4 -40q0 -51 27 -88t69 -60t93.5 -34t101.5 -11h44q29 0 57 1t54 1q32 0 61 -3t53.5 -13t45.5 -29t36 -50
v238h-7q-158 0 -284 45.5t-224.5 120t-171 170.5t-125 196.5t-86 197.5t-52.5 174l64 -29q27 -84 68.5 -170.5t97.5 -168t128 -153t160.5 -124.5t194.5 -84t230 -31q83 0 152.5 22t120 61.5t78.5 95.5t28 125q0 37 -11 78t-46 79q-32 -61 -72.5 -108t-82.5 -79t-83.5 -48.5
t-75.5 -16.5q-41 0 -69.5 14.5t-46 41.5t-25.5 66.5t-8 89.5v8q-19 49 -45.5 88t-57.5 66t-65.5 41t-69.5 14q33 -22 54.5 -59.5t21.5 -85.5q0 -26 -12 -50t-33.5 -42.5t-50.5 -29.5t-63 -11q-33 0 -63 13.5t-53.5 38.5t-37.5 60.5t-14 79.5q0 45 17.5 83.5t47.5 66t69 43
t82 15.5q58 0 104.5 -20.5t81 -50.5t56.5 -64.5t31 -62.5v244h-822v116h1550v-116h-604v-402q0 -26 21 -26q15 0 46.5 16t69 47.5t74.5 77t63 105.5q52 -39 89.5 -84.5t62 -95t36 -100.5t11.5 -100q0 -75 -27.5 -136t-73 -107.5t-104 -78.5t-120.5 -48v-407z" />
    <glyph glyph-name="bn_n_ddha" horiz-adv-x="1484" 
d="M717 543q-35 79 -85 147t-107 118t-116.5 79t-113.5 29q32 -20 52 -56t20 -84q0 -26 -12 -53t-33.5 -49t-51.5 -35.5t-65 -13.5q-31 0 -63.5 10.5t-59.5 34t-44.5 59.5t-17.5 87q0 55 22.5 98t58.5 72t82 44t93 15q58 0 109.5 -16t95.5 -43t81.5 -62t67 -73.5t51.5 -78
t36 -74.5v416h-717v116h1494v-116h-653v-672q0 -23 6.5 -43.5t19.5 -36t31 -25t42 -9.5q35 0 75 13t80 36t77 54t65.5 67t45.5 75t17 78q0 5 -2 13q-34 -35 -66.5 -50.5t-62.5 -15.5q-32 0 -59 12t-46.5 32t-31 47t-11.5 56q0 33 11.5 62t32 51t47.5 35t59 13q58 0 95.5 -26
t59.5 -65.5t30 -87.5t8 -92q0 -117 -41 -207t-105 -151.5t-141.5 -93t-150.5 -31.5q-11 0 -31 2.5t-43 11t-47 24.5t-43.5 42.5t-32 66.5t-12.5 95v149z" />
    <glyph glyph-name="bn_n_ta" horiz-adv-x="1384" 
d="M891 1114h-891v116h1394v-116h-379v-435q61 -14 107.5 -47t78 -75.5t47.5 -90.5t16 -91q0 -93 -34.5 -163t-93.5 -117t-137 -71t-164 -24q-104 0 -192.5 31.5t-162.5 85.5t-134.5 126t-108.5 153t-85 167t-63.5 168t-43 155t-25.5 129l58 -27q11 -47 29 -107.5t44 -128.5
t60.5 -138.5t79 -137.5t99.5 -126.5t122.5 -103.5t147.5 -70t174 -26q84 0 142.5 20t94.5 54.5t52.5 80.5t16.5 98q0 24 -7 56t-25 63.5t-49 57t-79 37.5q20 -24 31.5 -47.5t11.5 -53.5q0 -27 -11.5 -48t-30.5 -35t-42.5 -21.5t-47.5 -7.5q-29 0 -54 10t-44 28.5t-30 44
t-11 56.5q0 20 7.5 41t23 40t39 34t56.5 23q-38 53 -82 97t-90 75.5t-92 49t-88 17.5q35 -23 52.5 -59.5t17.5 -78.5q0 -26 -11 -51t-31.5 -44.5t-49 -31.5t-63.5 -12q-31 0 -61 13.5t-54 38t-38.5 60.5t-14.5 81q0 51 20 90.5t54 66.5t77.5 41t90.5 14q64 0 120 -19.5
t103 -51t85.5 -72.5t67.5 -84v293z" />
    <glyph glyph-name="bn_n_t_ba" horiz-adv-x="1374" 
d="M1264 224v-492l-39 22q-25 33 -62 63.5t-83 54t-98 38t-106 14.5l-51 107l19 19q-105 0 -194.5 29.5t-164 80t-136 118t-110.5 144t-86 157.5t-63.5 159.5t-43.5 149.5t-26 127l58 -27q15 -62 43 -144.5t71.5 -170.5t103.5 -172.5t138.5 -151.5t177.5 -108t221 -41
q64 0 120.5 12t98.5 37t66 63.5t24 90.5q0 26 -7 58t-25.5 63t-50 56t-79.5 37q20 -24 31.5 -47.5t11.5 -53.5q0 -27 -11.5 -48t-30.5 -35t-42.5 -21.5t-47.5 -7.5q-29 0 -54 10t-44 28.5t-30 44t-11 56.5q0 20 7.5 41t23 40t39 34t56.5 23q-38 53 -82 97t-90 75.5t-92 49
t-88 17.5q35 -23 52.5 -59.5t17.5 -78.5q0 -26 -11 -51t-31.5 -44.5t-49 -31.5t-63.5 -12q-31 0 -61 13.5t-54 38t-38.5 60.5t-14.5 81q0 51 20 90.5t54 66.5t77.5 41t90.5 14q64 0 120 -19.5t103 -51t85.5 -72.5t67.5 -84v293h-891v116h1394v-116h-379v-435
q61 -14 107.5 -47t78 -75.5t47.5 -90.5t16 -91q0 -45 -9 -82.5t-26 -68.5h35zM1142 76q-41 -8 -88.5 -29t-89.5 -69q33 -8 58 -15.5t45.5 -17t38.5 -22t36 -29.5v182z" />
    <glyph glyph-name="bn_n_t_ra" horiz-adv-x="996" 
d="M752 1114h-752v116h1005v-116h-129v-1360l-64 40q-27 31 -59 51.5t-68 31.5t-75 15.5t-79 4.5q-34 0 -54 -2t-36.5 -5t-35 -5t-49.5 -2q-75 0 -134.5 21t-101 58.5t-63.5 89t-22 112.5q0 41 10 84t31 89l41 -41q-9 -24 -13 -45t-4 -40q0 -51 27 -83t69 -50t93.5 -24
t101.5 -6h27q51 0 100.5 -4t93.5 -18.5t80 -43t60 -77.5v553q0 46 -32 65t-84 19q-31 0 -72 -4.5t-87.5 -23t-95 -56t-94.5 -102.5q41 42 76 57t70 15t61 -12.5t43.5 -32t26.5 -44.5t9 -49q0 -34 -13 -60t-34.5 -43t-50.5 -26t-61 -9q-41 0 -73.5 14.5t-55 38.5t-34.5 55.5
t-12 66.5q0 48 18 93.5t49.5 85t73.5 72t90.5 56t100.5 36.5t103 14q-37 52 -80 95.5t-88 75t-90 48.5t-86 17q32 -20 52 -56t20 -84q0 -26 -12 -53t-33.5 -49t-51.5 -35.5t-65 -13.5q-31 0 -63.5 10.5t-59.5 34t-44.5 59.5t-17.5 87q0 55 22.5 98t58.5 72t82 44t93 15
q58 0 109.5 -16t95.5 -43t81.5 -62t67 -73.5t51.5 -78t36 -74.5v412z" />
    <glyph glyph-name="bn_n_tha" horiz-adv-x="1286" 
d="M1106 -181q-53 59 -108.5 104.5t-119 79t-136.5 56t-159 35.5l-69 134q45 0 97.5 4t104 13.5t99 25.5t84 39.5t58.5 56t22 75.5q0 42 -20 75t-51.5 55.5t-70.5 34.5t-77 12q-26 0 -53.5 -4.5t-54.5 -16t-51.5 -31t-43.5 -50.5q10 6 23 12.5t26 11t24.5 7.5t19.5 3
q42 0 66.5 -15t38 -35.5t17.5 -40.5t4 -30q0 -25 -11.5 -46t-29.5 -36.5t-41 -24.5t-46 -9q-33 0 -58.5 14.5t-43 37.5t-27 52.5t-9.5 59.5q0 78 35.5 135t90.5 89q-37 56 -79.5 98.5t-87 71.5t-89 43.5t-85.5 14.5q32 -20 52 -56t20 -84q0 -26 -12 -53t-33.5 -49
t-51.5 -35.5t-65 -13.5q-31 0 -63.5 10.5t-59.5 34t-44.5 59.5t-17.5 87q0 55 22.5 98t58.5 72t82 44t93 15q72 0 133.5 -24t112 -62.5t89.5 -86t67 -95.5v323h-678v116h1296v-116h-494v-383q53 -6 97.5 -33.5t76.5 -68t50 -91t18 -102.5q0 -65 -15.5 -112t-45.5 -81.5
t-73.5 -59t-99.5 -43.5q76 -34 153 -96.5t143 -147.5v-77z" />
    <glyph glyph-name="bn_n_da" horiz-adv-x="1530" 
d="M717 1114h-717v116h1540v-116h-699v-491q42 58 99.5 111t121 97t128 76.5t120.5 47.5l166 -122q-62 -124 -86 -238.5t-24 -229.5q0 -47 3 -90t8 -87t13 -90t18 -98l-73 50q-32 128 -53.5 242t-21.5 228q0 62 7 124.5t24 128.5q-50 -15 -112 -52t-124 -90.5t-118.5 -122
t-95.5 -146.5l-124 159v22q-35 79 -85 147t-107 118t-116.5 79t-113.5 29q32 -20 52 -56t20 -84q0 -26 -12 -53t-33.5 -49t-51.5 -35.5t-65 -13.5q-31 0 -63.5 10.5t-59.5 34t-44.5 59.5t-17.5 87q0 55 22.5 98t58.5 72t82 44t93 15q58 0 109.5 -16t95.5 -43t81.5 -62
t67 -73.5t51.5 -78t36 -74.5v416z" />
    <glyph glyph-name="bn_n_d_ba" horiz-adv-x="1530" 
d="M1084 150q64 -20 112.5 -58.5t81.5 -83.5v247q-54 -11 -102 -34t-92 -71zM717 543q-35 79 -85 147t-107 118t-116.5 79t-113.5 29q32 -20 52 -56t20 -84q0 -26 -12 -53t-33.5 -49t-51.5 -35.5t-65 -13.5q-31 0 -63.5 10.5t-59.5 34t-44.5 59.5t-17.5 87q0 55 22.5 98
t58.5 72t82 44t93 15q58 0 109.5 -16t95.5 -43t81.5 -62t67 -73.5t51.5 -78t36 -74.5v416h-717v116h1540v-116h-699v-491q42 58 99.5 111t121 97t128 76.5t120.5 47.5l135 -100q-16 -36 -25 -73t-13 -76.5t-4.5 -84t-0.5 -96.5v-665l-60 40q-45 51 -98 87t-108 59.5
t-108.5 37t-101.5 20.5l-24 80q30 30 72 62.5t91 62.5t103 55.5t110 40.5v120q0 62 1.5 126t11.5 122q-50 -15 -112 -52t-124 -90.5t-118.5 -122t-95.5 -146.5l-124 159v22z" />
    <glyph glyph-name="bn_n_d_ra" horiz-adv-x="1530" 
d="M717 1114h-717v116h1540v-116h-699v-491q42 58 99.5 111t121 97t128 76.5t120.5 47.5l131 -96q-27 -56 -40.5 -131t-13.5 -146v-763l-64 40q-47 50 -103.5 67t-116.5 17q-57 0 -114.5 -7.5t-111.5 -7.5q-75 0 -134.5 21t-101 58.5t-63.5 89t-22 112.5q0 41 10 84t31 89
l41 -41q-9 -24 -13 -45t-4 -40q0 -51 27 -83t69 -50t93.5 -24t101.5 -6h44q50 0 96 -3t86 -15t71.5 -36.5t53.5 -68.5v547q0 24 1 54.5t4 64t8.5 68.5t14.5 69q-50 -15 -112 -52t-124 -90.5t-118.5 -122t-95.5 -146.5l-124 159v22q-35 79 -85 147t-107 118t-116.5 79
t-113.5 29q32 -20 52 -56t20 -84q0 -26 -12 -53t-33.5 -49t-51.5 -35.5t-65 -13.5q-31 0 -63.5 10.5t-59.5 34t-44.5 59.5t-17.5 87q0 55 22.5 98t58.5 72t82 44t93 15q58 0 109.5 -16t95.5 -43t81.5 -62t67 -73.5t51.5 -78t36 -74.5v416z" />
    <glyph glyph-name="bn_n_dha" horiz-adv-x="1281" 
d="M696 731v383h-696v116h1291v-116h-473v-430q142 26 289 26l45 -91q-19 -48 -32 -112t-13 -133q0 -72 9 -150.5t34 -150.5l-110 -73q-13 40 -22 74t-14.5 63.5t-8 57t-2.5 56.5q0 41 2.5 78t9.5 73t19.5 73t31.5 79q-62 -1 -121.5 -6t-116.5 -16v-577l-63 36
q-52 52 -107.5 86t-110 54.5t-105.5 31t-94.5 14.5t-75.5 5.5t-49 3.5l-120 135q106 110 248.5 192.5t312.5 132.5q-38 57 -82 104t-91.5 81.5t-95 53.5t-90.5 19q32 -20 52 -56t20 -84q0 -26 -12 -53t-33.5 -49t-51.5 -35.5t-65 -13.5q-31 0 -63.5 10.5t-59.5 34
t-44.5 59.5t-17.5 87q0 55 22.5 98t58.5 72t82 44t93 15q78 0 143.5 -28t118.5 -72t92.5 -97.5t65.5 -104.5zM295 285q40 -5 85.5 -11t96 -23t105.5 -48.5t114 -86.5v387q-115 -34 -216 -88.5t-185 -129.5z" />
    <glyph glyph-name="bn_n_dh_ba" horiz-adv-x="1281" 
d="M818 -217l-39 22q-25 33 -62 63.5t-83 54t-98 38t-106 14.5l-51 107q69 69 147 115q-87 29 -166 35t-145 6l-106 128q106 114 240 185.5t294 109.5q-37 54 -80.5 98.5t-89 77t-91 50t-87.5 17.5q32 -20 52 -56t20 -84q0 -26 -12 -53t-33.5 -49t-51.5 -35.5t-65 -13.5
q-31 0 -63.5 10.5t-59.5 34t-44.5 59.5t-17.5 87q0 55 22.5 98t58.5 72t82 44t93 15q78 0 143.5 -28t118.5 -72t92.5 -97.5t65.5 -104.5v383h-696v116h1291v-116h-473v-422q138 18 289 18l45 -91q-19 -48 -32 -112t-13 -133q0 -72 9 -150.5t34 -150.5l-110 -73
q-13 40 -22 74t-14.5 63.5t-8 57t-2.5 56.5q0 41 2.5 78t9.5 73t19.5 73t31.5 79q-62 -1 -121.5 -4t-116.5 -10v-757zM292 330q33 -2 69.5 -6.5t76 -14t82 -26t86.5 -43.5q22 10 44.5 18t45.5 16v247q-116 -24 -218 -70t-186 -121zM696 127q-41 -8 -88.5 -29t-89.5 -69
q33 -8 58 -15.5t45.5 -17t38.5 -22t36 -29.5v182z" />
    <glyph glyph-name="bn_n_dh_ra" horiz-adv-x="1326" 
d="M432 93q50 0 96.5 -3t86.5 -15t72 -37t54 -69v144q-65 45 -130 70t-126.5 37t-118.5 15t-106 3l-106 128q106 114 240 185.5t294 109.5q-37 54 -80.5 98.5t-89 77t-91 50t-87.5 17.5q32 -20 52 -56t20 -84q0 -26 -12 -53t-33.5 -49t-51.5 -35.5t-65 -13.5
q-31 0 -63.5 10.5t-59.5 34t-44.5 59.5t-17.5 87q0 55 22.5 98t58.5 72t82 44t93 15q78 0 143.5 -28t118.5 -72t92.5 -97.5t65.5 -104.5v383h-741v116h1336v-116h-473v-422q138 18 289 18l45 -91q-19 -48 -32 -112t-13 -133q0 -72 9 -150.5t34 -150.5l-110 -73
q-13 40 -22 74t-14.5 63.5t-8 57t-2.5 56.5q0 41 2.5 78t9.5 73t19.5 73t31.5 79q-62 -1 -121.5 -4t-116.5 -10v-721l-64 40q-47 50 -103.5 67t-116.5 17q-57 0 -114.5 -7.5t-111.5 -7.5q-75 0 -134.5 21t-101 58.5t-63.5 89t-22 112.5q0 41 10 84t31 89l41 -41
q-9 -24 -13 -45t-4 -40q0 -51 27 -83t69 -50t93.5 -24t101.5 -6h44zM337 330q41 -3 88 -9t99 -22.5t106.5 -46.5t110.5 -79v348q-116 -24 -218 -70t-186 -121z" />
    <glyph glyph-name="bn_n_na" horiz-adv-x="961" 
d="M717 548q-35 79 -85 147t-107 118t-116.5 79t-113.5 29q32 -20 52 -56t20 -84q0 -26 -12 -53t-33.5 -49t-51.5 -35.5t-65 -13.5q-31 0 -63.5 10.5t-59.5 34t-44.5 59.5t-17.5 87q0 55 22.5 98t58.5 72t82 44t93 15q58 0 109.5 -16t95.5 -43t81.5 -62t67 -73.5t51.5 -78
t36 -74.5v411h-717v116h971v-116h-130v-1145l-124 80v6q-35 79 -85 147t-107 118t-116.5 79t-113.5 29q32 -20 52 -56t20 -84q0 -26 -12 -53t-33.5 -49t-51.5 -35.5t-65 -13.5q-31 0 -63.5 10.5t-59.5 34t-44.5 59.5t-17.5 87q0 55 22.5 98t58.5 72t82 44t93 15
q58 0 109.5 -16t95.5 -43t81.5 -62t67 -73.5t51.5 -78t36 -74.5v338z" />
    <glyph glyph-name="bn_n_ma" horiz-adv-x="1277" 
d="M841 302q25 -3 51 -17t50.5 -35t47.5 -48t43 -58v970h-192v-812zM717 463q-35 79 -85 147t-107 118t-116.5 79t-113.5 29q32 -20 52 -56t20 -84q0 -26 -12 -53t-33.5 -49t-51.5 -35.5t-65 -13.5q-31 0 -63.5 10.5t-59.5 34t-44.5 59.5t-17.5 87q0 55 22.5 98t58.5 72
t82 44t93 15q58 0 109.5 -16t95.5 -43t81.5 -62t67 -73.5t51.5 -78t36 -74.5v496h-717v116h1287v-116h-130v-1205l-60 40q-51 75 -90 121.5t-69 72.5t-53.5 36.5t-43.5 13.5v-90q0 -42 -11.5 -75t-32 -56t-47 -35t-56.5 -12q-36 0 -67.5 10t-55 31t-36.5 54t-13 80
q0 35 12.5 67t37 58t61 45t84.5 28v165z" />
    <glyph glyph-name="bn_n_sa" horiz-adv-x="1451" 
d="M1004 921q28 0 57 -20t56.5 -48t50.5 -59t39 -53v373h-488q25 -17 47.5 -47t41 -68t32.5 -80.5t22 -85.5q32 38 66 63t76 25zM308 887q32 -20 52 -56t20 -84q0 -26 -12 -53t-33.5 -49t-51.5 -35.5t-65 -13.5q-31 0 -63.5 10.5t-59.5 34t-44.5 59.5t-17.5 87q0 55 23 98
t60.5 72t84 44t93.5 15q66 0 128.5 -20t123.5 -57t121 -90.5t121 -120.5l26 40q-36 98 -90 163t-116 104.5t-126.5 57t-121.5 21.5h-360v116h1461v-116h-130v-1114l-124 80v558q-13 21 -30.5 41t-37 35.5t-40 25t-38.5 9.5q-41 0 -73 -26t-60 -65.5t-54 -85.5t-54.5 -85.5
t-62.5 -65.5t-77 -26q-54 0 -93 22.5t-68.5 58t-51.5 78t-40 81.5l54 46q8 -20 20.5 -42t28.5 -40t35 -30t40 -12q22 0 42 10t38.5 27.5t36.5 40.5t36 49q-73 57 -129 96t-107 63t-101.5 34t-112.5 10z" />
    <glyph glyph-name="bn_p_tta" horiz-adv-x="1707" 
d="M1717 1230v-116h-653v-672q0 -23 6.5 -43.5t19.5 -36t31 -25t42 -9.5q35 0 75 13t80 36t77 54t65.5 67t45.5 75t17 78q0 5 -2 13q-34 -35 -66.5 -50.5t-62.5 -15.5q-32 0 -59 12t-46.5 32t-31 47t-11.5 56q0 33 11.5 62t32 51t47.5 35t59 13q58 0 95.5 -26t59.5 -65.5
t30 -87.5t8 -92q0 -117 -41 -207t-105 -151.5t-141.5 -93t-150.5 -31.5q-11 0 -31 2.5t-43 11t-47 24.5t-43.5 42.5t-32 66.5t-12.5 95v151q-45 94 -76 157.5t-54 106.5t-40.5 70.5t-35.5 51.5l-333 -344l-125 60q19 19 34 35l34 36q26 49 26 93q0 52 -33 82.5t-82 30.5
q-23 0 -49 -7.5t-52 -24.5q1 0 -20 8.5t-46.5 19t-46.5 19.5t-21 10q33 59 76.5 110t93.5 89t107 60t117 22q79 0 144 -28t126.5 -85t123 -144t132.5 -205v346h-120v116h521q30 16 43.5 35.5t13.5 33.5q0 30 -23 46.5t-60.5 25t-85.5 13t-97.5 10t-97.5 16t-85.5 31.5
t-60.5 55.5t-23 89.5q0 25 13.5 55t44.5 57l36 -28q-25 -21 -30.5 -37.5t-5.5 -30.5q0 -27 25.5 -42.5t67 -24.5t94 -13.5t107.5 -10.5t108 -16t94.5 -29.5t66.5 -50.5t25 -80q0 -18 -6 -33.5t-15 -28.5t-20 -23.5t-21 -19.5h268zM454 1114q-43 0 -80 -14.5t-66.5 -34.5
t-49 -41t-27.5 -34q25 6 49 6q34 0 62 -11.5t48.5 -31t32 -45.5t11.5 -56q0 -16 -5 -38l213 210q-45 40 -90.5 65t-97.5 25z" />
    <glyph glyph-name="bn_p_ta" horiz-adv-x="1363" 
d="M759 0q-102 0 -191.5 30.5t-166 83t-139.5 121t-111 145t-81 156t-50 152.5l58 -27q34 -107 100.5 -200t156 -162t198.5 -109t228 -40q92 0 159.5 21.5t111.5 57t65.5 81t21.5 93.5q0 27 -6 59t-23.5 62t-48.5 55t-82 38q20 -24 31.5 -47.5t11.5 -53.5q0 -27 -11.5 -48
t-30.5 -35t-42.5 -21.5t-47.5 -7.5q-29 0 -54 10t-44 28.5t-30 44t-11 56.5q0 23 10 47.5t30 45t51.5 35t75.5 16.5q-49 78 -87.5 137t-76.5 107l-333 -344l-125 60q19 19 34 35l34 36q26 49 26 93q0 52 -33 82.5t-82 30.5q-23 0 -49 -7.5t-52 -24.5q1 0 -20 8.5t-46.5 19
t-46.5 19.5t-21 10q33 59 76.5 110t93.5 89t107 60t117 22q90 0 156 -30t121 -85t104 -132t103 -171v634l124 -111v-105h351v-116h-351v-443q54 -17 95.5 -49t69 -72t42 -84t14.5 -85q0 -93 -37.5 -164t-103 -119t-154 -73t-189.5 -25zM454 1114q-43 0 -80 -14.5
t-66.5 -34.5t-49 -41t-27.5 -34q25 6 49 6q34 0 62 -11.5t48.5 -31t32 -45.5t11.5 -56q0 -16 -5 -38l215 215q-45 40 -91.5 62.5t-98.5 22.5z" />
    <glyph glyph-name="bn_p_pa" horiz-adv-x="1146" 
d="M902 234l-14 23q-38 60 -75 116t-75 104l-333 -344l-125 60q19 19 34 35l34 36q26 49 26 93q0 52 -33 82.5t-82 30.5q-23 0 -49 -7.5t-52 -24.5q1 0 -20 8.5t-46.5 19t-46.5 19.5t-21 10q30 53 68 99.5t82 83.5t93 61.5t102 32.5q5 23 5 39q0 52 -33 82.5t-82 30.5
q-23 0 -49 -7.5t-52 -24.5q1 0 -20 8.5t-46.5 19t-46.5 19.5t-21 10q33 59 76.5 110t93.5 89t107 60t117 22q90 0 156 -30t121 -85t104 -132t103 -171v634l124 -111v-105h130v-116h-130v-1114l-124 80v154zM902 358v330l-14 23q-38 60 -75 116t-75 104l-175 -181
q53 -21 97 -57.5t83.5 -87t78 -113t80.5 -134.5zM458 1114q-43 0 -80 -14.5t-66.5 -34.5t-49 -41t-27.5 -34q25 6 49 6q34 0 62 -11.5t48.5 -31t32 -45.5t11.5 -56q0 -16 -5 -38l215 215q-45 40 -91.5 62.5t-98.5 22.5zM458 660q-43 0 -80 -14.5t-66.5 -34.5t-49 -41
t-27.5 -34q25 6 49 6q34 0 62 -11.5t48.5 -31t32 -45.5t11.5 -56q0 -16 -5 -38l215 215q-45 40 -91.5 62.5t-98.5 22.5z" />
    <glyph glyph-name="bn_p_ma" horiz-adv-x="1462" 
d="M1026 393q51 -7 97 -48t95 -110v879h-192v-721zM902 1446l124 -111v-105h446v-116h-130v-1114l-60 40q-51 75 -90 121.5t-69 72.5t-53.5 36.5t-43.5 13.5v-90q0 -42 -11.5 -75t-32 -56t-47 -35t-56.5 -12q-36 0 -67.5 10t-55 31t-36.5 54t-13 80q0 35 12.5 67t37 58
t61 45t84.5 28v299l-14 23q-38 60 -75 116t-75 104l-333 -344l-125 60q19 19 34 35l34 36q26 49 26 93q0 52 -33 82.5t-82 30.5q-23 0 -49 -7.5t-52 -24.5q1 0 -20 8.5t-46.5 19t-46.5 19.5t-21 10q33 59 76.5 110t93.5 89t107 60t117 22q90 0 156 -30t121 -85t104 -132
t103 -171v634zM458 1114q-43 0 -80 -14.5t-66.5 -34.5t-49 -41t-27.5 -34q25 6 49 6q34 0 62 -11.5t48.5 -31t32 -45.5t11.5 -56q0 -16 -5 -38l215 215q-45 40 -91.5 62.5t-98.5 22.5z" />
    </font>
</defs>
</svg>
