<?xml version="1.0" standalone="no"?>
<!DOCTYPE svg PUBLIC "-//W3C//DTD SVG 1.1//EN" "http://www.w3.org/Graphics/SVG/1.1/DTD/svg11.dtd" >
<svg xmlns="http://www.w3.org/2000/svg">
<metadata></metadata>
<defs>
<font id="justlefthandregular" horiz-adv-x="798" >
<font-face units-per-em="2048" ascent="1638" descent="-410" />
<missing-glyph horiz-adv-x="569" />
<glyph horiz-adv-x="2048" />
<glyph horiz-adv-x="2048" />
<glyph unicode="&#xd;" horiz-adv-x="1024" />
<glyph unicode=" "  horiz-adv-x="569" />
<glyph unicode="&#x09;" horiz-adv-x="569" />
<glyph unicode="&#xa0;" horiz-adv-x="569" />
<glyph unicode="!" horiz-adv-x="526" d="M114.5 63.5q8.5 -24.5 28.5 -40.5q66 -10 56 55q0 23 -23.5 23.5t-46.5 0.5q-23 -14 -14.5 -38.5zM222 618.5q5 -86.5 69 -161.5q6 2 14 1t17 -1q8 0 12 4t2 16q-41 37 -45 92.5t9 117t35.5 123.5t35.5 116q-2 27 9 59.5t18.5 63t1 54.5t-43.5 30q-23 -78 -58.5 -165 t-58 -175t-17.5 -174.5z" />
<glyph unicode="&#x22;" horiz-adv-x="567" d="M160 1272q-4 -94 43 -180q37 -6 41 9t-3.5 39.5t-11.5 53.5t19 47q-12 27 -3 59.5t16 63.5t1 53.5t-45 30.5q-53 -82 -57 -176zM360 1191q-2 -38 2 -65q25 6 33 16.5t12.5 24t10.5 27.5t26 27q12 23 14.5 51t-2.5 56t-17.5 50.5t-28.5 34.5q-16 -29 -26.5 -66.5 t-16 -77.5t-7.5 -78z" />
<glyph unicode="#" horiz-adv-x="1269" d="M-205 442q14 -23 44 -28.5t63 -5.5t63.5 3t50.5 -3q37 -6 73 9t70 28.5t66.5 14.5t65.5 -32q-12 -43 -38 -81t-52.5 -76t-48 -77.5t-23.5 -87.5q43 23 73.5 66t57.5 92t52.5 97.5t58.5 80.5q37 4 88 11.5t105 8.5t105.5 -10.5t88.5 -43.5q-29 -86 -56.5 -174.5 t-58.5 -174.5q51 8 79 47t45 91.5t32.5 110t40.5 100.5h321q10 23 8 35t-10 21t-17 18.5t-16 25.5q-35 -25 -65 -25q-31 0 -60.5 9.5t-60.5 19.5t-68 8q-25 106 -4 162.5t69 81t117.5 28t141.5 3.5t139.5 7t112.5 40q-61 12 -122.5 14t-123.5 2q-59 0 -119.5 3t-117.5 16 q2 37 24.5 66.5t45 58t39 58.5t5.5 70q-49 -10 -79.5 -42.5t-53 -75.5t-42 -88t-50.5 -82q-29 2 -65.5 1t-75.5 -1t-77 4t-71 16q-4 35 7.5 69t27.5 64.5t37.5 57t40.5 51.5q12 16 13 37.5t-7 38t-26.5 22.5t-45.5 -6q-47 -43 -64.5 -102.5t-29.5 -124.5q-12 -68 -44 -95.5 t-75 -29.5t-96 10t-107.5 22.5t-108.5 11.5t-99 -26v-51q113 -16 210 -20.5t208 6.5q14 -23 14 -52t-7 -58.5t-19.5 -60t-22.5 -57.5q-18 -31 -47 -42t-62 -16t-62.5 -7t-49.5 -15q-23 -25 -33 0q-35 8 -79 12.5t-88 0.5t-84 -18.5t-71 -41.5zM436 541q27 117 107 186.5 t215 54.5q29 0 43 -11t19 -28.5t0 -37t-15 -35.5q10 -72 -4.5 -103.5t-44 -41t-70.5 -1.5t-85 17.5t-88 12.5t-77 -13z" />
<glyph unicode="$" horiz-adv-x="880" d="M128 299.5q5 -10.5 14.5 -20t20.5 -17.5t17 -18q68 -4 91.5 -24.5t20.5 -52.5t-23.5 -73t-40 -86t-29 -91t11.5 -87q45 -23 56.5 -5.5t10 51.5t-3.5 72t19 54q18 31 32.5 69t35 71.5t50 55t76.5 19.5q16 2 38 12.5t38.5 26.5t22.5 37.5t-6 50.5q-45 94 -38 188.5 t38.5 186.5t75.5 183t73 179q49 0 47 16.5t-17.5 39t-21.5 48t37 42.5q16 16 18 48t-18 44q-45 -2 -66.5 -37t-42 -73t-52 -61.5t-99.5 -0.5q-104 -49 -140 -113.5t-35 -140.5t24.5 -158t39 -161.5t7 -155.5t-69.5 -139q-51 16 -106.5 21t-102.5 24q-8 -14 -3 -24.5z M432 299q14 0 24.5 16.5t17.5 28.5t11 12q7 1 15 -32q-16 -10 -28.5 -22.5t-39.5 -2.5zM439 834.5q-5 39.5 0 78.5t28 72q4 25 19.5 38t34 20.5t38 11.5t35.5 12q-25 -45 -38 -96t-25.5 -103.5t-25.5 -101.5t-38 -88q-6 35 -14.5 76t-13.5 80.5z" />
<glyph unicode="%" horiz-adv-x="1269" d="M104.5 942q-8.5 -29 4.5 -65q23 -31 48 -44.5t66 -5.5q39 18 47.5 27.5t0 16t-27 9.5t-34.5 11t-24.5 23.5t3.5 41.5q31 51 77 59.5t100 8.5q39 -16 66.5 -55t33.5 -80q-27 -74 -85 -111t-130 -63q39 -25 77 -21t70.5 23.5t61 46.5t51.5 47q27 59 9.5 116.5t-42.5 110.5 q-37 4 -66.5 20.5t-58 30t-59.5 15.5t-70 -21q-23 -23 -48 -43t-43.5 -44.5t-27 -53.5zM203 156q10 -14 20 -15q94 80 172 185.5t152 217t152.5 219t179.5 193.5q4 35 -6 53.5t-39 28.5q-96 -92 -175 -201.5t-152 -225t-145.5 -232.5t-158.5 -223zM656.5 246 q-3.5 -21 3 -39.5t21.5 -32.5t38 -18q25 12 27 34.5t-15 42.5q10 33 33.5 52.5t53.5 29t58.5 11.5t49.5 2q33 -8 51 -30t24.5 -49.5t3 -56t-13.5 -51.5q-49 -51 -109.5 -81.5t-117.5 -65.5q23 -23 54.5 -18.5t60.5 4.5q90 45 147 118.5t45 182.5q-6 53 -42 81.5t-83 40 t-97 7t-85 -16.5q-29 -14 -60.5 -42.5t-31.5 -69.5q-12 -14 -15.5 -35z" />
<glyph unicode="&#x26;" horiz-adv-x="1079" d="M108.5 186q-2.5 -80 34.5 -159q72 -31 137.5 -22t124 40t109.5 76t96 88q49 -8 86 -33.5t71 -56.5t69.5 -59.5t83.5 -43.5q-6 35 -32 70t-60.5 68.5t-71.5 62.5t-64 51q80 117 154 233.5t119 250.5q-47 -29 -87 -80t-77 -112.5t-75 -126t-83 -118.5q-33 0 -57.5 16.5 t-46 40t-43 49t-45.5 42.5q-66 43 -85.5 86t-10 85t38 84t59 85t54 87t23.5 89q-2 25 9.5 55.5t18.5 59t1 54.5t-43 38q-37 -23 -79 -43.5t-78.5 -46t-67.5 -58t-47 -80.5q-14 -41 -16.5 -81.5t4 -81.5t17.5 -81t25 -77q-35 -68 -73.5 -141.5t-64 -151.5t-28 -158zM180 210 q6 42 21.5 84t21.5 75q12 78 28.5 108.5t37.5 30.5q23 0 46 -24.5t50 -56.5t54.5 -63.5t56.5 -48.5q8 -10 19 -17t20.5 -14.5t13.5 -18.5t-4 -27q-25 -37 -62 -59.5t-76.5 -39t-82.5 -31t-80 -32.5q-47 18 -58.5 55t-5.5 79zM289 820.5q2 33.5 14 65.5t30.5 63.5t37.5 62.5 q18 10 38.5 20t41.5 27q-20 -86 -56.5 -161.5t-91.5 -145.5q-16 35 -14 68.5z" />
<glyph unicode="'" horiz-adv-x="389" d="M131 1053h29q12 57 34.5 107t42 98.5t28.5 99.5t-5 110q-43 -31 -66.5 -78t-36 -103t-16.5 -117.5t-10 -116.5z" />
<glyph unicode="(" horiz-adv-x="675" d="M127 479q-10 -112 3 -219.5t58 -207t134 -179.5q70 18 86 32.5t0.5 28t-50 30t-68.5 39t-55.5 52t-7.5 70.5q-31 117 -34 235.5t22 231.5t79 216t140 189q27 35 59.5 40t64.5 4t58.5 2.5t45.5 33.5q-29 47 -60 59.5t-63.5 2t-65.5 -36t-64.5 -56t-61 -60.5t-54.5 -44 q-18 -16 -31.5 -40.5t-23 -49.5t-14.5 -46.5t-11 -35.5q0 -23 -18.5 -35t-34.5 -35q-23 -109 -33 -221z" />
<glyph unicode=")" horiz-adv-x="675" d="M86 -70q16 -31 42 -32.5t52 -1.5q102 86 191.5 190t150 224t84 250t-5.5 265q-18 82 -51 162t-107 125q-18 0 -38.5 10.5t-39 17.5t-32 3t-19.5 -31q74 -16 116 -61t65.5 -103.5t36 -124t24.5 -125.5q-10 -115 -42 -232.5t-89 -222t-141 -186.5t-197 -127z" />
<glyph unicode="*" horiz-adv-x="833" d="M119 1038q31 8 61.5 11.5t61 8.5t60.5 14t58 28q2 -6 10.5 -12.5t14.5 -12.5t5 -12t-19 -12q12 -16 6 -35t-13.5 -34t-5.5 -27.5t33 -16.5q16 55 35.5 70.5t42.5 9.5t47.5 -26.5t50 -37t54 -19.5t59.5 23q-10 33 -32.5 49.5t-47.5 28t-48.5 24.5t-33.5 40 q86 53 186.5 76.5t196.5 50.5q-41 -6 -72.5 -11.5t-61.5 -10.5t-62.5 -11t-71.5 -14q-43 4 -49 23.5t-3 41t3 39.5t-31 23q-23 -80 -51.5 -106.5t-61 -20.5t-70.5 34.5t-75 62.5t-74.5 62.5t-70.5 32.5q-35 -37 -23 -63.5t43 -49t64.5 -44t44.5 -50.5q-20 -16 -52 -25.5 t-60 -20.5t-43 -28.5t-5 -52.5z" />
<glyph unicode="+" horiz-adv-x="833" d="M27 606q27 -23 57.5 -18.5t56.5 4.5q90 18 134 5t59.5 -47t10.5 -83t-12 -103.5t-8 -108.5t23 -97h53q14 43 15.5 80.5t-3.5 72.5t-10.5 70t-1.5 76q33 66 92.5 86t130 25t142.5 7.5t131 30.5q-41 14 -97.5 17.5t-117.5 6.5t-122.5 11t-110.5 31q2 10 1 20t-2.5 21.5 t2 20.5t13.5 18q-8 25 -3 47t11 42.5t7 41t-15 43.5q-39 6 -57.5 -4.5t-24.5 -31t-4 -49t5 -57t1 -55.5t-14 -45q-27 -25 -58.5 -30t-64.5 -2t-66 10.5t-63 7.5q-29 0 -52.5 -13.5t-37.5 -50.5z" />
<glyph unicode="," horiz-adv-x="428" d="M29 -242q31 -10 59.5 5.5t54 42t50 58.5t45.5 54q4 33 20 66.5t29.5 66.5t16 63.5t-20.5 57.5q-43 -35 -71 -86t-53.5 -107.5t-55 -115t-74.5 -105.5z" />
<glyph unicode="-" horiz-adv-x="587" d="M124 444.5q-5 -22.5 11 -43.5q43 0 96.5 -10t105.5 -13t93 6t59 50q-86 16 -166.5 27.5t-166.5 21.5q-27 -16 -32 -38.5z" />
<glyph unicode="." horiz-adv-x="397" d="M129 49q10 -10 28.5 -19.5t36 -14.5t32 -3t18.5 17q12 51 12 84q0 35 -39 39q-53 4 -72.5 -28t-15.5 -75z" />
<glyph unicode="/" horiz-adv-x="833" d="M12 33q18 -6 23.5 -29.5t10.5 -43t16.5 -26t41.5 18.5q0 20 3.5 45t-17.5 35q61 162 154.5 292t195 251.5t197.5 248.5t164 285h26q-4 6 -11 14.5t-1 18.5q-6 8 -8 19.5t-6 19.5t-12.5 12t-22.5 -4q-86 -154 -189.5 -292t-207 -276.5t-197.5 -282.5t-160 -306z" />
<glyph unicode="0" d="M144.5 409.5q-3.5 -73.5 11 -142t50.5 -130t99 -110.5q33 -31 67 -33t67.5 11t65.5 39t60 50q18 27 35.5 64t30 76.5t17.5 81.5t-1 79q-10 72 -63.5 129.5t-118.5 77.5q-18 10 -43 15.5t-51 5.5q-25 0 -47.5 -5.5t-32.5 -15.5q-18 14 -39 16.5t-40 -5t-32.5 -23 t-15.5 -35.5q-16 -72 -19.5 -145.5zM223 365q0 70 21 145q49 27 109.5 30t112.5 -16.5t88 -63.5t38 -112q10 -86 -37 -154.5t-104 -119.5q-41 -6 -73 5t-57.5 33.5t-45 51.5t-31.5 57q-20 76 -21 144z" />
<glyph unicode="1" horiz-adv-x="546" d="M254 106h53q0 70 12.5 137.5t22.5 135t11 136.5t-19 140h-45q-2 -72 -9.5 -138t-14.5 -134t-11 -135.5t0 -141.5z" />
<glyph unicode="2" d="M150 74q6 -17 20 -29t35.5 -18.5t46.5 0.5q66 14 136.5 17t139 8t134 19.5t120.5 55.5h-495q43 61 97 122.5t103.5 127t83 138.5t37.5 157q-12 25 -25.5 50.5t-32 42.5t-42.5 24t-59 -5q-37 -8 -62 -23.5t-45 -33.5t-40.5 -36.5t-49.5 -33.5q2 -59 15.5 -69t35 5t49 44 t59 50.5t65.5 23.5t65 -39q-8 -86 -51.5 -160t-101.5 -141.5t-121.5 -132t-114.5 -129.5q-8 -18 -2 -35z" />
<glyph unicode="3" d="M152 -305q35 -43 78.5 -54.5t91 -5t95.5 20.5t91 25q33 25 65.5 52t60.5 59t46 70t20 85q-27 61 -68.5 104t-92 74t-105.5 54.5t-106 43.5q23 45 58.5 78t77.5 62.5t83 60.5t74 74q20 76 8.5 112.5t-43 48t-78.5 3t-98.5 -19.5t-101.5 -20t-87 1q23 -35 67 -42.5t95 -6.5 t101.5 3.5t84.5 -12.5q-68 -76 -162 -158.5t-186 -148.5v-70q31 -29 73 -45t85 -29.5t86 -27.5t76.5 -37.5t55 -61.5t24.5 -98q-59 -98 -151.5 -151t-203.5 -43q-8 4 -21.5 7t-23.5 7t-13 11.5t13 19.5q-37 10 -58.5 5t-10.5 -50z" />
<glyph unicode="4" d="M66 129q39 -37 89 -44t103 -2t107.5 9t101.5 -10q-6 -47 -13.5 -94t-8.5 -91t10.5 -87t44.5 -82q23 -10 39 6t20 26q-33 12 -41 41t-6 64t6 70.5t-4 66.5q10 53 39 72.5t69 21.5t85 -6t87 -10t74.5 9t46.5 54q-86 14 -175 24.5t-181 20.5q0 51 12.5 120t13.5 133.5 t-19.5 112.5t-86.5 58q-121 -106 -229.5 -224t-183.5 -259zM211 200.5q6 20.5 49 69.5q33 25 55.5 54.5t45 59.5t47 56.5t59.5 44.5q18 -35 16 -69.5t-9 -72.5t-12 -77t5 -78q-20 14 -55 12.5t-72 -9t-69.5 -14.5t-49 -2t-10.5 25.5z" />
<glyph unicode="5" d="M145.5 292q-2.5 -48 11 -93t43 -84t79.5 -68q27 -41 19.5 -74.5t-25 -66.5t-31 -64.5t1.5 -66.5q33 -6 49 7t25.5 33.5t16.5 44t21 42.5q20 53 10 99t-36.5 89t-60 84t-58.5 84q-8 80 14.5 124t64.5 65.5t97 26.5t111.5 6t107.5 5t86 25q-23 37 -64.5 45t-92 7 t-101.5 -1.5t-94 17.5q-43 0 -67.5 -20.5t-41 -51.5t-31 -63.5t-36.5 -57.5q-16 -45 -18.5 -93z" />
<glyph unicode="6" d="M172 364.5q-12 -94.5 5.5 -182.5t86.5 -153q76 -29 153 -6.5t136 75.5q29 76 7.5 154t-87.5 133q-57 25 -109.5 8.5t-99.5 -41.5q-20 20 -19 39t7 38.5t13 39.5t-1 43q20 51 47 110.5t65 109.5t89 83t123 31q0 23 -11.5 29t-25.5 7t-27.5 2t-17.5 17 q-76 -10 -138.5 -63.5t-88.5 -118.5q-29 -76 -62 -168t-45 -186.5zM246 258q31 12 73.5 26.5t83.5 14.5t71 -19.5t32 -74.5t-38 -89t-97 -38q-119 39 -125 180z" />
<glyph unicode="7" d="M-27 260q18 -35 53 -50t77 -21.5t87.5 -9.5t81.5 -13q-45 -76 -93 -145.5t-93 -141.5q-12 -16 -16 -41.5t2 -48t23.5 -32t49.5 9.5q6 59 33 110t64 98.5t75.5 94.5t69.5 96q57 20 119.5 26.5t126 11.5t123 15t112.5 41q-47 10 -98 5t-103.5 -12t-105.5 -9t-106 16 q33 35 54 75t42.5 81t47.5 80t63 73q33 49 24.5 84t-39.5 55.5t-75 25.5t-85 -5q-53 -12 -99 -15t-91 -6t-90 -12.5t-92 -33.5q43 -37 96 -44.5t110.5 0t116 19.5t111.5 12q10 -10 16 -17t17 -18q-35 -45 -62.5 -92t-54.5 -94t-56.5 -93t-66.5 -89q-51 -6 -99 -2t-94.5 10 t-89.5 10t-86 -4z" />
<glyph unicode="8" d="M116.5 257q-5.5 -42 2.5 -84t28.5 -81t51.5 -65q55 -25 121.5 -42.5t132.5 9.5q45 35 57 68.5t3 66.5t-32.5 65.5t-49 65.5t-47.5 66.5t-24 68.5q72 90 172 129q55 20 93.5 57t62 85.5t32.5 101.5t9 109q-6 45 -30.5 74.5t-59.5 50t-71.5 36t-67.5 33.5q-53 -16 -94 -50 t-72 -78t-53.5 -94t-34.5 -97q-20 -35 -21.5 -74t3.5 -78t12.5 -77t2.5 -72.5t-26.5 -64.5t-71.5 -52q-23 -35 -28.5 -77zM211 156q-12 98 49 157q23 -18 47.5 -42.5t47 -52.5t40 -59.5t23.5 -64.5q-25 -10 -58.5 -15t-65.5 0t-55.5 23.5t-27.5 53.5zM311 573q0 31 9.5 63 t18.5 62.5t1 63.5q23 39 57.5 85t74.5 72.5t85 22.5t90 -65q14 -84 -10.5 -138.5t-72.5 -93.5t-108.5 -69.5t-115.5 -65.5q-29 33 -29 63z" />
<glyph unicode="9" d="M102 -147q-10 -25 3.5 -37.5t23.5 -28.5q162 -10 301 37t234 170q41 55 44 109.5t-4.5 107.5t-12.5 107.5t22 109.5q-16 16 -29.5 27.5t-40.5 7.5q-27 55 -67.5 100t-91 77t-107 51.5t-113.5 25.5q-43 -8 -67.5 -33t-37 -58.5t-13.5 -73.5t4 -77q18 -61 63 -92t101.5 -42 t114.5 -7t101 14q20 20 53 16t48 -30q12 -57 15 -115.5t-9 -114t-41 -104.5t-80 -86q-45 -16 -92 -36.5t-96 -33t-98.5 -10.5t-100.5 31q-4 -4 -10 -11.5t-17 -0.5zM233 532q0 49 31 91q45 -4 91 -15.5t86 -32t73 -53.5t51 -80q-37 0 -76.5 -9t-78.5 -15t-76 -3t-70 27 q-31 41 -31 90z" />
<glyph unicode=":" horiz-adv-x="477" d="M125 68q14 -2 30.5 -11.5t32 -15.5t32 -5t32.5 19q6 31 -13.5 52.5t-45 25.5t-47 -10t-21.5 -55zM248 713q0 -33 8 -68t10 -47q20 -16 25.5 -9t6.5 22.5t2 31.5t13 21q0 14 5.5 29.5t9.5 29.5t1.5 28.5t-16.5 26.5q-41 12 -53 -9t-12 -56z" />
<glyph unicode=";" horiz-adv-x="546" d="M-35 -289q74 -18 122 10.5t83 80t61.5 111.5t57.5 105q18 20 18 48q0 26 -18 49q-63 -27 -95 -83.5t-58.5 -119t-62.5 -118.5t-108 -83zM296 654.5q5 -19.5 15.5 -40t10.5 -34.5q16 0 29.5 -1t17.5 15q31 31 14.5 63t-41.5 52q-35 -6 -43 -20.5t-3 -34z" />
<glyph unicode="&#x3c;" horiz-adv-x="587" d="M76 342q35 -72 92 -110.5t106 -65.5q37 12 68 -4.5t57.5 -32.5t45 -20.5t30.5 36.5q-43 14 -82 41t-75.5 60t-73.5 69.5t-74 71.5q35 55 87 92t103.5 74t93.5 83t56 120q4 20 -12.5 29.5t-32.5 5.5q-41 -63 -102.5 -112.5t-121 -99t-106.5 -104.5t-59 -133z" />
<glyph unicode="=" horiz-adv-x="976" d="M35 425q-6 -17 6 -63q104 -27 210.5 -41t212 -20t209 -7t204.5 -1v69q-68 12 -147 14.5t-161 2.5q-80 0 -160.5 2t-154.5 14q-20 -8 -47 -1t-54.5 18.5t-53 21.5t-42 9t-22.5 -18zM115.5 658.5q-15.5 -17.5 5.5 -42.5q90 -29 195.5 -41t213 -10t209 15.5t185.5 35.5v54 q-92 -6 -196.5 -13.5t-208 -8.5t-201 8t-177.5 40q-10 -20 -25.5 -37.5z" />
<glyph unicode="&#x3e;" horiz-adv-x="587" d="M111 190q-10 -18 4 -33.5t30 -31.5q57 25 124 71t125.5 105t97 128t40.5 140q-12 18 -32.5 33.5t-43 30t-45 33t-38.5 43.5q-29 8 -45.5 27.5t-31.5 41t-30.5 38t-40.5 20.5q-25 -57 -1 -97.5t66 -74t90 -68.5t73 -82q-31 -41 -68 -89t-80 -94t-92 -84t-102 -57z" />
<glyph unicode="?" horiz-adv-x="614" d="M119 1083q31 0 55.5 12.5t48 30t45 37t43.5 33.5q20 -8 42 -1t41.5 12t35.5 1t29 -32q-25 -68 -69 -132.5t-87 -129t-76.5 -128t-42.5 -124.5q20 -53 59.5 -81t83.5 -46.5t89 -34t78 -45.5q20 39 -1.5 63.5t-60.5 44t-84 37.5t-69 49q-4 61 20.5 115.5t61 107t76.5 104.5 t69 107q25 47 19.5 90.5t-30 72t-64.5 38.5t-85 -8q-76 -29 -134 -71t-93 -122zM217 105.5q-4 -19.5 5 -36t23.5 -26.5t20.5 -4q18 10 25.5 22.5t7.5 38.5q4 20 -14.5 29.5t-32.5 5.5q-31 -10 -35 -29.5z" />
<glyph unicode="@" horiz-adv-x="1822" d="M211 492q-41 -186 8 -358.5t199 -297.5q117 -80 256 -114.5t293 -0.5q94 20 194.5 52t192.5 74t171 94.5t132 115.5q-82 -43 -171 -89t-183.5 -88t-190.5 -73.5t-192.5 -42t-190.5 5t-182 66.5q-92 53 -151.5 131t-90.5 169t-36 190.5t12 197.5q37 74 61.5 157t48 168 t52 166t72.5 150.5t108.5 123.5t162.5 85q197 39 365 -37.5t299 -236.5q39 -61 54.5 -132t14.5 -144.5t-12.5 -149.5t-23.5 -150q-20 -55 -57 -110.5t-87.5 -103.5t-109 -85t-121.5 -55q-41 59 -45 125.5t4 135.5t17.5 136.5t-3.5 130.5q-43 25 -91 47.5t-100 38 t-109.5 20.5t-121.5 -5q-61 -35 -96 -86t-55.5 -109.5t-34.5 -120t-35 -118.5q12 -25 3 -58t-14 -60.5t6 -42t67 -1.5q55 49 114.5 92t120 85t118.5 85t114 92q18 -49 15 -108.5t-4 -119t11 -113.5t60 -93q47 -23 90 -18.5t83 25t76.5 50t71.5 58.5q86 70 132 167 t62.5 205.5t8.5 223t-31 219.5q-49 100 -126 179t-173 131t-206.5 76.5t-229.5 14.5q-104 -33 -184 -90t-138.5 -133t-101.5 -166t-73.5 -186.5t-54.5 -195.5t-44 -191zM547 365q4 47 11 96t22.5 94t42 82t71.5 61q35 18 72 17.5t71.5 -12t63.5 -30t45 -36.5 q-49 -35 -95 -73t-93 -73.5t-98.5 -68.5t-112.5 -57z" />
<glyph unicode="A" horiz-adv-x="1038" d="M38 199q-7 -18 -7 -38q0 -33 18 -71q45 6 58.5 29.5t18.5 54.5t13 64.5t45 60.5q12 76 46 118t82 60.5t106 18.5q57 0 117.5 -7.5t122.5 -14.5q39 -4 74 -4q20 0 40 1q8 -61 25.5 -121.5t36 -120t30.5 -121.5q10 -50 11 -105q0 -13 -1 -26h46q7 39 7 80q0 20 -2 40 q-5 61 -17.5 121.5t-28 119.5t-25.5 119q4 20 18.5 25t26.5 7.5t20.5 8.5t0.5 28h-13q-55 0 -77 30q-24 34 -31.5 82t-11 100.5t-27.5 86.5v90q0 41 -6 77t-20.5 70t-41.5 73q-51 -63 -96 -132t-90 -139.5t-92 -141.5t-103 -136q-23 -10 -47 -13.5t-47.5 -7.5t-46.5 -12 t-41 -27q-8 -27 3 -36t27.5 -12t32 -2t17.5 -5q-12 -49 -49 -92t-70.5 -87t-51.5 -93zM426 586q33 37 57.5 81t49 89t51 83.5t63.5 67.5q16 -39 24.5 -82t14.5 -86t13.5 -86t25.5 -82q-21 -4 -42 -3q-14 0 -29 1q-36 4 -73.5 10.5t-76.5 10.5q-13 1 -26 1z" />
<glyph unicode="B" horiz-adv-x="948" d="M126 280q-3 -53 -3 -107q0 -91 8 -181q68 12 136.5 23.5t136 26.5t132 38.5t126.5 58.5q21 50 20 96q0 15 -2 29q-8 58 -38 110t-73 100t-82 93q117 16 223.5 62.5t178.5 150.5q17 31 17 65q0 37 -15 73q-14 32 -41 60t-64 44q-66 43 -137 45q-20 1 -41 1l-101 -4 q-36 -2 -70.5 -2.5t-68.5 2.5q-68 5 -122 54q-25 -131 -50.5 -269t-44 -281.5t-25.5 -287.5zM190 210q10 66 24 136q16 70 28 132q8 38 7 62q0 16 -3 27q-8 10 4 14.5t31.5 3.5t40 -5.5t30.5 -12.5q51 -18 87 -50t62.5 -70.5t48 -82.5t44.5 -83q14 -33 14 -53q0 -13 -6 -22 q-14 -22 -45 -30t-66.5 -12t-56.5 -25q-109 -67 -163 -69q-2 0 -4 -1q-51 1 -69 37q-12 25 -12 62q1 19 4 42zM260 715q10 66 26 125q10 37 11 78q0 25 -4 51q65 25 135 31q24 2 48 2l92 -8q70 -12 134 -38t119 -67q4 -16 4 -30q0 -19 -8 -33q-14 -24 -38.5 -40t-54.5 -32.5 t-50 -38.5q-49 0 -102.5 -10.5t-106.5 -17.5q-37 -5 -74 -5q-15 0 -31 1q-52 3 -100 32z" />
<glyph unicode="C" horiz-adv-x="821" d="M96 400q-1 -22 -1 -43q1 -56 9 -110q12 -75 44 -140.5t98 -112.5q41 -31 87 -40q34 -7 70 -7q12 0 23 1q47 3 94 16t92 30q88 76 124 106q33 28 33 34t-37 -14q-34 -18 -85 -40.5t-111 -43.5q-60 -22 -118 -26q-9 -1 -19 -1q-47 -1 -86 17q-47 20 -67 80q-54 62 -72 142 q-12 58 -13 116q0 24 2 48q7 84 30.5 167t52.5 150q41 105 136 155q64 34 137 33q36 0 75 -8q12 6 29.5 0t35 -16t34 -20.5t26.5 -11.5t12 12.5t-6 50.5q-66 49 -143.5 57t-163.5 8q-80 -18 -128 -65t-79 -109.5t-52.5 -131.5t-47.5 -128q-11 -77 -15 -155z" />
<glyph unicode="D" horiz-adv-x="876" d="M49 37q73 -37 150 -37h15q85 4 168 29.5t162 61.5t148 59q12 18 29.5 32.5t32 28.5t23.5 30.5t7 37.5q8 56 8 114q0 34 -3 70q-7 96 -37.5 188t-86 175t-135.5 145q-20 20 -41.5 16t-43 -11t-42.5 -7q-18 -1 -32 30q-86 -100 -137.5 -214.5t-84 -238.5t-54 -253 t-46.5 -256zM164 88q16 106 31.5 214t40 213.5t64.5 203.5t106 186q14 3 27 3q15 0 28 -4q24 -7 47.5 -19.5t45 -29t44.5 -30.5q23 -66 47.5 -132t43 -133.5t24.5 -138.5q2 -21 2 -43q0 -50 -10 -99q-57 -49 -124 -83t-136.5 -55.5t-141.5 -34t-139 -18.5z" />
<glyph unicode="E" horiz-adv-x="868" d="M89 400q5 -106 37 -202t103 -171q86 -35 168 -38h22q72 0 152 17q18 10 44 23.5t47.5 30t34 37t1.5 44.5q-154 -94 -321 -100q-49 8 -86 39t-61.5 70.5t-39 87t-20.5 90.5q12 31 32.5 43t44 17t49.5 7t48 13q40 9 89 9q16 0 34 -1q40 -2 79 -2q28 0 58 1q68 3 124 23.5 t85 81.5q-8 33 -20.5 41t-26.5 2t-28.5 -23.5t-24.5 -31.5q-45 -12 -94.5 -14t-100.5 -2q-49 0 -97 -3t-91 -14q-47 -13 -82 -13q-38 0 -60 15q-28 18 -27 72q0 31 9 72q-3 30 -3 57q-1 72 23 115q32 59 92 84.5t140 28.5t162 3t158.5 7.5t131.5 39.5q-6 4 -8 8.5t-6 4.5 q-52 5 -106 5q-27 0 -55 -1q-83 -4 -164 -4q-80 0 -159 10t-147 45q-10 -31 -40.5 -52.5t-54.5 -43.5q-26 -22 -32 -50q-1 -4 0 -8q0 -25 35 -59q-23 -93 -38 -199q-11 -79 -11 -159q0 -27 1 -53z" />
<glyph unicode="F" horiz-adv-x="995" d="M112 327q3 -122 15 -249q16 -16 29.5 -35.5t36.5 -19.5q18 39 18 83v9q-2 49 -9 101q-6 52 -10 106q-1 8 -1 16q0 45 16 88q111 16 208 25.5t191 15.5t188.5 11t202.5 14q0 10 6.5 12t12.5 2t10 4q2 2 2 4q0 4 -4 12q-88 16 -183 16h-27q-110 -2 -218.5 -10t-208.5 -11 h-25q-85 0 -155 18q-4 25 -4 47q0 14 2 28q4 34 13 66.5t20.5 65t15.5 67.5q68 43 138.5 60.5t143 25.5t143.5 14.5t138 26.5q18 -8 27.5 -20.5t15.5 -26.5t11.5 -26.5t11.5 -20.5q27 16 32 38.5t15 41.5q-74 66 -148 76q-30 4 -62 4q-45 0 -91 -8q-78 -14 -159 -38 q-74 -21 -153 -20h-14q-10 10 -12 26.5t-5 31t-11 22.5q-4 4 -12.5 4t-20.5 -4q-51 -111 -80 -224.5t-41 -229.5q-10 -93 -10 -190q0 -25 1 -49z" />
<glyph unicode="G" horiz-adv-x="909" d="M73 402v-23q0 -48 3 -92q47 -70 111.5 -111t135 -68.5t144.5 -50t139 -59.5q54 -23 85 -23q11 0 19 3q31 12 38 46q4 15 4 35q0 23 -4 51q-9 52 -16 104q-4 33 -4 64q0 17 1 34q4 46 35 69q-10 12 -12 28.5t-6.5 31t-12.5 25.5t-28 13q-31 -100 -45 -209 q-11 -78 -11 -151q0 -30 2 -60q-61 33 -130.5 52.5t-136.5 43t-125 61.5t-101 106q-20 27 -25.5 54t-1.5 55t12.5 54.5t14.5 55.5q39 94 99 163.5t135 118.5t162 79t179 40q14 2 38 -9t43.5 -17.5t30.5 2.5q6 4 6 16q0 11 -5 29q-41 31 -94.5 39t-100.5 8 q-61 -23 -125.5 -45.5t-126 -52t-116 -71.5t-95.5 -106q-43 -45 -67.5 -100t-35.5 -113.5t-12 -119.5z" />
<glyph unicode="H" horiz-adv-x="1146" d="M50 561q7 -12 22.5 -17t34 -9.5t28.5 -14.5v-399q10 -6 15.5 -3t10.5 9t9 10t12 2q10 57 15.5 106.5t10.5 96.5t14 95t26 104q86 -10 172 -15.5t172 -10.5t170 -14t164 -26q-12 -76 -16.5 -146.5t-4.5 -140.5t1 -140v-48q0 -48 -1 -100q18 -26 34.5 -26t31.5 26 q-7 90 -8 180q0 60 4 119q8 149 26.5 297.5t44 295t47.5 291.5q-12 6 -15 18.5t-4 24.5q-2 13 -6 20q-4 5 -13 5h-7q-94 -276 -102 -561q-66 -13 -134 -13h-26q-82 3 -168 13t-173 20.5t-175 10.5q-12 12 -24 28q-8 18 -5 29.5t8 23t9 21.5t-2 27q-4 27 8 53t31.5 52 t38 49.5t24.5 45t-4 40t-51 34.5q-47 -41 -65.5 -103.5t-34 -126t-44 -117.5t-96.5 -77q-8 -17 -8 -28q0 -7 3 -11z" />
<glyph unicode="I" horiz-adv-x="393" d="M127 199q0 -37 6 -70t19.5 -58.5t40.5 -37.5q7 71 7 150v20v36q0 73 3 148q4 94 18.5 190.5t50.5 188.5q-10 20 -4 38q6 16 14 32q8 17 8 31t-18 28q-57 -45 -83.5 -124t-37 -168t-13.5 -177t-11 -154v-73z" />
<glyph unicode="J" horiz-adv-x="499" d="M-193 -430q20 -41 42 -58q14 -12 39 -12q14 0 32 4q121 63 190.5 150.5t105.5 191t47 217t14.5 233.5t6.5 241.5t25 236.5q-10 12 -13 33.5t-9 42t-19 32.5q-7 8 -20 8q-8 0 -19 -3q-8 -156 -12 -301.5t-15.5 -285.5t-34 -278.5t-65.5 -279.5q-29 -35 -61.5 -74 t-69.5 -67.5t-77 -40.5q-15 -4 -30 -4q-27 0 -57 14z" />
<glyph unicode="K" horiz-adv-x="1015" d="M125 108q2 -54 33 -90q18 23 25 58t12.5 72.5t14.5 75.5t30 69q80 -37 164.5 -63.5t172 -47t175.5 -39t176 -43.5q10 -4 30.5 -10t40 -7t33.5 9q11 7 11 25q0 6 -1 14q-84 45 -183 67.5t-199.5 44t-194.5 52.5t-166 92q53 59 98 120.5t109 121.5q31 37 71.5 63.5t79.5 51 t69 53t40 71.5q-78 -23 -148.5 -65.5t-135 -97t-125 -116t-117.5 -122.5v481h-21q-29 -45 -41 -103.5t-18 -122t-9.5 -129t-11.5 -126.5q8 -36 8 -75q0 -24 -3 -46q-7 -64 -14 -124q-5 -47 -5 -89v-25z" />
<glyph unicode="L" horiz-adv-x="704" d="M100 45q46 -29 100 -32q16 -1 31 -1q39 0 79 6q56 8 113.5 17.5t111.5 9.5q33 6 68.5 17.5t68.5 25.5t60.5 32.5t43.5 39.5q-121 -24 -266 -42q-91 -12 -185 -11q-56 0 -112 4q-25 80 -26 174v15q1 87 11 177q12 98 30 197.5t34 191.5q-16 -4 -28 10q-7 9 -18 9 q-7 0 -15 -4q-41 -100 -56.5 -207t-20.5 -214.5t-8 -212t-16 -202.5z" />
<glyph unicode="M" horiz-adv-x="1519" d="M64 79q0 -30 18 -54q49 74 75.5 160.5t48 179t46 182.5t70.5 168q55 -68 99 -142.5t84 -150.5t81 -151.5t90 -145.5q82 51 148.5 126t126 160t121 173t134.5 161q39 -74 63.5 -177t28.5 -201q8 -37 14.5 -95.5t18.5 -107.5t30.5 -75t51.5 1q-12 88 -24.5 189.5t-25.5 206 t-31.5 209t-45.5 200.5h-49q-80 -78 -143.5 -162t-123 -170t-124 -170t-144.5 -162q-45 53 -77.5 111.5t-61 120t-58.5 122t-71 115.5q-16 20 -30.5 49t-32 54.5t-41 42t-56.5 14.5q-20 -72 -47.5 -141.5t-52 -140t-42 -143.5t-17.5 -150q-6 -33 -18.5 -67t-21.5 -68 q-11 -40 -11 -71z" />
<glyph unicode="N" horiz-adv-x="1255" d="M141 213q18 -14 25.5 -35.5t15.5 -43t21.5 -37t44.5 -15.5q-35 135 -35 291q0 158 35 303q113 -51 213 -117.5t194.5 -142.5t184.5 -157t184 -159q10 -2 17.5 4.5t13.5 13.5t13 13t17 4q14 106 19.5 207.5t12.5 197t24.5 185.5t58.5 178q-32 55 -52 67q-8 5 -15 4 q-10 0 -17 -10q-12 -16 -18 -51.5t-12.5 -75.5t-13.5 -76t-21 -50q22 -119 22 -192q-1 -5 -1 -9q-2 -74 -12.5 -120t-24 -78.5t-15.5 -78.5q-5 -1 -11 -1q-37 0 -87 35q-58 40 -124.5 102.5t-139 138.5t-143.5 140.5t-134.5 109.5t-112.5 45v100q-16 10 -29.5 24.5 t-35.5 10.5q-51 -166 -59 -352q-5 -121 -4 -243q0 -65 1 -130z" />
<glyph unicode="O" horiz-adv-x="937" d="M70 584q8 -84 32.5 -166t53.5 -150q33 -43 69.5 -86t80.5 -73.5t96 -42.5q18 -4 39 -5q37 0 79 15q53 18 101.5 55t90.5 83t75.5 97t56.5 99q6 44 5 85q0 174 -99 302q-76 80 -169.5 125t-197.5 49q-16 -2 -29.5 -12.5t-22.5 -24.5t-11.5 -28.5t8.5 -26.5q45 16 85 16 q17 -1 33 -3q56 -10 105 -37.5t94 -68.5t86 -84q31 -58 44 -122q8 -39 8 -78q0 -24 -3 -48q-8 -62 -38.5 -118.5t-92.5 -102.5q-51 -53 -119 -81q-43 -17 -87 -17q-25 0 -50 6q-66 33 -113 87.5t-76.5 122t-41.5 145.5q-8 52 -8 103q0 26 2 52q-4 14 -4 28q0 21 9 41 q15 34 28.5 65.5t12.5 58t-46 45.5q-55 -61 -74 -141q-14 -57 -14 -117q0 -23 2 -47z" />
<glyph unicode="P" horiz-adv-x="876" d="M98 284q4 -136 33 -270h47q6 34 6 73v19l-4 100t-2 101t12 96q30 1 61 1q46 0 92 -2q27 -1 54 -1q49 -1 97 3q74 6 139 25.5t121 66.5q35 43 34 82q0 41 -19 79.5t-47 74.5t-48 71q-31 53 -82 82.5t-108.5 51t-114 44t-97.5 63.5q-61 -111 -101 -236q-41 -124 -59 -256 q-15 -109 -15 -220q0 -24 1 -48zM211 483q14 33 19.5 86.5t12.5 109.5t20 106.5t41 78.5q25 26 65 26h9q46 -3 122 -52q12 -18 28.5 -27.5t35 -19t35 -20.5t28.5 -34q41 -35 53 -86t29 -100q-117 -72 -243 -81q-37 -3 -73 -2q-90 -1 -182 15z" />
<glyph unicode="Q" horiz-adv-x="794" d="M44 670v-27q0 -103 20 -203q22 -112 73 -215.5t129 -189.5q50 24 95 24q6 0 11 -1q50 -3 94 -22.5t85 -49t82 -58t86 -49t96 -20.5q80 -25 165 -31q24 -2 47 -2q61 0 121 12q83 15 158.5 51.5t135.5 96.5q20 18 32.5 42.5t20.5 49t14.5 48.5t14.5 40 q-55 -66 -115.5 -133.5t-144.5 -108.5q-98 -33 -196 -35h-15q-91 0 -177 23q-94 25 -179 73t-158 115q98 182 125 389q7 56 7 110q0 149 -53 290q-25 31 -50 63.5t-57 59t-72 42.5q-29 11 -64 11q-14 0 -29 -2q-20 0 -32.5 -9.5t-20.5 -22.5t-14.5 -30.5t-12.5 -31.5 q16 -31 27.5 -37t22 1t19.5 22.5t21.5 26.5t28.5 14t41 -13q63 -43 111.5 -100.5t70.5 -126.5q2 -51 2 -105q0 -41 -1 -83q-3 -97 -23.5 -187t-64.5 -167t-124 -128q-13 -3 -24 -3q-22 0 -41 11q-27 15 -49.5 40.5t-41 57t-36.5 56.5q-31 57 -53.5 136t-29.5 165 q-2 30 -2 60q0 55 8 109q13 83 56 150q0 23 4.5 47.5t-18.5 32.5q-35 10 -53.5 -7t-38.5 -38q-31 -115 -34 -233z" />
<glyph unicode="R" horiz-adv-x="929" d="M31 64q-2 -3 -2 -8q0 -14 20 -36q41 2 64.5 26t39 56.5t28 68.5t30.5 62q92 -41 183 -85t184 -80q94 -36 193 -58q77 -17 162 -17q24 0 48 1q18 12 38.5 23.5t38.5 24.5q18 14 28 32q9 16 8 38v9q-16 33 -27.5 32t-19 -16.5t-14.5 -36t-17 -24.5q-49 -8 -97 -7 q-49 0 -97 8q-92 17 -179.5 53t-171.5 86t-166 99q47 43 108.5 73t114.5 64q54 32 88 82q31 44 31 114v16q-23 111 -113.5 175t-207.5 64q-16 0 -31.5 7.5t-33 13.5t-37.5 8h-7q-18 0 -39 -8q-4 -10 -15 -16.5t-21.5 -14.5t-12.5 -19.5t14 -29.5q-33 -90 -41 -177 q-6 -70 -6 -138v-34q2 -85 6 -169q1 -28 1 -56q0 -56 -5 -114q10 -29 -6 -42.5t-34.5 -24.5t-26.5 -25zM196 484q3 56 9 112.5t12 114t8 112.5q43 -16 95.5 -22t100.5 -17.5t88 -37t58 -82.5v-7q-1 -67 -37 -108q-38 -43 -94.5 -73t-122 -52.5t-114.5 -48.5q-4 35 -4 72 q0 18 1 37z" />
<glyph unicode="S" horiz-adv-x="610" d="M110 634q2 -56 18.5 -108.5t43.5 -100.5t53.5 -97t49 -99.5t30.5 -105.5q-8 -29 -27.5 -46.5t-43 -26.5t-48 -11t-41.5 4q0 -31 14.5 -56.5t30.5 -35.5q14 25 42 34t56.5 18t55.5 24.5t41 50.5q-4 59 -20.5 113.5t-41 105.5t-53 99t-59.5 96q-17 54 -19 112q0 5 -1 10 q-1 52 15 100q16 52 52.5 95t93.5 72q20 23 50 16.5t56 -15.5q24 -8 42 -4q13 3 14 29q0 8 -2 19q-40 50 -105 50q-11 0 -22 -1q-43 -23 -82 -42.5t-71.5 -44t-58.5 -56t-42 -78.5q-21 -57 -21 -108v-12z" />
<glyph unicode="T" horiz-adv-x="944" d="M45 956q33 -29 72 -41t81 -17t85 -9t84 -12q-31 -111 -31 -226q0 -113 2 -225v-41q0 -91 -7 -181q-9 -110 -59 -212q10 -18 18 -20l8 -2q5 0 9 2q8 3 18.5 7.5t28.5 -2.5q48 109 56 225q6 92 6 185v50v52q0 91 5 181q7 116 58 225q199 4 385.5 28.5t372.5 65.5v33 q-88 -16 -170 -25.5t-165 -14.5t-167 -10t-174 -16q-8 10 -19.5 14.5t-23.5 7.5t-22.5 9t-16.5 21q-48 -34 -105 -34h-4q-60 1 -120 8t-114 8h-3q-52 0 -88 -34z" />
<glyph unicode="U" horiz-adv-x="1017" d="M127 848q16 -141 43 -276.5t72 -270.5q25 -49 61.5 -92t81.5 -77t97.5 -53.5t107.5 -19.5q82 66 131 155t78.5 189.5t47 204t36.5 195.5q10 9 13 29q1 8 1 15q0 11 -3 23q-4 18 -20 29q-7 5 -17 5q-11 0 -26 -7q-35 -92 -52 -192.5t-36.5 -198.5t-52.5 -192.5 t-100 -174.5q-92 12 -151.5 52t-96.5 99.5t-56.5 132.5t-33.5 149.5t-27.5 151.5t-38.5 138q-18 10 -30.5 -2t-28.5 -12z" />
<glyph unicode="V" horiz-adv-x="876" d="M14 930q31 -207 97.5 -395.5t177.5 -362.5q23 -16 41 -52t40 -66t46 -38q5 -2 9 -1q22 0 50 30q37 131 73 263t80 261t100 252t136 238q-16 9 -28 23q-8 10 -23 10q-6 0 -14 -2q-111 -225 -212.5 -454.5t-156.5 -483.5h-35q-231 346 -299 757q-4 20 -16 30.5t-25.5 12.5 t-26 -4t-14.5 -18z" />
<glyph unicode="W" horiz-adv-x="1202" d="M72 744q8 -114 32.5 -234.5t60.5 -239t77 -225.5q16 -4 23 9.5t24 19.5q8 45 12 114.5t9 148.5t17.5 157.5t41.5 140.5q14 8 20 19.5t10 21.5t9.5 18t19.5 8q90 -76 142.5 -167t93.5 -187t84 -191.5t116 -176.5q10 20 35 25t45 22q25 90 38 186t24.5 192.5t26 188.5 t38.5 176q-2 29 20.5 58.5t40.5 57.5q20 30 20 55t-46 48q-51 -82 -83 -179t-53.5 -200.5t-36.5 -211t-36 -212.5q-10 -4 -16.5 -14t-16.5 -20q-72 82 -113.5 180t-84.5 193.5t-101.5 176t-161.5 129.5q-37 -51 -62.5 -106t-46 -112.5t-36.5 -116t-37 -115.5 q-29 59 -40 125.5t-17 137.5t-9 142.5t-14 143.5q-16 10 -28.5 23.5t-30.5 2.5q-12 -68 -12 -144q0 -33 2 -68z" />
<glyph unicode="X" horiz-adv-x="1017" d="M76 909q2 -59 32.5 -117.5t77.5 -110.5t102.5 -96t108.5 -77q-51 -121 -97 -241t-97 -242q35 20 63.5 56t53 81t43 93t34.5 93q6 51 22.5 71.5t37.5 20.5q23 0 48 -15t51 -34.5t50.5 -38t44.5 -24.5q55 -6 90 -50.5t65 -88.5q30 -45 64 -69q14 -10 33 -10q26 0 58 21 q-33 72 -87.5 124t-116 95t-126 83t-119.5 87q86 141 208 265t255 204q2 4 2 7q0 4 -2 6l-9 9t-8 11t3 16q-86 -27 -159 -77t-136.5 -113.5t-118.5 -136t-103 -142.5q-55 33 -100 80t-87 96.5t-85 94.5t-96 69z" />
<glyph unicode="Y" horiz-adv-x="884" d="M24 992q-5 -8 -5 -15q0 -11 10 -21q31 -80 85 -143t115.5 -122.5t120 -117t97 -125t47.5 -146.5q2 -15 2 -32q0 -67 -31 -149q4 -18 6 -44t10 -46.5t25 -30.5q6 -4 15 -4q14 0 36 10q4 46 4 94q0 42 -3 86q-7 95 -7 189q0 96 16.5 186t69.5 168q25 35 64.5 57.5t74.5 44 t58 49.5q15 19 15 48q0 13 -3 28q-66 -25 -122 -68.5t-104.5 -96t-86 -109.5t-68.5 -113q-117 109 -213.5 215.5t-190.5 233.5q-25 -6 -37 -26z" />
<glyph unicode="Z" horiz-adv-x="1017" d="M-53 63q2 -32 33 -43q38 3 74 3q110 1 208 -27q130 -36 255.5 -87.5t253.5 -98t273 -52.5q88 10 173.5 43t162 82t142 111.5t112.5 132.5q-100 -141 -217 -205t-243 -76q-39 -4 -78 -3q-90 -1 -182 19q-132 28 -266 74t-266 96t-255 83q182 176 354 354t367 354 q16 31 16 78q0 49 -16 84q-45 6 -91 6q-71 1 -143 -13q-120 -22 -231 -48q-20 -16 -53 -13t-63.5 4t-54.5 -6.5t-26 -42.5q60 -21 121 -21q7 1 13 1q68 2 138 14.5t140 28.5t137 23q6 -10 15.5 -14.5t17.5 -7.5t12 -7t2 -17q-90 -84 -186 -187t-198.5 -207.5t-211 -200 t-221.5 -162.5q-18 -18 -18 -46v-6z" />
<glyph unicode="[" horiz-adv-x="675" d="M70 -47q45 -35 100 -41t109 -27q27 23 63.5 20t67 -4t50 13t11.5 72q-37 6 -82 1t-88 -5q-41 0 -78 9t-59 44q20 111 33.5 222.5t28 223t34 221t51.5 216.5q33 55 79 88.5t99.5 57t110.5 40t113 35.5q-43 39 -93.5 35.5t-103.5 -27t-105.5 -55.5t-99.5 -50 q-57 -41 -80.5 -95t-34 -115.5t-19.5 -123t-40 -114.5q10 -80 4 -160t-19 -160.5t-28.5 -160.5t-23.5 -160z" />
<glyph unicode="\" horiz-adv-x="880" d="M143 1452q6 -207 69.5 -388t152 -353t181.5 -340t159 -346q23 6 42 12t39 2q-147 274 -277 548.5t-251 561.5q-23 33 -27 84t-9 98t-20.5 83t-58.5 38z" />
<glyph unicode="]" horiz-adv-x="675" d="M-129 -172v-14q129 -10 256 -3t258 3q4 4 13.5 14t13.5 20q-25 150 -9.5 289t48 275.5t68.5 273.5t54 285q10 80 -27.5 109.5t-96 33.5t-126 -3t-118.5 1q8 -45 45 -56.5t82 -14.5t87 -14t58 -56q-14 -193 -57 -369t-88 -354q-10 -98 -10 -178t-17 -160 q-111 -23 -217 -47.5t-217 -34.5z" />
<glyph unicode="^" horiz-adv-x="1249" d="M100 592q8 -12 17.5 -16.5t19.5 -4.5q12 0 22.5 1t20.5 -1q82 76 163 146.5t156.5 144.5t145.5 154t131 172q106 -203 188.5 -406.5t153.5 -416.5q14 4 25.5 0.5t19.5 -6.5t15.5 1.5t17.5 24.5q-59 160 -116.5 320.5t-123.5 320.5q-16 39 -34.5 83t-41 85t-52 73 t-66.5 48q-35 -72 -82 -140.5t-99.5 -133t-108.5 -122t-110 -106.5q-31 -29 -70.5 -51.5t-78.5 -46t-69.5 -52t-43.5 -71.5z" />
<glyph unicode="_" horiz-adv-x="894" d="M77 -20.5q-1 -12.5 5 -24.5t15 -23.5t12 -21.5q76 -14 155.5 -16.5t159.5 -2.5t160 -1t155 -13q20 -12 45 -15t43.5 6t25.5 31.5t-7 57.5q-82 14 -178 14q-94 0 -193.5 -1t-196 4t-182.5 30q-18 -12 -19 -24.5z" />
<glyph unicode="`" horiz-adv-x="722" d="M287 1391q16 -66 45.5 -137.5t73 -138t99.5 -122t124 -86.5q-29 61 -67 125t-78 126.5t-79.5 120.5t-72.5 112h-45z" />
<glyph unicode="a" horiz-adv-x="851" d="M39 133q-1 -7 -1 -15q0 -38 17 -73q78 33 146.5 86t133 114.5t128 123t133.5 108.5q-16 -113 -43 -238.5t-27 -261.5q22 -27 52 -44q20 -12 46 -12q12 0 25 3q16 12 44 31.5t52.5 43.5t38 50.5t0.5 54.5q-29 0 -48 -12t-35.5 -26.5t-35 -24.5t-42.5 -6q-8 47 -8 90 q0 22 2 42q6 62 21 120.5t36.5 116t42.5 114.5q2 31 22.5 47.5t40 32.5t29.5 38q4 8 4 19q0 17 -10 41q-82 47 -180 47q-96 0 -191.5 -39.5t-177.5 -112.5t-131 -169q-10 -45 -29.5 -94t-35 -98.5t-19.5 -96.5zM141 203q20 111 91 215t169 170q25 10 62 29.5t71 30.5 q25 8 45 8q7 0 14 -1q26 -4 30 -39q-57 -49 -114.5 -104t-117 -109.5t-121 -105.5t-129.5 -94z" />
<glyph unicode="b" horiz-adv-x="694" d="M78 -104q78 10 138 37.5t108.5 68.5t87.5 96.5t71 120.5q25 31 28 80q1 21 1 43q0 28 -2 58q-4 52 -7 104q-1 12 -1 23q0 37 8 66q10 37 42 55q17 9 44 10q23 0 53 -7q16 2 40 8.5t42.5 19.5t27.5 33q4 9 4 20q0 13 -5 28q-27 8 -45.5 -6.5t-34.5 -22.5q-42 -6 -94 -10 q-26 -2 -50.5 -2t-47.5 2q-46 4 -85 22.5t-57 57.5q61 125 106.5 255t100.5 257q8 16 21.5 44.5t19.5 56.5t-4 48q-9 18 -42 17h-7q-61 -207 -143.5 -393.5t-155 -373t-120.5 -384.5q-43 -176 -43 -381q0 -25 1 -51zM162 47q0 16 -1 32q0 72 8 137q9 79 27.5 152.5t46 145.5 t62.5 148h8q47 0 70 -23q25 -25 35 -63.5t12 -82.5t12 -79q-12 -129 -73.5 -216t-178.5 -165q-8 0 -14 5t-14 9z" />
<glyph unicode="c" horiz-adv-x="634" d="M-6 8q35 -22 73 -22h3q39 0 79.5 10t80.5 26.5t79 26.5q43 37 100.5 73t108.5 75t86 85t35 101q-61 -55 -125.5 -108.5t-134.5 -95.5t-142.5 -66.5t-150.5 -24.5q18 80 48 166t74 162t105.5 135t145.5 90q23 6 41 -8.5t33.5 -36t27.5 -40.5t20.5 -24.5t12.5 12t4 70.5 q-14 68 -72 88q-41 14 -83 13q-17 0 -35 -2q-113 -47 -180.5 -126t-110.5 -175.5t-70 -201t-53 -202.5z" />
<glyph unicode="d" horiz-adv-x="837" d="M31 127q-1 -14 -1 -27q0 -64 23 -125q49 23 94.5 68t92.5 98.5t97 107.5t112 95q-10 -94 -18.5 -184t-20.5 -201q84 6 164.5 49t153.5 105.5t137.5 139.5t113.5 150q-61 -16 -111.5 -59t-99.5 -93t-101.5 -97.5t-119.5 -69.5q-45 4 -51 36q-2 12 -3 25q-1 23 7 51 q12 44 29.5 92t17.5 85q63 74 91 155.5t43 167.5t31.5 172t59.5 168q4 14 9 42t3 51.5t-17 35.5q-7 6 -19 6q-14 0 -33 -8q-16 -66 -30.5 -132t-32 -131.5t-38 -129t-49.5 -121.5q-92 -10 -178 -25.5t-158 -72.5q-47 -55 -91 -125t-72.5 -145.5t-34.5 -153.5zM162 322 q12 35 37.5 72.5t59.5 70.5t73 56.5t78 29.5q33 10 53 10q9 0 15 -2q20 -7 21 -23v-2q0 -16 -13 -36q-14 -22 -37 -39q-27 -10 -69 -52t-87 -91.5t-85 -91.5t-62 -54q-6 -3 -11 -3q-11 0 -11 20q0 31 38 135z" />
<glyph unicode="e" horiz-adv-x="595" d="M-45 315v-7q-1 -31 15 -40q18 -10 41.5 -9t47 4t35.5 -5v-18q0 -40 -7 -84q-9 -54 -12 -104q-1 -9 -1 -18q0 -41 12 -78q14 -46 64 -83q30 -6 58 -6q54 1 96 23q66 34 118.5 94.5t96.5 133t87 128.5q-49 -39 -96 -85t-94 -89t-98.5 -79t-108.5 -52q-67 102 -67 173 q0 66 37 118q38 52 100.5 94.5t125 89.5t111.5 104.5t62 141.5q16 16 16 47q0 33 -16 51q-42 9 -78 9q-42 -1 -74 -13q-60 -24 -102.5 -73.5t-76.5 -113t-73 -120t-90 -95.5t-129 -39zM271 465q0 17 30 47q25 25 44.5 50.5t41 48t47 37t62.5 14.5q-20 -47 -53 -92t-72 -76 q-10 -30 -34 -42q-21 -11 -38 -10h-5q-22 3 -23 23z" />
<glyph unicode="f" horiz-adv-x="612" d="M-74 629q37 27 83 34q24 4 48 4q23 0 47 -3q48 -7 92 -22t76 -32q-25 -98 -54.5 -217t-61 -240.5t-66.5 -238.5t-70 -215q35 -10 60 -17q3 -1 7 -1q21 0 42 30q16 106 42 228t56.5 244t65.5 239t67 217q45 6 97.5 9t108 9.5t109.5 17.5t101 34v41q-47 -4 -91 -10.5 t-88 -12.5t-92 -9q-21 -1 -43 -1q-29 0 -61 2q23 127 72 256t145 229q20 20 48 31.5t55 9.5t49.5 -17.5t32.5 -45.5q4 -45 9 -61.5t9 -11.5t10.5 27.5t12.5 55.5q-23 27 -37 57.5t-49 53.5q-15 1 -29 1q-63 0 -109 -22q-55 -27 -94 -75t-66.5 -112.5t-52 -131t-51 -131 t-65.5 -113.5q-8 -1 -18 -1q-23 0 -52 4q-41 5 -86 12t-87 9h-15q-33 0 -57 -7q-31 -9 -46 -34q-9 -13 -9 -35q0 -17 5 -38z" />
<glyph unicode="g" horiz-adv-x="763" d="M-557 -258q-6 -32 -6 -64q0 -58 19 -118q30 -92 108 -162q31 -33 69.5 -53.5t80.5 -29.5t85 -11q14 -1 28 -1q28 0 54 3q180 86 299 222t204 297t150.5 334t137.5 333q49 61 60 98q4 15 4 27q0 18 -9 31q-16 20 -53 28t-81 11t-90 4t-79 9q-76 -16 -137.5 -61 t-107.5 -106.5t-74.5 -133t-38.5 -141.5q8 -20 1.5 -54t-7.5 -68t12.5 -60.5t62.5 -28.5q63 35 114.5 80t97.5 92t91 92t94 82q-47 -141 -100 -285.5t-127 -278.5t-175 -251t-249 -205q-47 -19 -91 -19q-46 0 -89 21q-84 41 -150 119q-35 43 -47 88q-9 34 -9 68q0 11 1 22 q4 45 22.5 87t45.5 81q-18 0 -34.5 -10t-30 -25.5t-28 -33t-28.5 -29.5zM139 238q8 51 47 155q37 39 73 85t79 81t96 49q22 6 46 6q36 0 79 -12q15 -4 15 -13q0 -5 -2 -11q-3 -7 -8 -14t-5 -13q-20 -14 -56 -51t-78 -83t-87 -94.5t-84 -86t-68 -56.5q-18 -11 -30 -11 q-8 0 -12 5q-8 7 -8 29q0 14 3 35z" />
<glyph unicode="h" horiz-adv-x="776" d="M43 -37q14 -12 29 -12q12 0 22 6q28 14 47 37q27 82 66 164t89 158.5t108.5 143t123.5 115.5q-12 -49 -13 -102v-21q0 -42 3 -84q4 -52 8 -103q3 -33 3 -64q0 -16 -1 -31q8 -18 18.5 -39.5t27 -38t39 -23t55.5 4.5q90 70 162.5 162t95.5 182q-66 -86 -137.5 -148.5 t-161.5 -109.5q-25 50 -28 108q-1 19 -1 39q0 38 4 77q6 58 15.5 113.5t9.5 104.5q-6 14 -10.5 39t-13.5 44.5t-25.5 29.5t-49.5 -2q-78 -100 -165 -209t-170 -205q49 236 114.5 478.5t151.5 471.5q-4 25 7 57.5t18.5 63.5t-2 55.5t-52.5 30.5q-47 -186 -101.5 -371.5 t-107.5 -372t-99 -373.5t-79 -376z" />
<glyph unicode="i" horiz-adv-x="528" d="M97 122q0 -101 55 -206q27 -4 52 -4q70 0 122 29q72 39 127 105.5t98 147t86 150.5q-59 -33 -104.5 -86t-88.5 -108.5t-91 -103.5t-113 -71q-50 70 -56 149q-2 22 -1 45q-1 57 11 115q16 81 45 160.5t52 151.5q2 14 10 46t9 59.5t-13 42.5t-57 1q-12 -104 -49 -206.5 t-65 -206.5q-29 -108 -29 -210zM418 1156q4 -18 16 -34t25.5 -31.5t15.5 -27.5q2 10 7 19.5t10.5 18.5t7.5 21q1 4 1 8q0 9 -3 19q-8 4 -14.5 13t-13.5 16q-8 8 -18 12q-5 2 -11 2t-13 -2q-11 -12 -11 -26q0 -4 1 -8z" />
<glyph unicode="j" horiz-adv-x="411" d="M-593 -272q1 -23 3 -39q29 -47 62.5 -104.5t77.5 -103.5t100 -69q28 -13 62 -13q31 0 67 11q131 68 214 163t134 208t77.5 239.5t47 256t41 258.5t57.5 247q-14 10 -25 21.5t-34 7.5q-49 -106 -72.5 -216t-38 -218.5t-27 -216t-40 -210t-78.5 -199.5t-139 -185 q-29 -18 -61 -39t-65.5 -33t-66.5 -13h-4q-31 0 -59 15q-20 31 -57.5 61.5t-68 65.5t-44.5 75q-6 15 -6 31q0 27 16 58q-31 12 -46.5 5t-21.5 -24q-5 -16 -5 -34v-6zM446 1330q-5 -5 -5 -12q0 -10 8 -24q10 -18 27 -36q14 -15 25 -15h3q10 2 21.5 28.5t15.5 51.5 q-4 12 -25 19q-13 4 -26 4q-7 0 -14 -2q-19 -3 -30 -14z" />
<glyph unicode="k" horiz-adv-x="731" d="M38 -60v-7q0 -40 30 -80q49 6 62 37.5t17.5 73.5t10.5 84t39 69q55 -18 111.5 -41t113.5 -44.5t113.5 -35.5t115.5 -16q82 20 141.5 76.5t94.5 129.5q-29 -2 -51.5 -14t-44 -29.5l-43 -35t-46.5 -29.5q-45 -11 -88 -11q-22 0 -43 3q-63 8 -122.5 29.5t-117 55 t-112.5 70.5q51 51 116.5 99.5t118.5 103.5q52 54 76 120q11 29 11 62q0 41 -17 88q-24 9 -47 9q-15 0 -29 -4q-36 -11 -68 -35.5t-60.5 -55t-53.5 -53.5q-1 26 -1 52q-1 80 13 160q18 106 40 213.5t36 215.5q8 57 8 114q0 51 -6 103h-41q-14 -139 -37.5 -277.5t-49 -275.5 t-50 -272t-39.5 -268q-4 -23 -15 -38.5t-24.5 -28.5t-26 -26.5t-16.5 -31.5q19 -30 19 -61q0 -10 -2 -21q-8 -43 -20.5 -88t-15.5 -89zM266 352q20 74 69.5 143.5t108.5 116.5v-8q0 -28 -12 -58q-14 -36 -39.5 -72t-59.5 -69t-67 -53z" />
<glyph unicode="l" horiz-adv-x="356" d="M100 -70q74 6 124 46t88 95.5t72 117t73 110.5q-33 -18 -69 -47t-72.5 -62.5t-74.5 -70.5t-73 -70q0 137 15.5 274.5t37 274.5t46 274.5t40.5 272.5q-1 8 -1 17q0 24 8 50q10 38 16 73.5t-1 62t-48 32.5q-25 -182 -62 -364t-69 -364q-34 -183 -50 -363q-8 -91 -8 -183 q0 -88 8 -176z" />
<glyph unicode="m" horiz-adv-x="1298" d="M60 -2q2 -27 22 -40q8 -5 21 -5q17 0 42 10q39 98 81 191.5t94.5 179.5t118 163.5t151.5 145.5q10 -50 10 -101q0 -32 -4 -64q-10 -83 -32.5 -166t-49.5 -163.5t-41 -154.5q51 4 83 36.5t54.5 78t44 93.5t56.5 85q39 39 71.5 88t67.5 94t75 81t91 52q18 -74 26.5 -142.5 t21.5 -134t38.5 -127t81.5 -118.5q19 -5 37 -5q33 1 61 17q43 26 78 68q12 18 32 44q20 24 36 48q17 25 17 42q0 15 -28 15q-10 -31 -31.5 -56.5t-48 -46t-57.5 -35.5t-57 -24q-53 57 -70.5 128t-27 145t-22.5 146.5t-59 133.5q-61 -12 -111 -49t-94 -86t-85 -102t-84 -96 q-4 25 -2 50t8 52t12 53.5t10 52.5q-6 23 -11 52.5t-15 55.5t-29.5 43t-52.5 15q-47 -41 -99.5 -94t-101.5 -108.5t-95 -107.5t-81 -91q20 109 44 218.5t28 213.5q-6 8 -11.5 24.5t-11.5 29t-18 14.5h-2q-11 0 -29 -19q-2 -94 -16.5 -184t-36 -179t-44 -177t-38.5 -179 q-6 -16 -14 -46q-5 -22 -5 -42q0 -8 1 -16z" />
<glyph unicode="n" horiz-adv-x="858" d="M23 -29q12 -18 31.5 -17t35.5 -11q37 84 82 169t101.5 163.5t124 150.5t149.5 127q10 -61 12 -114.5t2 -106.5t2 -109.5t12 -124.5q0 -35 19.5 -60.5t49.5 -39.5t65 -14t63 16q43 25 82 65.5t70.5 87t55.5 94.5t40 87q-35 -31 -75 -75t-84 -84t-91 -67.5t-96 -27.5 q-41 63 -42 137v19q0 66 6 130q7 74 7 146q0 74 -39 139q-115 -41 -216 -129t-161 -207q-6 4 -12 0t-10 -8t-10 -4q-4 0 -9 12q23 100 41.5 195.5t40.5 191.5q-18 -96 -25 -125.5t-5 -17.5t11 54t19 89q-2 12 -8 14.5t-12 3.5t-12.5 2t-8.5 11q-41 -84 -65.5 -179 t-44 -193.5t-41 -198t-55.5 -191.5z" />
<glyph unicode="o" horiz-adv-x="507" d="M71 293q5 -78 11 -158q8 -37 23.5 -80t40.5 -73q24 -32 60 -44q12 -4 25 -4q26 0 58 17q49 66 73 137q24 72 34 148q7 55 7 112q-1 21 -1 42q-4 79 -5 159q31 -2 63 -3h8q28 0 58 6q34 7 66.5 29.5t64.5 67.5q-70 -23 -126 -29q-25 -3 -49 -3q-30 1 -59 5 q-52 8 -104.5 26.5t-109.5 49.5q-63 -53 -93 -118.5t-40 -137.5q-7 -48 -7 -98q0 -25 2 -51zM160 305q0 78 15 151.5t46 133.5h7q36 0 54 -20q18 -22 26.5 -52.5t11 -64t10.5 -60.5q7 -41 7 -80q1 -66 -21 -123q-34 -90 -95 -172q-31 59 -46 134t-15 153z" />
<glyph unicode="p" horiz-adv-x="636" d="M-143 -715q2 -6 9 -17t16 -19.5t18 -11.5q3 -1 5 -1q6 0 11 8q43 180 110.5 363.5t123.5 369.5q4 -12 12 -14t16 -2q10 0 16.5 -1t8.5 -13q74 72 147.5 146.5t132 156.5t89.5 175q24 71 24 152q0 25 -2 52q-25 49 -52.5 62.5t-57 6t-60.5 -30t-61.5 -47t-59.5 -43 t-55 -18.5q0 12 -2 29.5t14 21.5q-1 8 -1 17q0 26 9 59q13 43 19 83q2 15 2 27q0 23 -7 40q-10 28 -61 28q-16 -104 -43.5 -205.5t-27.5 -209.5q-10 -12 -19.5 -21.5t-19.5 -24.5q-10 -20 -27.5 -46.5t-26 -53.5t1 -51.5t52.5 -38.5q-18 -123 -51 -238.5t-70 -229.5 t-73 -227.5t-60 -232.5zM190 45q-3 23 -3 50q0 47 9 103q15 87 25 164q33 27 64.5 64t64.5 70.5t68 59.5t78 32q4 -21 4 -40q0 -37 -12 -70q-19 -50 -31 -97q-18 -43 -53 -88t-73 -88t-76 -84t-65 -76z" />
<glyph unicode="q" horiz-adv-x="698" d="M53 211q0 -72 31 -148q40 -30 79 -30h3q41 0 79 16.5t71.5 41t60.5 40.5q-47 -180 -103.5 -365.5t-91.5 -363.5q16 2 38 -2q4 -1 8 -1q16 0 22 13q12 121 47 232.5t77 220t84 216t70 220.5q12 49 38 94t50.5 89t39.5 90q11 31 11 65q0 17 -3 35q-16 18 -35 15t-36.5 -9 t-33.5 -6q-17 -1 -31 28q-43 20 -90 24q-15 2 -29 2q-32 0 -62 -7q-44 -10 -83 -37t-65 -68q-39 -59 -73 -124.5t-53.5 -136t-19.5 -144.5zM152 121q-2 30 -2 59q0 45 5 90q9 76 37.5 146.5t76.5 130t120 100.5q15 5 28 5q8 0 15 -2q17 -5 32 -16t30.5 -24.5t33.5 -21.5 q-25 -72 -58.5 -142.5t-79.5 -134t-105.5 -112.5t-132.5 -78z" />
<glyph unicode="r" horiz-adv-x="595" d="M48 136q-2 -15 -2 -30q0 -49 17 -102q16 -4 32 1t26 -11q31 41 49 90t33.5 102.5t31 107.5t42 102t68.5 87t110 64q37 35 57 35q4 0 8 -2q20 -10 34.5 -36t32 -52.5t56.5 -16.5q2 18 2 35q0 69 -39 117q-39 20 -75 20q-12 -1 -24 -3q-46 -10 -88 -32t-81 -48.5t-78 -35.5 q-13 23 -13 55v13q2 25 2 48q0 15 -1 30q-2 38 -18 62q-13 20 -49 19q-9 0 -19 -1q32 -74 32 -138q0 -66 -20 -130q-18 -60 -47 -116.5t-50.5 -114t-28.5 -119.5z" />
<glyph unicode="s" horiz-adv-x="428" d="M-33 12q2 -14 6 -27.5t0 -19.5q23 -6 45.5 -21.5t47 -30.5t52.5 -21q10 -2 20 -3q20 0 44 9q68 39 96 89q27 51 28 109v7q0 55 -13 115q-14 64 -28.5 129t-18.5 129q-1 11 0 22q0 53 16 102q6 39 33 53.5t55.5 21.5t52 16t25.5 38q-4 15 -18 21q-12 5 -27 5h-5 q-18 -1 -37.5 -4t-33.5 1q-39 -8 -61.5 -32t-35.5 -54.5t-18.5 -65.5t-9.5 -68q-9 -38 -9 -76q0 -18 2 -38q7 -58 20.5 -114t24.5 -108q9 -41 9 -79q0 -10 -1 -20q-3 -46 -29.5 -84t-87.5 -62q-16 6 -35 13t-35 19.5t-27.5 28t-11.5 35.5q-25 -2 -31 -12q-5 -8 -5 -17 q0 -3 1 -6z" />
<glyph unicode="t" horiz-adv-x="663" d="M-23 539q0 -41 9.5 -54.5t25 -12.5t36 10.5t42 17.5t41.5 8q23 0 41 -21q-25 -45 -34 -100t-10 -113v-39q0 -39 1 -77q1 -19 1 -36q0 -36 -3 -67q2 -29 9 -59.5t21.5 -56t35 -43t51.5 -19.5q6 -1 11 -1q13 0 25 6q18 9 31 26.5t14 38t-14 39.5q-16 8 -22 4t-9.5 -12.5 t-7.5 -15.5t-18 -5q-37 67 -49 137q-8 49 -8 99q0 21 1 41q5 70 23.5 140t44.5 136q139 8 271.5 27.5t259.5 58.5q4 14 10 36q2 6 2 10q0 14 -12 22q-127 -38 -248 -54q-65 -9 -130 -8q-55 0 -108 6q0 47 23.5 88t58.5 66q2 8 9.5 18.5t13.5 20.5t5 21.5t-15 21.5 q-49 -12 -81 -44t-56.5 -71t-49 -79t-55.5 -70q-31 -28 -76 -42q-21 -6 -47 -7q-29 0 -64 8z" />
<glyph unicode="u" horiz-adv-x="835" d="M44 126v-10q0 -22 4 -42q4 -24 22 -35q10 -7 25 -7q13 0 30 5q61 45 115.5 101.5t106.5 114.5t106.5 116.5t115.5 109.5q2 -29 1 -62.5t-2 -70.5v-24q0 -24 1 -48q2 -36 11 -69q4 -31 23.5 -59.5t47 -47t59.5 -21.5h8q29 0 58 19q23 8 48.5 19.5t48 27t38 38t15.5 52.5 q-29 -10 -55.5 -30.5t-54.5 -35.5t-58 -19q-5 -1 -11 -1q-26 0 -57 17q-37 68 -40 136q-1 13 0 27q0 55 10 111q12 70 29.5 139.5t19.5 139.5q-10 -4 -15.5 -2t-8.5 7t-7 8q-2 1 -4 1q-3 0 -6 -2q-43 -82 -104.5 -161t-133.5 -149.5t-149.5 -132t-155.5 -110.5q6 59 11 124 t10.5 128.5t13.5 122.5t24 108q-55 -18 -80.5 -74.5t-36 -128t-12.5 -147.5t-10 -133q0 -22 -1 -50z" />
<glyph unicode="v" horiz-adv-x="643" d="M112 518q-2 -44 -1 -89q0 -51 2 -103q4 -98 9 -197q2 -45 2 -88q0 -52 -3 -102h67q86 70 143.5 162t105.5 188t94.5 188t111.5 164q-8 14 -11 35.5t-8.5 41t-15.5 34t-33 14.5q-41 -84 -77.5 -178t-79.5 -185.5t-98.5 -174.5t-131.5 -140q0 78 -1 148.5t-1 138.5 q0 70 3.5 138.5t11.5 143.5q-6 4 -11.5 14.5t-10.5 18.5t-13 11.5t-23 -3.5q-27 -86 -31 -180z" />
<glyph unicode="w" horiz-adv-x="925" d="M46 513q1 -79 11.5 -162t26.5 -165t31 -157q8 -4 15 -4q3 0 6 1q9 3 16.5 9t14.5 9t17 -3q-4 29 -4 56q0 53 16 101q24 72 62.5 136.5t81.5 127t70 132.5q31 -61 52 -126t39.5 -130.5t40 -130t56.5 -121.5q8 0 16.5 -5t15.5 -8t13 -1t12 14q61 70 107.5 149.5t83.5 165.5 t64.5 177.5t52.5 181.5q-10 12 -17.5 13t-13.5 -1t-14 -2q-7 0 -15 8q-51 -154 -107.5 -301t-156.5 -270q-31 63 -52.5 129.5t-42 133.5t-42 133.5t-53.5 129.5q-45 -16 -76 -50t-55.5 -77t-46 -89t-48.5 -85q-47 -68 -67.5 -76t-26.5 18q-5 23 -5 63v13v33q0 33 -1 65 q-2 48 -14.5 83t-45.5 31q-17 -66 -17 -141v-8z" />
<glyph unicode="x" horiz-adv-x="784" d="M-45 -12q6 -1 12 -1q41 -1 80 23q45 26 86 63.5t79 76t71 57.5q18 -45 32.5 -94.5t27.5 -98.5t31.5 -95t47.5 -85q27 31 28 60.5t-10.5 58.5t-26 57.5t-16.5 57.5q-43 83 -43 149v11q4 70 39 129t94.5 109t125 97t131 94.5t110.5 102.5v41q-14 10 -20 22q-5 9 -14 9 q-3 0 -7 -1q-53 -43 -111.5 -92t-118 -101t-118.5 -105.5t-115 -100.5q-16 12 -21 29.5t-4 38t3 42t0 40.5q-10 18 -20.5 44.5t-24 49t-33 34t-47.5 -0.5q0 -39 8 -70t31 -57q41 -62 46 -118q1 -10 1 -21q1 -43 -17 -83q-22 -48 -62 -91.5t-85 -83.5t-91 -78.5t-79 -77.5 v-41z" />
<glyph unicode="y" horiz-adv-x="743" d="M-586 -377q-9 -24 -9 -48q0 -31 15 -64q25 -53 63 -93.5t86 -66t101.5 -41t106.5 -19.5q174 57 314 178t247.5 277t181.5 331t117 345q8 37 27.5 71.5t37 68.5t28.5 67q7 21 7 43q0 12 -2 24q-13 1 -25 1q-48 0 -88 -19q-49 -23 -89.5 -63t-75.5 -91t-70 -100t-73 -91 t-83 -63v455q-51 -51 -69 -131q-16 -76 -16 -159v-10q1 -89 13.5 -181t20.5 -168q6 2 14.5 -2t14.5 -7.5t12 -3.5t10 13q78 133 173.5 267t203.5 232q-47 -178 -108.5 -346t-139.5 -333q-63 -76 -124.5 -163t-128 -166t-143.5 -139.5t-169 -84.5q-78 20 -149.5 46.5 t-128.5 92.5q-44 26 -44 62q0 35 13 73q12 35 17 63.5t-31 36.5q-39 -39 -58 -94z" />
<glyph unicode="z" horiz-adv-x="643" d="M-61 86q0 -8 8 -25q117 -33 227.5 -81t223 -92t228.5 -74q103 -27 220 -27h31q31 8 63.5 21.5t61 32t51 42t30.5 54.5q-84 -57 -169 -76q-55 -12 -109 -12l-61 3q-85 10 -170 41t-167.5 70t-163.5 80t-157 72q70 74 129 140.5t117.5 130t118 126.5t129.5 131 q12 14 23 35.5t15.5 41t-3.5 37t-35 25.5q-111 -16 -202 -22t-194 -37q8 -45 42 -50q15 -2 33 -2q22 0 47 3q46 6 96 12q10 1 19 1q38 0 68 -19q-70 -70 -136 -142.5t-132.5 -145.5t-134.5 -140.5t-139 -124.5q-8 -18 -8 -29z" />
<glyph unicode="{" horiz-adv-x="716" d="M-88 393q37 -33 84 -43t97 -9t98.5 11t89.5 21q43 -78 37.5 -152t-25 -146.5t-37.5 -145t-4 -146.5q27 -10 46 -14.5t38.5 -3t41 5.5t50.5 12q25 20 57.5 35.5t61 32t50 38t24.5 56.5q-35 -20 -73 -38t-78 -30t-80 -16t-77 4q33 59 54.5 135t27.5 154.5t-5 152.5t-44 131 q33 55 46.5 120t17.5 132.5t5 137t12 135t36.5 125t77.5 108.5q23 14 58.5 25.5t72.5 10.5t66.5 -16.5t41.5 -52.5q16 4 15.5 19.5t-0.5 25.5q0 39 -18.5 55.5t-46.5 22.5t-57 9.5t-52 15.5q-92 -16 -145.5 -58.5t-81 -100.5t-37 -128t-13.5 -142.5t-8 -143t-23.5 -130 t-59.5 -104.5t-114 -66q-25 -14 -59 -14h-70q-33 0 -60.5 -4t-37.5 -27z" />
<glyph unicode="|" horiz-adv-x="573" d="M182 -57q20 -4 41 3t39 17q39 178 43 352t1 347.5t5 346.5t58 345q-27 45 -43.5 55t-26.5 -3t-15 -43t-8.5 -64.5t-5.5 -66.5t-8 -50q-10 -178 -13 -334t-9.5 -302.5t-18.5 -294t-39 -308.5z" />
<glyph unicode="}" horiz-adv-x="716" d="M25.5 -208q-9.5 -3 14 -9t99.5 -21q63 12 95 52.5t46.5 95.5t14.5 123v137q0 70 5 136.5t26 119.5q31 14 69.5 12t75.5 -3t68.5 7.5t46.5 42.5q-109 27 -160 65t-62.5 84t6 98t46 108.5t57.5 116t40 119t-6.5 118.5t-80.5 115q-55 49 -126.5 56t-149.5 3 q-18 -43 -5 -56.5t40.5 -14.5t60.5 1t53 -10q94 -57 117.5 -115.5t8.5 -120t-53 -124t-65.5 -127t-31 -132t50.5 -137.5q-78 -51 -98.5 -122.5t-18.5 -156.5t8 -178t-18 -186q6 -33 -16.5 -51t-54.5 -27.5t-62.5 -12.5t-40 -6z" />
<glyph unicode="~" horiz-adv-x="1017" d="M131 717q6 -12 15.5 -26.5t21.5 -26t28.5 -16.5t34.5 3q-18 25 -26 57.5t-9 67.5t4 71t13 66q61 84 110.5 100.5t93.5 -6t84 -69.5t84 -93t95 -77t115 -16q27 14 54.5 38.5t48 52t31.5 57.5t7 58q-27 -25 -59.5 -60.5t-69.5 -66.5q-57 -14 -98 3.5t-74 51.5t-60.5 76 t-54.5 78q-80 59 -165 50t-154 -84q-37 -66 -58.5 -134.5t-11.5 -154.5z" />
<glyph unicode="&#xa1;" horiz-adv-x="526" d="M104 -261.5q6 -23.5 43 -29.5q23 78 60 165t59.5 175t16 174t-69.5 162q-4 -4 -13.5 -3t-17.5 1q-6 0 -11 -3t-3 -15q39 -37 44 -92.5t-8.5 -117t-35 -124t-33.5 -115.5q2 -25 -10 -58.5t-19.5 -64.5t-1.5 -54.5zM307 764q0 -23 24 -24t44 -1q25 14 16.5 39t-29.5 41 q-66 10 -55 -55z" />
<glyph unicode="&#xa2;" horiz-adv-x="894" d="M137 240.5q8 -76.5 43 -146.5q72 -16 88.5 -49t5 -73t-36 -81t-36.5 -73q2 -16 -2 -37t-3 -38t10 -25.5t40 -0.5q8 78 40.5 139.5t83 109.5t114 83t130.5 57q-4 29 -14 34t-26.5 -2t-36 -22.5t-41 -24.5t-45 -8t-43.5 23q47 70 65.5 152t28.5 167t23.5 168t54.5 157h88 q45 0 86 -6.5t77.5 -20.5t69.5 -43q-10 57 -41 84t-76 38t-98 13t-106 12q0 25 10 56.5t17 62.5t4.5 55.5t-31.5 34.5q-6 -74 -38 -126t-78 -92t-103.5 -72.5t-114.5 -65.5q-35 -61 -63.5 -135t-41 -151t-4.5 -153.5zM231 221q6 63 11.5 135t24 136.5t54 114.5t101.5 73 q-10 -57 -11 -129t-6.5 -147.5t-21.5 -149.5t-55 -135q-41 -6 -65.5 24.5t-31.5 77.5z" />
<glyph unicode="&#xa3;" horiz-adv-x="1269" d="M-27 -90q49 -18 102.5 -8t105.5 35.5t101.5 61.5t92.5 71q55 -4 105 -20.5t100.5 -35t102.5 -35t108 -22.5q74 -18 143.5 -8t131.5 40.5t118.5 76t105.5 98.5q-23 2 -50.5 -9.5t-57 -28.5t-60 -36.5t-59.5 -32.5q-76 -35 -156 -36t-159.5 17.5t-157.5 49.5t-148 62 q49 51 67.5 115.5t23 135t4.5 140.5q0 72 12 137q207 -16 428 -16t428 16q4 10 13 17t14 18q-121 -18 -232 -19q-111 0 -218.5 12.5t-213.5 32t-219 39.5q25 63 38 133t32.5 137.5t54.5 126t102 99.5q20 6 51 13t61 6t53.5 -15t27.5 -51q10 16 24.5 28.5t10.5 32.5 q-10 27 -31 40t-45.5 19.5t-53.5 6.5h-51q-35 -8 -60.5 -20.5t-48 -30t-46 -37t-54.5 -39.5q-35 -35 -51 -91.5t-27.5 -117t-24.5 -117.5t-41 -95t-76 -49.5t-132 21.5q-35 -2 -76 -2t-76.5 -5t-61 -21.5t-28.5 -51.5q63 -10 116.5 -5t103 12.5t100.5 9.5t115 -17 q2 -47 6 -82.5t6 -69.5t3 -74t-1 -95q-20 -41 -41.5 -91t-52.5 -89t-78 -56.5t-117 9.5q-29 -23 -63.5 -50.5t-65.5 -59.5t-53.5 -64.5t-24.5 -65.5z" />
<glyph unicode="&#xa5;" horiz-adv-x="1181" d="M78 659q49 -45 116.5 -57t134 -21.5t123 -31t80.5 -82.5q-20 -45 -65 -58.5t-98 -13.5q-51 0 -103.5 5.5t-87.5 -3.5q-10 -4 -17 -13t-18 -17q35 -37 74 -46.5t83 -6.5t93 12.5t105 13.5q25 -29 29.5 -63.5t0.5 -69.5t-9 -66.5t-1 -56.5t24.5 -39t69.5 -12 q18 35 15.5 70.5t-10 71.5t-9.5 73t19 71q29 20 76 24.5t97 5.5t94 6t67 30q-41 14 -87.5 15t-92.5 -1t-90 3.5t-79 29.5q-4 35 1 69t26 58q33 6 75 13.5t84 8.5t78.5 -10.5t57.5 -44.5q14 27 30.5 29t33 -1t31.5 1t32 37q-27 53 -65 60t-82 0t-90 -13t-85 20q23 14 42.5 39 t38 49.5t38 48t41.5 38.5q18 25 51 44t61.5 40.5t41 49t-12.5 72.5q-53 -12 -92 -45.5t-71.5 -75.5t-65.5 -84t-72 -69q-39 -74 -78.5 -96.5t-78.5 -12t-79 44t-77 74.5t-70.5 81t-64.5 58q-25 8 -43.5 35t-32.5 57.5t-27.5 58.5t-27 39t-29 -1.5t-35.5 -63.5 q86 -94 168 -189t166 -192q-41 -18 -86 -12t-91 15.5t-91 13.5t-84 -17z" />
<glyph unicode="&#xa7;" horiz-adv-x="784" d="M181.5 482q17.5 -97 67.5 -183t125 -161t161 -140q-10 -66 -31 -123t-82 -98q-23 -47 -53.5 -59.5t-64.5 -11.5t-65.5 4t-56.5 -13q8 -29 27.5 -42t43 -19.5t50.5 -6.5h51q72 27 118 80t89 115q47 84 36 150.5t-52 125t-100.5 112.5t-107.5 112.5t-73.5 127t-1.5 156.5 q25 45 50.5 91t76.5 67q23 -25 49.5 -47.5t51 -47t44 -52t27.5 -60.5q-12 -12 -31.5 -23.5t-38 -22.5t-29.5 -22.5t-7 -23.5q12 -6 34.5 -4t48 10t50 21.5t43.5 31.5q6 70 -22.5 124.5t-71.5 100.5t-89.5 90t-75 96t-29.5 115.5t46 149.5q14 25 29.5 55.5t36 58t46 46 t60.5 22.5q14 -8 16.5 -13t-3 -11t-10.5 -13.5t-3 -17.5q10 2 20.5 1t18.5 -1q10 0 17.5 4t13.5 17q4 18 10 31.5t8 26.5t-4 25.5t-29 28.5q-25 0 -54.5 4t-58 1t-55.5 -18t-45 -52q-59 -53 -82.5 -111.5t-28.5 -121t-1 -126t0 -125t-24.5 -119t-73.5 -106.5 q-29 -109 -11.5 -206z" />
<glyph unicode="&#xa8;" horiz-adv-x="722" d="M112 953.5q1 -19.5 29 -50.5q31 45 54.5 74t46 54.5t46 55t54.5 74.5q2 53 -4 69.5t-18.5 9.5t-29 -30.5t-33.5 -50t-34.5 -50.5t-29.5 -28q-16 -33 -37 -53t-33 -37.5t-11 -37zM414 942q31 31 58.5 51.5t54 39t52 41t50.5 54.5q10 12 14 30t1 33t-15 24.5t-35 7.5 q-10 -41 -42 -74t-65.5 -64.5t-57 -65.5t-15.5 -77z" />
<glyph unicode="&#xa9;" horiz-adv-x="1529" d="M139 580q18 -115 84 -213.5t144 -186.5q55 -8 70.5 1t5 28.5t-38 47.5t-57.5 58.5t-54.5 61.5t-28.5 55q-37 45 -44 98.5t1 108.5t23.5 110.5t19.5 104.5q100 123 216 190.5t265 98.5q86 -6 169 -39t154 -85t125 -121t81 -144q14 -66 28.5 -145t9.5 -156.5t-37 -147 t-108 -115.5q-76 -31 -158.5 -50t-165.5 -25t-161 4t-143 41q6 -37 26.5 -64.5t40.5 -62.5q86 12 185 12q100 0 196 13.5t181 52.5t141 129q41 66 58 140.5t17 151.5q0 78 -15 155t-40 149q-33 59 -78 116.5t-100 104.5t-118 82t-126 49q-98 23 -188 10.5t-173 -49.5 t-161 -90t-154 -111q-20 -92 -44.5 -184t-47.5 -184zM540 565q-3 -49 5 -95t29.5 -86t58.5 -65q53 -25 115 -24q63 0 112 24q12 14 39 31t48.5 31t27.5 27.5t-21 23.5q-18 -25 -42.5 -36t-52.5 -17t-57.5 -11.5t-56.5 -15.5q-27 6 -49 22.5t-38.5 39t-26.5 49t-13 51.5 q8 39 12.5 80t14.5 78t30.5 70.5t57.5 58.5q25 16 51.5 18t51 -7t48 -24.5t42.5 -33.5q20 14 15 36.5t-1 45.5q-29 45 -72 59t-88 20q-45 -8 -80.5 -34.5t-63.5 -63.5t-48.5 -79t-34.5 -79q-10 -45 -13 -94z" />
<glyph unicode="&#xab;" horiz-adv-x="1003" d="M104 449q18 -53 59.5 -102.5t93.5 -88.5t109.5 -64.5t106.5 -31.5q6 53 -32 86t-89 62.5t-100 63.5t-66 89q20 57 62.5 96t89.5 72t90 67.5t66 83.5q-4 6 -10.5 11.5t-10.5 9.5q-55 -23 -116.5 -57.5t-115 -81t-91 -100.5t-46.5 -115zM473 510q-18 -78 0.5 -122t60 -67.5 t98 -31.5t117 -15.5t116 -20.5t91.5 -44q-27 49 -71.5 76.5t-98 45t-109.5 32t-104 40.5q-8 45 20 79t66.5 63.5t74.5 59.5t46 65q-35 20 -72.5 8t-77.5 -41t-80 -64.5t-77 -62.5z" />
<glyph unicode="&#xad;" horiz-adv-x="587" d="M124 444.5q-5 -22.5 11 -43.5q43 0 96.5 -10t105.5 -13t93 6t59 50q-86 16 -166.5 27.5t-166.5 21.5q-27 -16 -32 -38.5z" />
<glyph unicode="&#xae;" horiz-adv-x="1529" d="M75 773q-3 -42 8 -81t30.5 -76.5t31 -76.5t6 -79t-39.5 -83q20 -66 58 -126.5t88 -111.5t110.5 -90t126.5 -57q123 -20 242.5 -11t230 45.5t208 97t175.5 140.5q53 94 60 197.5t-13.5 208t-57 205t-69.5 192.5q-37 98 -119 156.5t-183.5 82t-207 14.5t-187.5 -46 q-90 -12 -149 -60.5t-106.5 -111t-94.5 -129t-112 -113.5q-33 -45 -36 -87zM170 765q4 46 35 95q68 113 168 197t216 129t237.5 47t230.5 -51q150 -166 209 -374t30 -431q-63 -90 -150 -157.5t-188.5 -108.5t-212 -52.5t-217.5 11.5q-92 35 -177 92t-146 149 q25 49 26.5 96.5t-8.5 91.5t-25.5 88t-23.5 88t-4 90zM555 423q-6 -40 4 -79q29 10 41 29.5t17.5 44t8.5 51.5t13 49q18 41 46 55.5t61.5 11.5t71.5 -17.5t76 -32t77 -33t71 -17.5q12 -8 37 -13t46.5 -1t31.5 19.5t-2 48.5q-96 35 -193.5 69.5t-195.5 69.5q23 37 54.5 64.5 t60 57t48 65.5t19.5 89q-10 53 -57.5 83t-104.5 10q-82 10 -115.5 -18t-41.5 -77t-2 -110.5t2 -116.5q-37 -4 -58.5 -28.5t-11.5 -63.5q18 -29 17 -62.5t-8 -70.5t-13 -77zM728 861.5q-3 25.5 3 50t35 42.5q31 0 58.5 -1.5t41.5 -32.5q-8 -45 -50 -83t-81 -59q6 12 1 35 t-8 48.5z" />
<glyph unicode="&#xaf;" horiz-adv-x="587" d="M150 1085.5q-5 -22.5 12 -43.5q43 0 96 -10t105.5 -13t93.5 7t59 51q-86 16 -167 26.5t-167 20.5q-27 -16 -32 -38.5z" />
<glyph unicode="&#xb0;" horiz-adv-x="722" d="M154 1264q0 -31 12 -60.5t34.5 -55.5t51.5 -46q51 2 67.5 9t10.5 19.5t-25.5 29t-39 34.5t-32 38.5t-2.5 43.5q16 20 34 26.5t34 26.5q25 2 59.5 10.5t69.5 8.5t64.5 -14.5t46.5 -57.5q10 -66 -22 -122t-91 -85q-12 -10 -33 -10q-20 0 -39.5 -1t-32 -7.5t-10.5 -28.5 q35 -20 68 -19t63.5 14t58 33.5t52.5 36.5q41 47 51 110t-4 112q-25 63 -82 92t-123 29t-127 -27t-98 -74q-16 -33 -16 -65z" />
<glyph unicode="&#xb1;" horiz-adv-x="1146" d="M25 649q0 -27 34 -26h11l108 14l86 10l29 4q8 2 14 -18.5t6 -46.5v-49l-6 -86l-8 -207l-29 -138v-2q0 -14 20.5 -24t71.5 -23q51 -14 95 -45q37 -27 60.5 -42t39.5 -24t27.5 -12.5t21.5 -3.5q6 0 20.5 3.5t30.5 13.5l41 24l119 58l39 26q6 6 72 11q33 4 56.5 10t23.5 10 v4q0 6 -2 14l-2 21l-17 12l-88 23l-78 26q-121 41 -123 43q-6 4 -16 33q-12 39 -12 84q0 63 14 123q8 35 10 60.5t0 42t-3 30.5t-1 29q0 29 10 28h23q12 0 31 -2l92 -4q27 -2 42 -1t19 1q20 0 28.5 5.5t18.5 25.5q10 25 49 63.5t97 83.5q20 16 20 31q0 31 -41 31h-12 l-317 -29h-27q-23 0 -29 5t-6 28q0 4 1 9t1 14l2 79q0 8 13 74q8 23 8 49q0 23 -6.5 30t-22.5 7q-31 0 -84 -16l-143 -41l-127 -29q-16 -4 -18.5 -9t-2.5 -22v-100v-6q0 -29 -4 -40t-20 -28l-37 -30l-78 -64l-47 -33q-23 -16 -45.5 -35.5t-42.5 -41.5q-10 -12 -10 -15z" />
<glyph unicode="&#xb4;" horiz-adv-x="722" d="M254 950q6 -16 1 -35.5t13 -29.5q70 43 143.5 75.5t148.5 63.5t147.5 62.5t144.5 72.5v47q-6 4 -11.5 10.5t-9.5 10.5q-147 -59 -288.5 -132t-288.5 -145z" />
<glyph unicode="&#xb6;" horiz-adv-x="1228" d="M67.5 872.5q4.5 -49.5 26.5 -94.5q45 -37 99.5 -52t114 -19.5t118.5 -7.5t115 -15q-16 -74 -23.5 -153.5t-12.5 -159.5t-13.5 -159t-28.5 -155q20 -27 49 -40t63 -9q-16 143 2.5 300t50 320t66.5 327.5t56 326.5q109 8 194 -55q-20 -141 -47 -278.5t-51.5 -275.5 t-43 -280.5t-20.5 -290.5q18 -31 27.5 -29.5t17 14.5t14.5 29.5t21 20.5q2 141 19.5 277.5t44 269.5t57.5 264t61 264q16 2 29.5 -9t28 -23.5t31 -18.5t38.5 6q-10 31 -29.5 47.5t-43 29.5t-47 26.5t-41.5 36.5q-113 39 -234 49t-239.5 -8.5t-229 -63.5t-201.5 -117 q-10 -45 -21 -94t-16.5 -100t-1 -100.5zM162 879q2 49 8 101t24.5 98t51.5 82t88 52q72 10 144.5 24.5t144.5 25.5q-8 -59 -12.5 -111.5t-4.5 -69.5q0 -14 4.5 23t12.5 158q-8 -59 -12.5 -119t-10.5 -118t-15.5 -115.5t-23.5 -110.5q-57 10 -113.5 3t-108.5 -8t-97 14 t-80 71z" />
<glyph unicode="&#xb7;" horiz-adv-x="397" d="M129 459q10 -10 28.5 -19.5t36 -14.5t32 -3t18.5 16q12 51 12 84q0 35 -39 39q-53 4 -72.5 -27.5t-15.5 -74.5z" />
<glyph unicode="&#xb8;" horiz-adv-x="669" d="M209 -72q6 -43 27.5 -83t52 -76.5t59.5 -71.5q-10 -16 -24.5 -27.5t-34.5 -5.5q-45 -25 -45 -43q0 -20 59 -37q84 16 109.5 43t18.5 60.5t-35.5 71.5t-54.5 77t-36 77t19 71q33 37 20.5 62.5t-39 33.5t-54.5 -5.5t-28 -56.5q-20 -47 -14 -90z" />
<glyph unicode="&#xbb;" horiz-adv-x="1112" d="M118.5 290.5q-20.5 -28.5 10.5 -81.5q55 37 117.5 70.5t116 73.5t90 93.5t45.5 131.5q-4 37 -28.5 62t-51.5 52q-35 4 -74 33t-77 50.5t-70.5 20.5t-53.5 -57q31 -10 55.5 -36.5t59.5 -30.5q31 -12 72 -41t64.5 -62.5t16 -70.5t-70.5 -68q-23 -33 -70 -51.5t-89 -39 t-62.5 -49zM565 784q66 -25 131.5 -60.5t137.5 -51.5q96 -35 118.5 -70t1 -69.5t-70.5 -71.5t-93.5 -76t-69 -83t4.5 -93q72 61 146.5 136t154.5 140q-6 12 -3 22.5t9 20t14.5 18.5t14.5 19q-4 35 -21.5 66t-44 55.5t-60.5 38.5t-69 14q-27 0 -57.5 15.5t-62 34t-61.5 36 t-54.5 21.5t-42 -8.5t-23.5 -53.5z" />
<glyph unicode="&#xbf;" horiz-adv-x="614" d="M78.5 -290q5.5 -42 30 -70.5t64.5 -38.5t85 8q74 29 133.5 70.5t93.5 121.5q-31 0 -56.5 -12t-49 -29.5t-45 -37t-43.5 -33.5q-20 8 -41 1t-40.5 -12.5t-36.5 -1t-30 32.5q25 68 69 133.5t87 129t77 127t42 124.5q-20 53 -58 81t-83.5 46.5t-90.5 33.5t-77 46 q-18 -41 3 -64.5t60 -42t84 -38t70 -47.5q2 -61 -22.5 -115.5t-60.5 -108t-76 -105.5t-69 -108q-25 -49 -19.5 -91zM305 784q-4 -20 13.5 -28t31.5 -4q31 10 35 28.5t-5 34.5t-23.5 26.5t-20.5 4.5q-18 -10 -24.5 -22.5t-6.5 -39.5z" />
<glyph unicode="&#xc0;" horiz-adv-x="989" d="M37.5 199q-17.5 -49 11.5 -109q45 6 58.5 29.5t18.5 54.5t13 64.5t45 60.5q12 76 46 118t82 60.5t106 18.5q57 0 117.5 -7.5t122 -14.5t114.5 -3q8 -61 25.5 -121.5t36 -120t31 -122t9.5 -130.5h46q10 59 5 120t-17.5 121.5t-28 119.5t-25.5 119q4 20 18.5 25t26.5 7.5 t20.5 8.5t0.5 28q-66 -4 -89.5 30t-31.5 82t-11.5 100.5t-27.5 86.5v90q0 41 -6 77t-20.5 70t-41.5 73q-51 -63 -96 -132t-90 -139.5t-92 -141.5t-103 -136q-23 -10 -47 -13.5t-47.5 -7.5t-46.5 -12t-41 -27q-8 -27 3 -36t27.5 -12t32 -2t17.5 -5q-12 -49 -49 -92t-71 -87 t-51.5 -93zM426 586q33 37 57.5 81t49 89t51 83.5t63.5 67.5q16 -39 24.5 -82t14.5 -86t13.5 -86t25.5 -82q-35 -6 -71 -2t-73.5 10.5t-76.5 10.5t-78 -4zM508 1694q16 -66 46 -137.5t73 -138t98 -122t123 -86.5q-29 61 -66 125t-76.5 126.5t-79.5 120.5t-73 112h-45z" />
<glyph unicode="&#xc1;" horiz-adv-x="983" d="M37.5 199q-17.5 -49 11.5 -109q45 6 58.5 29.5t18.5 54.5t13 64.5t45 60.5q12 76 46 118t82 60.5t106 18.5q57 0 117.5 -7.5t122 -14.5t114.5 -3q8 -61 25.5 -121.5t36 -120t31 -122t9.5 -130.5h46q10 59 5 120t-17.5 121.5t-28 119.5t-25.5 119q4 20 18.5 25t26.5 7.5 t20.5 8.5t0.5 28q-66 -4 -89.5 30t-31.5 82t-11.5 100.5t-27.5 86.5v90q0 41 -6 77t-20.5 70t-41.5 73q-51 -63 -96 -132t-90 -139.5t-92 -141.5t-103 -136q-23 -10 -47 -13.5t-47.5 -7.5t-46.5 -12t-41 -27q-8 -27 3 -36t27.5 -12t32 -2t17.5 -5q-12 -49 -49 -92t-71 -87 t-51.5 -93zM414 1247q6 -16 1 -35.5t13 -29.5q70 43 143.5 75.5t147.5 63.5t147.5 61.5t143.5 71.5v47q-9 13 -21 21q-145 -59 -286.5 -132t-288.5 -143zM426 586q33 37 57.5 81t49 89t51 83.5t63.5 67.5q16 -39 24.5 -82t14.5 -86t13.5 -86t25.5 -82q-35 -6 -71 -2 t-73.5 10.5t-76.5 10.5t-78 -4z" />
<glyph unicode="&#xc2;" horiz-adv-x="1009" d="M37.5 199q-17.5 -49 11.5 -109q45 6 58.5 29.5t18.5 54.5t13 64.5t45 60.5q12 76 46 118t82 60.5t106 18.5q57 0 117.5 -7.5t122 -14.5t114.5 -3q8 -61 25.5 -121.5t36 -120t31 -122t9.5 -130.5h46q10 59 5 120t-17.5 121.5t-28 119.5t-25.5 119q4 20 18.5 25t26.5 7.5 t20.5 8.5t0.5 28q-66 -4 -89.5 30t-31.5 82t-11.5 100.5t-27.5 86.5v90q0 41 -6 77t-20.5 70t-41.5 73q-51 -63 -96 -132t-90 -139.5t-92 -141.5t-103 -136q-23 -10 -47 -13.5t-47.5 -7.5t-46.5 -12t-41 -27q-8 -27 3 -36t27.5 -12t32 -2t17.5 -5q-12 -49 -49 -92t-71 -87 t-51.5 -93zM356 1229q-4 -31 35 -49q68 2 113 32.5t82 68.5t72.5 75t84.5 49q18 -49 33 -85t29 -69.5t27.5 -68.5t31.5 -82h60q-6 49 -15.5 88t-22 77t-28.5 78.5t-35 94.5q-2 20 -8 44.5t-19.5 44t-33.5 32t-51 6.5q-29 -68 -57.5 -112t-65.5 -75.5t-85 -55.5t-112 -50 q-31 -12 -35 -43zM426 586q33 37 57.5 81t49 89t51 83.5t63.5 67.5q16 -39 24.5 -82t14.5 -86t13.5 -86t25.5 -82q-35 -6 -71 -2t-73.5 10.5t-76.5 10.5t-78 -4z" />
<glyph unicode="&#xc3;" horiz-adv-x="989" d="M37.5 199q-17.5 -49 11.5 -109q45 6 58.5 29.5t18.5 54.5t13 64.5t45 60.5q12 76 46 118t82 60.5t106 18.5q57 0 117.5 -7.5t122 -14.5t114.5 -3q8 -61 25.5 -121.5t36 -120t31 -122t9.5 -130.5h46q10 59 5 120t-17.5 121.5t-28 119.5t-25.5 119q4 20 18.5 25t26.5 7.5 t20.5 8.5t0.5 28q-66 -4 -89.5 30t-31.5 82t-11.5 100.5t-27.5 86.5v90q0 41 -6 77t-20.5 70t-41.5 73q-51 -63 -96 -132t-90 -139.5t-92 -141.5t-103 -136q-23 -10 -47 -13.5t-47.5 -7.5t-46.5 -12t-41 -27q-8 -27 3 -36t27.5 -12t32 -2t17.5 -5q-12 -49 -49 -92t-71 -87 t-51.5 -93zM365 1366q0 -35 18 -68q23 -23 36 -17.5t19 22t7 39t-1 38.5q43 35 83 28t77 -32.5t74 -57.5t74 -44q31 -10 64.5 -5t64 20.5t55.5 39t35 51.5q0 6 -4 10.5t-9 8.5q-45 -51 -86 -62.5t-78.5 3t-75.5 45t-77 60.5t-80 51t-86 17q-33 -6 -57.5 -28.5t-38.5 -52 t-14 -66.5zM426 586q33 37 57.5 81t49 89t51 83.5t63.5 67.5q16 -39 24.5 -82t14.5 -86t13.5 -86t25.5 -82q-35 -6 -71 -2t-73.5 10.5t-76.5 10.5t-78 -4z" />
<glyph unicode="&#xc4;" horiz-adv-x="989" d="M37.5 199q-17.5 -49 11.5 -109q45 6 58.5 29.5t18.5 54.5t13 64.5t45 60.5q12 76 46 118t82 60.5t106 18.5q57 0 117.5 -7.5t122 -14.5t114.5 -3q8 -61 25.5 -121.5t36 -120t31 -122t9.5 -130.5h46q10 59 5 120t-17.5 121.5t-28 119.5t-25.5 119q4 20 18.5 25t26.5 7.5 t20.5 8.5t0.5 28q-66 -4 -89.5 30t-31.5 82t-11.5 100.5t-27.5 86.5v90q0 41 -6 77t-20.5 70t-41.5 73q-51 -63 -96 -132t-90 -139.5t-92 -141.5t-103 -136q-23 -10 -47 -13.5t-47.5 -7.5t-46.5 -12t-41 -27q-8 -27 3 -36t27.5 -12t32 -2t17.5 -5q-12 -49 -49 -92t-71 -87 t-51.5 -93zM426 586q33 37 57.5 81t49 89t51 83.5t63.5 67.5q16 -39 24.5 -82t14.5 -86t13.5 -86t25.5 -82q-35 -6 -71 -2t-73.5 10.5t-76.5 10.5t-78 -4zM462 1262.5q1 -19.5 30 -50.5q31 45 54 74t45.5 54.5t46.5 55t54 74.5q2 53 -4 69.5t-18.5 9.5t-28.5 -30.5 t-33.5 -50t-34 -50t-28.5 -27.5q-16 -33 -37 -53.5t-34 -38t-12 -37zM764 1251q31 31 58.5 51.5t54 39t52 41t50.5 55.5q10 12 14 29.5t1 33t-15 24.5t-35 7q-10 -41 -42 -73t-65.5 -64.5t-57 -66.5t-15.5 -77z" />
<glyph unicode="&#xc5;" horiz-adv-x="968" d="M37.5 199q-17.5 -49 11.5 -109q45 6 58.5 29.5t18.5 54.5t13 64.5t45 60.5q12 76 46 118t82 60.5t106 18.5q57 0 117.5 -7.5t122 -14.5t114.5 -3q8 -61 25.5 -121.5t36 -120t31 -122t9.5 -130.5h46q10 59 5 120t-17.5 121.5t-28 119.5t-25.5 119q4 20 18.5 25t26.5 7.5 t20.5 8.5t0.5 28q-66 -4 -89.5 30t-31.5 82t-11.5 100.5t-27.5 86.5v90q0 41 -6 77t-20.5 70t-41.5 73q-51 -63 -96 -132t-90 -139.5t-92 -141.5t-103 -136q-23 -10 -47 -13.5t-47.5 -7.5t-46.5 -12t-41 -27q-8 -27 3 -36t27.5 -12t32 -2t17.5 -5q-12 -49 -49 -92t-71 -87 t-51.5 -93zM426 586q33 37 57.5 81t49 89t51 83.5t63.5 67.5q16 -39 24.5 -82t14.5 -86t13.5 -86t25.5 -82q-35 -6 -71 -2t-73.5 10.5t-76.5 10.5t-78 -4zM436 1456q0 -31 12.5 -59.5t35 -55t51.5 -47.5q51 2 67 10.5t10 20.5t-25.5 28.5t-39 35t-31.5 39t-2 42.5 q16 18 32.5 24.5t33.5 27.5q27 2 61.5 11t69.5 9t64.5 -14.5t45.5 -57.5q10 -66 -21.5 -122t-90.5 -84q-12 -10 -33 -11.5t-40.5 -2.5t-31.5 -7t-10 -29q35 -20 67.5 -18t63.5 15.5t58.5 33t52.5 37.5q39 47 50 108.5t-3 110.5q-25 63 -82.5 93t-122.5 30q-66 0 -127 -26.5 t-98 -75.5q-16 -33 -17 -66z" />
<glyph unicode="&#xc6;" horiz-adv-x="1396" d="M70 -2q10 -20 33.5 -27.5t48.5 -7.5q20 23 14 48.5t-2 51.5q25 63 54.5 133t71.5 123.5t99 80t137 1.5q20 -35 39 -84t33 -103t23.5 -106.5t11.5 -95.5q29 -20 69.5 -28.5t87 -7.5t93.5 7.5t84 14.5q47 14 98 14t101.5 -6t98.5 -14t91 -8q6 14 2 25t-11.5 22.5t-14.5 23 t-9 23.5q-76 2 -139.5 -1t-124 -9.5t-121.5 -12.5t-131 -12q-20 16 -39.5 26.5t-42.5 20.5q-14 27 -32.5 69t-33 88t-18.5 90t12 77q76 6 140.5 13t125 10t119.5 3q61 0 129 -8q-2 12 -8 30.5t-12 35t-13.5 25.5t-11.5 5q-123 -37 -243.5 -33.5t-251.5 19.5 q-14 25 -26.5 64.5t-17.5 83t-2 85t19 70.5q86 0 163 2t152 2q76 0 152 -4t156 -14q12 10 27.5 16t27.5 12.5t16 17.5t-6 34q-92 12 -198.5 4t-214 -9t-208 16t-180.5 83q-41 -25 -69.5 -70t-52 -99t-45 -111.5t-48 -107.5t-62.5 -89t-85 -54q37 -37 36 -95t-18.5 -121.5 t-41 -125t-31.5 -106.5zM332 479q18 27 35.5 68t35 85t35 86t35.5 73q-6 -23 0 -58t13.5 -73.5t11.5 -76.5t-4.5 -66t-33 -39t-75.5 1h-53z" />
<glyph unicode="&#xc7;" horiz-adv-x="821" d="M96.5 400.5q-4.5 -78.5 8 -152.5t45 -139.5t96.5 -114.5q31 -25 65.5 -34t69.5 -9l-6 -12q-12 -51 -7 -88t21.5 -67t41 -57.5t52.5 -62.5q-10 -16 -33.5 -32.5t-43.5 -16.5q-45 -23 -48.5 -32t56.5 -25q84 16 110.5 41.5t20.5 56.5t-35 65.5t-53.5 71.5t-35.5 74t17 70 l11 16q43 0 82.5 13.5t80.5 27.5q88 76 124 106.5t33 34.5t-37 -14.5t-85 -41t-111.5 -44t-118 -25.5t-104.5 16.5t-67 79.5q-55 61 -72.5 141.5t-10.5 164.5t30.5 167t52.5 150q41 104 136 154.5t212 25.5q12 6 29.5 0t35 -16t34 -20.5t26.5 -11.5t12 12.5t-6 50.5 q-66 49 -143.5 57t-163.5 8q-80 -18 -128 -65t-79 -109.5t-52.5 -131.5t-47.5 -128q-10 -76 -14.5 -154.5z" />
<glyph unicode="&#xc8;" horiz-adv-x="845" d="M89 400.5q5 -105.5 37 -202t103 -171.5q86 -35 168 -38t174 17q18 10 44 23.5t47.5 30t34 37t1.5 44.5q-154 -94 -321 -100q-49 8 -86 39t-61.5 70.5t-39 87t-20.5 90.5q12 31 32.5 43t44 17t49.5 7t48 13q53 12 123 8t137.5 -1t123.5 23.5t85 81.5q-8 33 -20.5 41 t-26.5 2t-28.5 -23.5t-24.5 -31.5q-45 -12 -94.5 -14t-100.5 -2q-49 0 -97 -2.5t-91 -14.5q-98 -27 -141.5 2t-18.5 144q-12 113 20.5 172t92 84.5t139.5 28.5t162 3t158.5 7.5t131.5 39.5q-6 4 -8 8.5t-6 4.5q-78 8 -161 4t-164 -4q-80 0 -159 10t-147 45 q-10 -31 -40.5 -52.5t-55 -44t-31 -50t34.5 -66.5q-23 -94 -38 -199.5t-10 -211zM365 1542q16 -66 45.5 -137.5t72.5 -137t98.5 -120.5t123.5 -86q-29 61 -66 124.5t-77 125t-80 121t-72 110.5h-45z" />
<glyph unicode="&#xc9;" horiz-adv-x="901" d="M89 400.5q5 -105.5 37 -202t103 -171.5q86 -35 168 -38t174 17q18 10 44 23.5t47.5 30t34 37t1.5 44.5q-154 -94 -321 -100q-49 8 -86 39t-61.5 70.5t-39 87t-20.5 90.5q12 31 32.5 43t44 17t49.5 7t48 13q53 12 123 8t137.5 -1t123.5 23.5t85 81.5q-8 33 -20.5 41 t-26.5 2t-28.5 -23.5t-24.5 -31.5q-45 -12 -94.5 -14t-100.5 -2q-49 0 -97 -2.5t-91 -14.5q-98 -27 -141.5 2t-18.5 144q-12 113 20.5 172t92 84.5t139.5 28.5t162 3t158.5 7.5t131.5 39.5q-6 4 -8 8.5t-6 4.5q-78 8 -161 4t-164 -4q-80 0 -159 10t-147 45 q-10 -31 -40.5 -52.5t-55 -44t-31 -50t34.5 -66.5q-23 -94 -38 -199.5t-10 -211zM203 1122q0 -8 2 -16t12 -14q70 43 143.5 75.5t147.5 63.5t147.5 62.5t143.5 72.5v47l-21 21q-145 -59 -286.5 -132t-288.5 -143q2 -8 1 -17t-1 -20z" />
<glyph unicode="&#xca;" horiz-adv-x="833" d="M89 400.5q5 -105.5 37 -202t103 -171.5q86 -35 168 -38t174 17q18 10 44 23.5t47.5 30t34 37t1.5 44.5q-154 -94 -321 -100q-49 8 -86 39t-61.5 70.5t-39 87t-20.5 90.5q12 31 32.5 43t44 17t49.5 7t48 13q53 12 123 8t137.5 -1t123.5 23.5t85 81.5q-8 33 -20.5 41 t-26.5 2t-28.5 -23.5t-24.5 -31.5q-45 -12 -94.5 -14t-100.5 -2q-49 0 -97 -2.5t-91 -14.5q-98 -27 -141.5 2t-18.5 144q-12 113 20.5 172t92 84.5t139.5 28.5t162 3t158.5 7.5t131.5 39.5q-6 4 -8 8.5t-6 4.5q-78 8 -161 4t-164 -4q-80 0 -159 10t-147 45 q-10 -31 -40.5 -52.5t-55 -44t-31 -50t34.5 -66.5q-23 -94 -38 -199.5t-10 -211zM206 1229q-5 -31 36 -49q68 2 111.5 32.5t80.5 68.5t73 75t87 49q18 -49 32.5 -85t28 -69.5t27.5 -68.5t33 -82h59q-6 49 -15 88t-22.5 77t-29 78.5t-33.5 94.5q-2 20 -9.5 44.5t-20.5 44 t-33.5 32t-51.5 6.5q-27 -68 -56.5 -112t-66.5 -75.5t-84 -55.5t-110 -50q-31 -12 -36 -43z" />
<glyph unicode="&#xcb;" horiz-adv-x="839" d="M89 400.5q5 -105.5 37 -202t103 -171.5q86 -35 168 -38t174 17q18 10 44 23.5t47.5 30t34 37t1.5 44.5q-154 -94 -321 -100q-49 8 -86 39t-61.5 70.5t-39 87t-20.5 90.5q12 31 32.5 43t44 17t49.5 7t48 13q53 12 123 8t137.5 -1t123.5 23.5t85 81.5q-8 33 -20.5 41 t-26.5 2t-28.5 -23.5t-24.5 -31.5q-45 -12 -94.5 -14t-100.5 -2q-49 0 -97 -2.5t-91 -14.5q-98 -27 -141.5 2t-18.5 144q-12 113 20.5 172t92 84.5t139.5 28.5t162 3t158.5 7.5t131.5 39.5q-6 4 -8 8.5t-6 4.5q-78 8 -161 4t-164 -4q-80 0 -159 10t-147 45 q-10 -31 -40.5 -52.5t-55 -44t-31 -50t34.5 -66.5q-23 -94 -38 -199.5t-10 -211zM251 1132.5q1 -18.5 30 -49.5q31 45 53 74t44.5 54.5t46.5 54t54 73.5q2 53 -3 69.5t-17.5 10.5t-28.5 -29.5t-33.5 -50t-35 -50t-29.5 -27.5q-16 -33 -37 -53.5t-33 -39t-11 -37zM553 1122 q31 31 58.5 51.5t54 39t51 41t49.5 55.5q10 12 15 28.5t2 31.5t-15 24.5t-35 7.5q-10 -41 -43 -73t-65.5 -63.5t-56 -65.5t-15.5 -77z" />
<glyph unicode="&#xcc;" horiz-adv-x="374" d="M127 199q0 -37 6 -70t19.5 -58.5t40.5 -37.5q8 80 7 170t3 184t18.5 190.5t50.5 188.5q-10 20 -4 37.5t13.5 33t8 30t-17.5 28.5q-57 -45 -83.5 -124t-37 -168t-13.5 -177t-11 -154v-73zM135 1448q16 -66 46 -137.5t73 -138t98.5 -122t122.5 -85.5q-29 61 -65.5 124.5 t-76.5 126t-80 121t-73 111.5h-45z" />
<glyph unicode="&#xcd;" horiz-adv-x="423" d="M109 1069q6 -16 0.5 -35.5t13.5 -29.5q70 43 143.5 75.5t147 63.5t147.5 61.5t144 71.5v49l-21 21q-145 -59 -286.5 -132t-288.5 -145zM127 199q0 -37 6 -70t19.5 -58.5t40.5 -37.5q8 80 7 170t3 184t18.5 190.5t50.5 188.5q-10 20 -4 37.5t13.5 33t8 30t-17.5 28.5 q-57 -45 -83.5 -124t-37 -168t-13.5 -177t-11 -154v-73z" />
<glyph unicode="&#xce;" horiz-adv-x="444" d="M-17 1072q-1 -13 7 -27.5t28 -22.5q68 2 113 32.5t82 68.5t73 75t85 49q18 -47 32.5 -83t27.5 -69.5t27.5 -69.5t33.5 -83h59q-6 49 -15.5 88t-22.5 78t-28.5 80t-33.5 94q-2 18 -9.5 43t-20.5 44.5t-33.5 31.5t-51.5 8q-27 -68 -56.5 -113t-66.5 -75.5t-84 -55 t-111 -51.5q-16 -4 -25 -16.5t-10 -25.5zM127 199q0 -37 6 -70t19.5 -58.5t40.5 -37.5q8 80 7 170t3 184t18.5 190.5t50.5 188.5q-10 20 -4 37.5t13.5 33t8 30t-17.5 28.5q-57 -45 -83.5 -124t-37 -168t-13.5 -177t-11 -154v-73z" />
<glyph unicode="&#xcf;" horiz-adv-x="415" d="M41 1010q0 -18 29 -49q31 45 54 73.5t46 54t46.5 54t53.5 74.5q2 53 -3 69.5t-17 10t-28.5 -30t-34 -50t-35 -50t-29.5 -27.5q-16 -33 -36.5 -53.5t-33 -39t-12.5 -36.5zM127 199q0 -37 6 -70t19.5 -58.5t40.5 -37.5q8 80 7 170t3 184t18.5 190.5t50.5 188.5 q-10 20 -4 37.5t13.5 33t8 30t-17.5 28.5q-57 -45 -83.5 -124t-37 -168t-13.5 -177t-11 -154v-73zM344 999q31 31 58.5 51.5t54 39t51 41t49.5 55.5q10 12 15.5 28.5t2 32t-15.5 24.5t-35 7q-10 -41 -42.5 -72.5t-65.5 -63.5t-56.5 -66t-15.5 -77z" />
<glyph unicode="&#xd1;" horiz-adv-x="1249" d="M141 213q18 -14 25.5 -35.5t15.5 -43t21.5 -37t44.5 -15.5q-35 135 -35 291q0 158 35 303q113 -51 213 -117.5t194.5 -142.5t184.5 -157t184 -159q10 -2 17.5 4.5t13.5 13.5t13 13t17 4q14 106 19.5 207.5t12.5 197t24.5 185.5t58.5 178q-33 55 -52.5 66.5t-31.5 -5 t-18 -52t-12.5 -75.5t-13.5 -76t-21 -50q23 -127 21.5 -201t-12.5 -120t-24.5 -78.5t-15.5 -78.5q-41 -6 -98.5 34t-124 102.5t-139 138.5t-143.5 140.5t-134.5 109.5t-112.5 45v100q-16 10 -29.5 24.5t-35.5 10.5q-51 -166 -58.5 -351.5t-3.5 -373.5zM375 1108 q0 -35 16 -68q23 -23 36 -18.5t19.5 22t7.5 40t-1 38.5q45 35 83.5 27t75.5 -33.5t74 -56.5t74 -43q31 -10 64.5 -5t65.5 20.5t56.5 39t34.5 51.5q0 4 -14 19q-45 -51 -86 -62.5t-79 3t-75 44t-76 59t-80 51t-86 17.5q-33 -6 -58.5 -28.5t-38.5 -52t-13 -64.5z" />
<glyph unicode="&#xd2;" horiz-adv-x="956" d="M70.5 584q7.5 -84 32 -166t53.5 -150q33 -43 69.5 -86t80.5 -73.5t96.5 -43t117.5 10.5q53 18 101.5 55t90.5 83t75.5 97t56.5 99q29 229 -94 387q-76 80 -169.5 125t-197.5 49q-16 -2 -29.5 -12.5t-22.5 -24.5t-11.5 -28.5t8.5 -26.5q63 23 118.5 13.5t104.5 -37.5 t94 -69t86 -84q31 -59 44 -122.5t5 -125t-38.5 -118.5t-92.5 -103q-51 -53 -119.5 -80.5t-136.5 -11.5q-66 33 -113 87.5t-76.5 122t-41.5 145t-6 155.5q-10 35 5 69t28.5 65.5t12.5 58t-46 45.5q-55 -61 -74 -141t-11.5 -164zM287 1542q16 -66 45.5 -137.5t73 -137 t99.5 -120.5t124 -86q-29 61 -67 124.5t-78 125t-79.5 121t-72.5 110.5h-45z" />
<glyph unicode="&#xd3;" horiz-adv-x="935" d="M70.5 584q7.5 -84 32 -166t53.5 -150q33 -43 69.5 -86t80.5 -73.5t96.5 -43t117.5 10.5q53 18 101.5 55t90.5 83t75.5 97t56.5 99q29 229 -94 387q-76 80 -169.5 125t-197.5 49q-16 -2 -29.5 -12.5t-22.5 -24.5t-11.5 -28.5t8.5 -26.5q63 23 118.5 13.5t104.5 -37.5 t94 -69t86 -84q31 -59 44 -122.5t5 -125t-38.5 -118.5t-92.5 -103q-51 -53 -119.5 -80.5t-136.5 -11.5q-66 33 -113 87.5t-76.5 122t-41.5 145t-6 155.5q-10 35 5 69t28.5 65.5t12.5 58t-46 45.5q-55 -61 -74 -141t-11.5 -164zM248 1115.5q-4 -19.5 14 -30.5q70 43 143.5 76 t147.5 63.5t147.5 61.5t143.5 72v49l-21 20q-145 -59 -286.5 -131.5t-288.5 -144.5q4 -16 0 -35.5z" />
<glyph unicode="&#xd4;" horiz-adv-x="907" d="M70.5 584q7.5 -84 32 -166t53.5 -150q33 -43 69.5 -86t80.5 -73.5t96.5 -43t117.5 10.5q53 18 101.5 55t90.5 83t75.5 97t56.5 99q29 229 -94 387q-76 80 -169.5 125t-197.5 49q-16 -2 -29.5 -12.5t-22.5 -24.5t-11.5 -28.5t8.5 -26.5q63 23 118.5 13.5t104.5 -37.5 t94 -69t86 -84q31 -59 44 -122.5t5 -125t-38.5 -118.5t-92.5 -103q-51 -53 -119.5 -80.5t-136.5 -11.5q-66 33 -113 87.5t-76.5 122t-41.5 145t-6 155.5q-10 35 5 69t28.5 65.5t12.5 58t-46 45.5q-55 -61 -74 -141t-11.5 -164zM210 1181q-5 -32 36 -51q68 2 112.5 34 t81.5 70t73 73.5t85 48.5q18 -47 32.5 -83t29 -70t27.5 -69.5t32 -82.5h59q-6 49 -15 89t-22.5 77.5t-29 78.5t-33.5 95q-2 18 -8 42.5t-19.5 45t-34 33t-51.5 6.5q-29 -68 -58.5 -113t-66.5 -76t-84 -54.5t-110 -49.5q-31 -12 -36 -44z" />
<glyph unicode="&#xd5;" horiz-adv-x="927" d="M70.5 584q7.5 -84 32 -166t53.5 -150q33 -43 69.5 -86t80.5 -73.5t96.5 -43t117.5 10.5q53 18 101.5 55t90.5 83t75.5 97t56.5 99q29 229 -94 387q-76 80 -169.5 125t-197.5 49q-16 -2 -29.5 -12.5t-22.5 -24.5t-11.5 -28.5t8.5 -26.5q63 23 118.5 13.5t104.5 -37.5 t94 -69t86 -84q31 -59 44 -122.5t5 -125t-38.5 -118.5t-92.5 -103q-51 -53 -119.5 -80.5t-136.5 -11.5q-66 33 -113 87.5t-76.5 122t-41.5 145t-6 155.5q-10 35 5 69t28.5 65.5t12.5 58t-46 45.5q-55 -61 -74 -141t-11.5 -164zM172 1169q0 -35 16 -67q23 -23 36.5 -19 t19.5 21.5t7 40t-1 39.5q45 35 84 26.5t75.5 -34t73.5 -56t74 -43.5q31 -10 64.5 -5t65.5 20.5t56.5 39t34.5 52.5q0 4 -14 18q-45 -51 -85 -62.5t-79 3t-76 44.5t-75.5 59.5t-79.5 51t-86 17.5q-33 -6 -57.5 -28.5t-39 -52.5t-14.5 -65z" />
<glyph unicode="&#xd6;" horiz-adv-x="921" d="M70.5 584q7.5 -84 32 -166t53.5 -150q33 -43 69.5 -86t80.5 -73.5t96.5 -43t117.5 10.5q53 18 101.5 55t90.5 83t75.5 97t56.5 99q29 229 -94 387q-76 80 -169.5 125t-197.5 49q-16 -2 -29.5 -12.5t-22.5 -24.5t-11.5 -28.5t8.5 -26.5q63 23 118.5 13.5t104.5 -37.5 t94 -69t86 -84q31 -59 44 -122.5t5 -125t-38.5 -118.5t-92.5 -103q-51 -53 -119.5 -80.5t-136.5 -11.5q-66 33 -113 87.5t-76.5 122t-41.5 145t-6 155.5q-10 35 5 69t28.5 65.5t12.5 58t-46 45.5q-55 -61 -74 -141t-11.5 -164zM262 1104q0 -18 29 -47q31 43 54.5 71.5t46 54 t46 55.5t54.5 75q2 53 -4.5 69.5t-17.5 9t-27.5 -31t-34 -50t-35 -49t-29.5 -28.5q-16 -33 -36.5 -53.5t-33 -38t-12.5 -37.5zM565 1094q31 31 58.5 51t53 39.5t51.5 42t50 55.5q8 12 13.5 28.5t2.5 32t-15.5 24.5t-35.5 7q-10 -41 -41.5 -72.5l-64.5 -64.5t-56.5 -66.5 t-15.5 -76.5z" />
<glyph unicode="&#xd8;" horiz-adv-x="1255" d="M-133 -235.5q4 -10.5 14 -13.5t27 -3h29q14 55 48.5 93t77.5 70t89.5 62.5t87.5 73.5q94 -31 193 -22.5t196.5 46.5t186.5 99t165 139q45 61 66.5 128t26.5 136.5t0 140t-13 138.5q25 41 58.5 58.5t68.5 39.5q14 10 32.5 29.5t26.5 40t0 37t-45 22.5q-25 -20 -57.5 -58 t-69.5 -64.5t-74.5 -23.5t-74.5 66q-86 70 -174 72t-176.5 -32.5t-173.5 -89t-162 -97.5q-55 -45 -71.5 -106.5t-13.5 -129t17 -135t18 -125.5q51 -68 55.5 -121t-22 -99t-75 -86t-101.5 -80t-101 -83t-75 -92q-8 -20 -4 -30.5zM238 604q0 59 20 119q49 74 132 138.5t176 97 t188.5 19.5t171.5 -93q-59 -72 -129 -155t-147 -166t-159.5 -160.5t-171.5 -141.5q-18 53 -37.5 109.5t-31.5 115t-12 117.5zM319 117q12 12 30 8l36 -8t34.5 0t26.5 30q-47 39 -37.5 65t42 49.5t68.5 48t40 59.5q74 39 126 93t100.5 110.5t99.5 109.5t123 90 q16 -123 -8.5 -229.5t-84.5 -198.5q-129 -123 -279.5 -183.5t-316.5 -43.5z" />
<glyph unicode="&#xd9;" horiz-adv-x="976" d="M127 848q16 -141 43 -276.5t72 -270.5q25 -49 61.5 -92t81.5 -77t97.5 -53.5t107.5 -19.5q82 66 131 155t78.5 189.5t47 204t36.5 195.5q10 8 13 28.5t-2 39t-20.5 28.5t-42.5 -2q-35 -92 -52 -192.5t-36.5 -198.5t-52.5 -192.5t-100 -174.5q-92 12 -151.5 52t-96.5 99.5 t-56.5 132.5t-33.5 149.5t-27.5 151.5t-38.5 138q-18 10 -30.5 -2t-28.5 -12zM362 1489q16 -66 46 -137.5t73 -138t98.5 -122t122.5 -85.5q-29 61 -65.5 124.5t-76.5 126t-80 121t-72 111.5h-46z" />
<glyph unicode="&#xda;" horiz-adv-x="1009" d="M127 848q16 -141 43 -276.5t72 -270.5q25 -49 61.5 -92t81.5 -77t97.5 -53.5t107.5 -19.5q82 66 131 155t78.5 189.5t47 204t36.5 195.5q10 8 13 28.5t-2 39t-20.5 28.5t-42.5 -2q-35 -92 -52 -192.5t-36.5 -198.5t-52.5 -192.5t-100 -174.5q-92 12 -151.5 52t-96.5 99.5 t-56.5 132.5t-33.5 149.5t-27.5 151.5t-38.5 138q-18 10 -30.5 -2t-28.5 -12zM233 1022q6 -16 1 -35.5t14 -30.5q70 43 143.5 76t148 63.5t147.5 61.5t144 72v47l-20 20q-147 -59 -288.5 -131.5t-289.5 -142.5z" />
<glyph unicode="&#xdb;" horiz-adv-x="976" d="M127 848q16 -141 43 -276.5t72 -270.5q25 -49 61.5 -92t81.5 -77t97.5 -53.5t107.5 -19.5q82 66 131 155t78.5 189.5t47 204t36.5 195.5q10 8 13 28.5t-2 39t-20.5 28.5t-42.5 -2q-35 -92 -52 -192.5t-36.5 -198.5t-52.5 -192.5t-100 -174.5q-92 12 -151.5 52t-96.5 99.5 t-56.5 132.5t-33.5 149.5t-27.5 151.5t-38.5 138q-18 10 -30.5 -2t-28.5 -12zM230 1092.5q-1 -13.5 7.5 -27.5t28.5 -23q68 2 113 33t82 69t72.5 74.5t84.5 49.5q18 -47 33 -83t29 -70t27.5 -69.5t31.5 -82.5h60q-6 49 -15.5 88t-22.5 77.5t-28.5 79.5t-34.5 95 q-2 18 -8 42.5t-19.5 44t-33.5 32t-51 8.5q-29 -68 -58.5 -113t-66.5 -76t-84 -55.5t-111 -50.5q-16 -4 -25.5 -16.5t-10.5 -26z" />
<glyph unicode="&#xdc;" horiz-adv-x="962" d="M127 848q16 -141 43 -276.5t72 -270.5q25 -49 61.5 -92t81.5 -77t97.5 -53.5t107.5 -19.5q82 66 131 155t78.5 189.5t47 204t36.5 195.5q10 8 13 28.5t-2 39t-20.5 28.5t-42.5 -2q-35 -92 -52 -192.5t-36.5 -198.5t-52.5 -192.5t-100 -174.5q-92 12 -151.5 52t-96.5 99.5 t-56.5 132.5t-33.5 149.5t-27.5 151.5t-38.5 138q-18 10 -30.5 -2t-28.5 -12zM303 1010q0 -18 29 -49q31 45 54.5 73.5t46 54t46 54t53.5 74.5q2 53 -4 69.5t-17 10t-27.5 -30t-34 -50t-35 -50t-29.5 -27.5q-16 -33 -36.5 -53.5t-33 -39t-12.5 -36.5zM606 999 q31 31 58.5 51.5t53 40t51.5 41t50 54.5q8 12 13.5 29.5t2 32t-15.5 23.5t-35 7q-10 -41 -41.5 -72.5t-64.5 -63.5t-56.5 -66t-15.5 -77z" />
<glyph unicode="&#xdf;" horiz-adv-x="925" d="M69.5 -55.5q-6.5 -143.5 18.5 -294.5q45 2 58.5 31.5t11.5 69.5t-10.5 79t-4.5 61q23 145 32 298t32.5 301.5t75 285.5t159.5 254q31 25 62 36t63.5 13t69.5 -2t80 -8q31 -4 50 -20.5t30.5 -42t14.5 -55t-1 -56.5q-31 -59 -75 -107.5t-96 -88.5t-107.5 -74.5 t-104.5 -71.5q-10 -53 12.5 -75.5t55 -36t67.5 -29t53 -52.5q0 -35 -9 -65.5t-23.5 -60t-31.5 -57t-32 -58.5q-35 -29 -79 -40t-79 -5q-8 -20 -4 -30.5t12.5 -17t19.5 -13.5t18 -21q49 4 91 29.5t75.5 62.5t60.5 81t47 87t15 87t-26.5 83t-52 69.5t-63.5 47.5q35 39 77 69.5 t83 59t77.5 59.5t62.5 67.5t36 84t-2 110.5q-8 43 -33 77t-59.5 57.5t-76.5 33.5t-85 6q-86 10 -150.5 -24.5t-116 -92t-91 -126t-76.5 -125.5q-23 -145 -52.5 -285.5t-51 -281t-28 -284z" />
<glyph unicode="&#xe0;" horiz-adv-x="860" d="M39 133q-4 -47 16 -88q78 33 146.5 86t133 114.5t128 123t133.5 108.5q-16 -113 -43 -238.5t-27 -261.5q23 -27 52.5 -44t70.5 -9q16 12 44 31.5t52.5 43.5t38 50.5t0.5 54.5q-29 0 -48 -12t-35.5 -26.5t-35 -24.5t-42.5 -6q-12 70 -6 132t21 120.5t36.5 116t42.5 114.5 q2 31 22.5 47.5t40 32.5t29.5 37.5t-6 60.5q-82 47 -180 47q-96 0 -191.5 -39.5t-177.5 -112.5t-131 -169q-10 -45 -29.5 -94t-35 -98.5t-19.5 -96.5zM141 203q20 111 91 215t169 170q25 10 62 29.5t70.5 30.5t59.5 7t30 -39q-57 -49 -114.5 -104t-117 -109.5t-121 -105.5 t-129.5 -94zM403 1356q16 -66 46 -137.5t73 -137t98.5 -121t122.5 -86.5q-29 61 -65.5 124t-76.5 125.5t-80 121t-72 111.5h-46z" />
<glyph unicode="&#xe1;" horiz-adv-x="833" d="M39 133q-4 -47 16 -88q78 33 146.5 86t133 114.5t128 123t133.5 108.5q-16 -113 -43 -238.5t-27 -261.5q23 -27 52.5 -44t70.5 -9q16 12 44 31.5t52.5 43.5t38 50.5t0.5 54.5q-29 0 -48 -12t-35.5 -26.5t-35 -24.5t-42.5 -6q-12 70 -6 132t21 120.5t36.5 116t42.5 114.5 q2 31 22.5 47.5t40 32.5t29.5 37.5t-6 60.5q-82 47 -180 47q-96 0 -191.5 -39.5t-177.5 -112.5t-131 -169q-10 -45 -29.5 -94t-35 -98.5t-19.5 -96.5zM141 203q20 111 91 215t169 170q25 10 62 29.5t70.5 30.5t59.5 7t30 -39q-57 -49 -114.5 -104t-117 -109.5t-121 -105.5 t-129.5 -94zM330 894q-4 -20 14 -30q70 43 143.5 76t147.5 63.5t147.5 62.5t143.5 73v47q-4 4 -9.5 10t-11.5 10q-145 -59 -286.5 -132t-288.5 -144q4 -16 0 -36z" />
<glyph unicode="&#xe2;" horiz-adv-x="880" d="M39 133q-4 -47 16 -88q78 33 146.5 86t133 114.5t128 123t133.5 108.5q-16 -113 -43 -238.5t-27 -261.5q23 -27 52.5 -44t70.5 -9q16 12 44 31.5t52.5 43.5t38 50.5t0.5 54.5q-29 0 -48 -12t-35.5 -26.5t-35 -24.5t-42.5 -6q-12 70 -6 132t21 120.5t36.5 116t42.5 114.5 q2 31 22.5 47.5t40 32.5t29.5 37.5t-6 60.5q-82 47 -180 47q-96 0 -191.5 -39.5t-177.5 -112.5t-131 -169q-10 -45 -29.5 -94t-35 -98.5t-19.5 -96.5zM141 203q20 111 91 215t169 170q25 10 62 29.5t70.5 30.5t59.5 7t30 -39q-57 -49 -114.5 -104t-117 -109.5t-121 -105.5 t-129.5 -94zM286 981q-5 -31 36 -51q68 2 111.5 33.5t80.5 69.5t73 74t87 48q18 -47 31.5 -83t28 -69.5t28.5 -68.5t33 -82h59q-6 49 -15.5 88t-22.5 77t-28.5 79t-33.5 94q-4 20 -10.5 45t-19.5 44t-33.5 31.5t-51.5 6.5q-27 -68 -56.5 -113t-66.5 -75.5t-84 -54 t-110 -50.5q-31 -12 -36 -43z" />
<glyph unicode="&#xe3;" horiz-adv-x="907" d="M39 133q-4 -47 16 -88q78 33 146.5 86t133 114.5t128 123t133.5 108.5q-16 -113 -43 -238.5t-27 -261.5q23 -27 52.5 -44t70.5 -9q16 12 44 31.5t52.5 43.5t38 50.5t0.5 54.5q-29 0 -48 -12t-35.5 -26.5t-35 -24.5t-42.5 -6q-12 70 -6 132t21 120.5t36.5 116t42.5 114.5 q2 31 22.5 47.5t40 32.5t29.5 37.5t-6 60.5q-82 47 -180 47q-96 0 -191.5 -39.5t-177.5 -112.5t-131 -169q-10 -45 -29.5 -94t-35 -98.5t-19.5 -96.5zM141 203q20 111 91 215t169 170q25 10 62 29.5t70.5 30.5t59.5 7t30 -39q-57 -49 -114.5 -104t-117 -109.5t-121 -105.5 t-129.5 -94zM301 1036q0 -35 18 -67q23 -23 36.5 -19t19.5 21.5t7 40t-1 39.5q43 35 83 27.5t77 -33t73.5 -57.5t73.5 -44q29 -10 63.5 -5t65.5 20.5t55.5 39t34.5 52.5q0 6 -4 10l-8 8q-45 -51 -86 -62.5t-79 3t-76 44t-76.5 59.5t-79.5 52.5t-86 18.5q-33 -6 -57.5 -28.5 t-39 -52.5t-14.5 -67z" />
<glyph unicode="&#xe4;" horiz-adv-x="854" d="M39 133q-4 -47 16 -88q78 33 146.5 86t133 114.5t128 123t133.5 108.5q-16 -113 -43 -238.5t-27 -261.5q23 -27 52.5 -44t70.5 -9q16 12 44 31.5t52.5 43.5t38 50.5t0.5 54.5q-29 0 -48 -12t-35.5 -26.5t-35 -24.5t-42.5 -6q-12 70 -6 132t21 120.5t36.5 116t42.5 114.5 q2 31 22.5 47.5t40 32.5t29.5 37.5t-6 60.5q-82 47 -180 47q-96 0 -191.5 -39.5t-177.5 -112.5t-131 -169q-10 -45 -29.5 -94t-35 -98.5t-19.5 -96.5zM141 203q20 111 91 215t169 170q25 10 62 29.5t70.5 30.5t59.5 7t30 -39q-57 -49 -114.5 -104t-117 -109.5t-121 -105.5 t-129.5 -94zM365 891q0 -18 28 -49q31 45 54.5 73.5t46 54t46 55.5t54.5 75q2 53 -4 69.5t-17.5 9t-28 -31t-33.5 -50t-35 -50t-30 -27.5q-16 -33 -36.5 -53.5t-32.5 -38t-12 -37.5zM668 881q31 31 58.5 51t53 38.5t51 41t50.5 55.5q10 12 14 29.5t1 33t-15 24.5t-35 7 q-10 -41 -42 -73.5t-64.5 -64.5t-56.5 -65.5t-15 -76.5z" />
<glyph unicode="&#xe5;" horiz-adv-x="825" d="M39 133q-4 -47 16 -88q78 33 146.5 86t133 114.5t128 123t133.5 108.5q-16 -113 -43 -238.5t-27 -261.5q23 -27 52.5 -44t70.5 -9q16 12 44 31.5t52.5 43.5t38 50.5t0.5 54.5q-29 0 -48 -12t-35.5 -26.5t-35 -24.5t-42.5 -6q-12 70 -6 132t21 120.5t36.5 116t42.5 114.5 q2 31 22.5 47.5t40 32.5t29.5 37.5t-6 60.5q-82 47 -180 47q-96 0 -191.5 -39.5t-177.5 -112.5t-131 -169q-10 -45 -29.5 -94t-35 -98.5t-19.5 -96.5zM141 203q20 111 91 215t169 170q25 10 62 29.5t70.5 30.5t59.5 7t30 -39q-57 -49 -114.5 -104t-117 -109.5t-121 -105.5 t-129.5 -94zM379 1176q0 -33 12 -62t35 -55.5t51 -46.5q51 2 67.5 10t10.5 20.5t-25.5 28.5t-39 34.5t-32 39t-1.5 43.5q16 18 33.5 24.5t33.5 28.5q25 2 59.5 10.5t69.5 8.5t65 -14.5t46 -57.5q10 -66 -21.5 -122t-91.5 -85q-12 -10 -33 -10q-20 0 -39.5 -1t-31.5 -8.5 t-10 -27.5q35 -20 67.5 -19.5t63 14t58.5 34t52 36.5q41 47 51.5 108.5t-4.5 113.5q-25 63 -82 91.5t-122 28.5q-66 0 -127.5 -26.5t-98.5 -73.5q-16 -33 -16 -65z" />
<glyph unicode="&#xe6;" horiz-adv-x="1058" d="M148.5 293q-11.5 -84 9.5 -170q47 -20 90 -11t81 35.5t74.5 66.5t72.5 81t73 78t78 57q8 -66 24.5 -127t5.5 -133q8 -35 21.5 -75t37 -69.5t59.5 -41t89 11.5q10 12 29.5 19.5t35 14.5t22.5 20t-5 38q-10 18 -25.5 19.5t-33 -6t-35.5 -15.5t-33 -8q-41 70 -68.5 146.5 t-11.5 172.5q14 29 41 29t54 4q43 -2 74.5 17.5t50 51t24.5 71.5t-4 81q-29 47 -82.5 74t-112.5 27q-31 -39 -36 -56.5t5.5 -23.5t30.5 -6t43 -2t43.5 -11.5t28.5 -34.5q12 -35 -9.5 -65.5t-55.5 -40.5q-10 -10 -32 -14t-40.5 0t-26.5 18t4 41q-18 55 -55 89t-85 50.5 t-100.5 15.5t-101.5 -14q-63 -43 -116.5 -105.5t-87 -139t-45 -160.5zM249 316q9 44 31.5 84t48 77t42.5 80q49 53 122 57t134 -43q-51 -45 -93 -91t-84 -91t-88.5 -89t-103.5 -83q-18 55 -9 99z" />
<glyph unicode="&#xe7;" horiz-adv-x="669" d="M123 104q57 -29 75.5 -71.5t18.5 -91.5t-7 -100.5t-1 -95.5t34.5 -77t100.5 -43q-20 -31 -52 -49t-60.5 -34.5t-51 -39t-24.5 -59.5q45 2 84 20.5t75.5 45t71.5 57.5t70 59q23 45 20.5 65.5t-19 27t-42 4t-52 -3.5t-50 4.5t-31.5 27.5q-31 78 -4.5 121t78 71.5t109.5 52 t91 64.5q-12 31 -38.5 26t-60.5 -23.5t-72 -38t-71 -19.5q-35 16 -68.5 28.5t-43.5 51.5q-35 123 -4.5 235.5t131.5 188.5q131 70 256 0q10 10 22.5 19.5t7.5 25.5q-37 47 -89 58.5t-107 -1t-109.5 -41t-93.5 -61.5q-59 -86 -85 -186.5t-9 -217.5z" />
<glyph unicode="&#xe8;" horiz-adv-x="649" d="M-45 315q-2 -37 15.5 -47t41 -9t47 4t35.5 -5q2 -49 -7 -102.5t-12 -103.5t11 -96t64 -83q88 -18 153.5 16.5t118.5 95t97 133t87 128.5q-49 -39 -96 -85t-94 -89t-98.5 -79t-108.5 -52q-66 100 -67 169.5t37 122t100.5 94.5t125 89t111.5 104.5t62 141.5q16 16 16 47 q0 33 -16 51q-92 20 -151.5 -3.5t-102.5 -73.5t-77 -113.5t-73 -120t-90 -95.5t-129 -39zM213 1391q18 -66 48 -137.5t73 -138t98 -122t123 -86.5q-29 61 -66.5 125t-77.5 126.5t-79 120.5t-72 112h-47zM271 461.5q-3 17.5 30 50.5q25 25 44.5 50.5t41 48t47 37t62.5 14.5 q-20 -47 -53 -92t-72 -76q-10 -29 -34 -41.5t-43.5 -10.5t-22.5 19.5z" />
<glyph unicode="&#xe9;" horiz-adv-x="681" d="M-45 315q-2 -37 15.5 -47t41 -9t47 4t35.5 -5q2 -49 -7 -102.5t-12 -103.5t11 -96t64 -83q88 -18 153.5 16.5t118.5 95t97 133t87 128.5q-49 -39 -96 -85t-94 -89t-98.5 -79t-108.5 -52q-66 100 -67 169.5t37 122t100.5 94.5t125 89t111.5 104.5t62 141.5q16 16 16 47 q0 33 -16 51q-92 20 -151.5 -3.5t-102.5 -73.5t-77 -113.5t-73 -120t-90 -95.5t-129 -39zM195.5 873.5q-5.5 -19.5 13.5 -29.5q70 43 144.5 75.5t148 63.5t147.5 62.5t144 72.5v47q-6 4 -11.5 10.5t-9.5 10.5q-147 -59 -287.5 -132t-287.5 -145q4 -16 -1.5 -35.5zM271 461.5 q-3 17.5 30 50.5q25 25 44.5 50.5t41 48t47 37t62.5 14.5q-20 -47 -53 -92t-72 -76q-10 -29 -34 -41.5t-43.5 -10.5t-22.5 19.5z" />
<glyph unicode="&#xea;" horiz-adv-x="634" d="M-45 315q-2 -37 15.5 -47t41 -9t47 4t35.5 -5q2 -49 -7 -102.5t-12 -103.5t11 -96t64 -83q88 -18 153.5 16.5t118.5 95t97 133t87 128.5q-49 -39 -96 -85t-94 -89t-98.5 -79t-108.5 -52q-66 100 -67 169.5t37 122t100.5 94.5t125 89t111.5 104.5t62 141.5q16 16 16 47 q0 33 -16 51q-92 20 -151.5 -3.5t-102.5 -73.5t-77 -113.5t-73 -120t-90 -95.5t-129 -39zM55 981q-4 -31 35 -51q68 2 113 33.5t82 69.5t72.5 74t86.5 48q18 -47 31.5 -83t28 -69.5t29 -68.5t32.5 -82h58q-4 49 -13.5 88t-23 77t-28.5 79t-34 94q-4 20 -10 45t-19.5 44 t-33.5 31.5t-51 6.5q-29 -68 -57.5 -113t-65.5 -75.5t-85 -54t-112 -50.5q-31 -12 -35 -43zM271 461.5q-3 17.5 30 50.5q25 25 44.5 50.5t41 48t47 37t62.5 14.5q-20 -47 -53 -92t-72 -76q-10 -29 -34 -41.5t-43.5 -10.5t-22.5 19.5z" />
<glyph unicode="&#xeb;" horiz-adv-x="634" d="M-45 315q-2 -37 15.5 -47t41 -9t47 4t35.5 -5q2 -49 -7 -102.5t-12 -103.5t11 -96t64 -83q88 -18 153.5 16.5t118.5 95t97 133t87 128.5q-49 -39 -96 -85t-94 -89t-98.5 -79t-108.5 -52q-66 100 -67 169.5t37 122t100.5 94.5t125 89t111.5 104.5t62 141.5q16 16 16 47 q0 33 -16 51q-92 20 -151.5 -3.5t-102.5 -73.5t-77 -113.5t-73 -120t-90 -95.5t-129 -39zM210 939q1 -19 30 -50q31 45 53 73.5t44.5 54t46.5 55.5t54 75q2 53 -3 69.5t-17 9.5t-28.5 -31t-34 -50.5t-35 -50t-29.5 -27.5q-16 -33 -37 -53.5t-33 -38t-11 -36.5zM271 461.5 q-3 17.5 30 50.5q25 25 44.5 50.5t41 48t47 37t62.5 14.5q-20 -47 -53 -92t-72 -76q-10 -29 -34 -41.5t-43.5 -10.5t-22.5 19.5zM512 928q31 31 58.5 51t53 39.5t51 41t50.5 54.5q10 12 15 29.5t2 33t-15 24.5t-35 7q-10 -41 -43 -72.5t-65.5 -64.5t-56 -66.5t-15.5 -76.5z " />
<glyph unicode="&#xec;" horiz-adv-x="641" d="M97 126q-1 -103 55 -210q102 -14 173.5 25t127 105.5t98.5 147t86 150.5q-59 -33 -104.5 -86t-88.5 -108.5t-91 -103.5t-113 -71q-49 70 -55.5 149t10 160t45 160.5t51.5 151.5q2 14 10 46t9 59.5t-13 42.5t-57 1q-12 -104 -49 -206.5t-65 -206t-29 -206.5zM156 1391 q16 -66 45.5 -137.5t72.5 -138t98.5 -122t123.5 -86.5q-29 61 -66 125t-77 126.5t-80 120.5t-72 112h-45z" />
<glyph unicode="&#xed;" horiz-adv-x="655" d="M97 126q-1 -103 55 -210q102 -14 173.5 25t127 105.5t98.5 147t86 150.5q-59 -33 -104.5 -86t-88.5 -108.5t-91 -103.5t-113 -71q-49 70 -55.5 149t10 160t45 160.5t51.5 151.5q2 14 10 46t9 59.5t-13 42.5t-57 1q-12 -104 -49 -206.5t-65 -206t-29 -206.5zM123 913 q0 -8 2 -15t12 -13q70 43 143.5 75.5t147.5 63.5t147.5 62.5t143.5 72.5v47l-21 21q-145 -59 -286.5 -132t-288.5 -145q2 -8 1 -17t-1 -20z" />
<glyph unicode="&#xee;" horiz-adv-x="649" d="M71.5 981q-3.5 -31 34.5 -51q68 2 113 33.5t82 69.5t73 74t85 48q18 -47 32.5 -83t29 -69.5t27.5 -68.5t32 -82h59q-4 49 -13.5 88t-22.5 77t-29.5 79t-34.5 94q-2 20 -8.5 45t-19.5 44t-33.5 31.5t-51.5 6.5q-29 -68 -57.5 -113t-65.5 -75.5t-85 -54t-112 -50.5 q-31 -12 -34.5 -43zM97 126q-1 -103 55 -210q102 -14 173.5 25t127 105.5t98.5 147t86 150.5q-59 -33 -104.5 -86t-88.5 -108.5t-91 -103.5t-113 -71q-49 70 -55.5 149t10 160t45 160.5t51.5 151.5q2 14 10 46t9 59.5t-13 42.5t-57 1q-12 -104 -49 -206.5t-65 -206 t-29 -206.5z" />
<glyph unicode="&#xef;" horiz-adv-x="649" d="M97 126q-1 -103 55 -210q102 -14 173.5 25t127 105.5t98.5 147t86 150.5q-59 -33 -104.5 -86t-88.5 -108.5t-91 -103.5t-113 -71q-49 70 -55.5 149t10 160t45 160.5t51.5 151.5q2 14 10 46t9 59.5t-13 42.5t-57 1q-12 -104 -49 -206.5t-65 -206t-29 -206.5zM130 946.5 q1 -18.5 30 -49.5q31 45 54.5 73.5t46 54.5t46 54.5t53.5 73.5q4 80 -11 81t-39.5 -33t-51.5 -77t-47 -51q-16 -33 -36.5 -53.5t-33 -37.5t-11.5 -35.5zM432 936q31 31 58.5 51.5t53 38.5t51.5 41t52 55q8 12 13.5 29.5t2 32t-15.5 23.5t-35 7q-10 -41 -41.5 -72.5 t-65.5 -63t-57.5 -65.5t-15.5 -77z" />
<glyph unicode="&#xf1;" horiz-adv-x="784" d="M23 -29q12 -18 31.5 -17t35.5 -11q37 84 82 169t101.5 163.5t124 150.5t149.5 127q10 -61 12 -114.5t2 -106.5t2 -109.5t12 -124.5q0 -35 19.5 -60.5t49.5 -39.5t65 -14t63 16q43 25 82 65.5t70.5 87t55.5 94.5t40 87q-35 -31 -75 -75t-84 -84t-91 -67.5t-96 -27.5 q-41 63 -42 137t6 148.5t7 146.5q0 74 -39 139q-115 -41 -216 -129t-161 -207q-6 4 -12 0t-10 -8t-10 -4q-4 0 -9 12q23 100 41.5 195.5t40.5 191.5q-18 -96 -25 -125.5t-5 -17.5t11 54t19 89q-2 12 -8 14.5t-12 3.5t-12.5 2t-8.5 11q-41 -84 -65.5 -179t-44 -193.5 t-41 -198t-55.5 -191.5zM227 995q0 -35 17 -67q23 -23 36 -19t19 21.5t7 40t-1 39.5q45 35 84 27.5t76 -33t73.5 -57.5t73.5 -44q31 -10 65 -5t65.5 20.5t56 39t35.5 52.5q0 6 -5.5 10t-9.5 8q-45 -51 -86 -62.5t-79 3t-75.5 44t-76.5 59.5t-80 51.5t-86 19.5 q-33 -6 -57.5 -28.5t-38 -52.5t-13.5 -67z" />
<glyph unicode="&#xf2;" horiz-adv-x="567" d="M71 293q5 -78 11 -158q8 -37 23.5 -80t40 -73.5t60.5 -43t83 12.5q49 66 73.5 137.5t34 147t6 154.5t-5.5 159q31 -2 63 -3t65.5 6t66.5 29.5t65 67.5q-70 -23 -126 -29t-108 1.5t-104.5 26.5t-109.5 50q-63 -53 -93 -118.5t-40 -137t-5 -149.5zM123 1274 q16 -66 46 -137.5t73 -137t99 -121t124 -85.5q-29 61 -67 123.5t-77.5 125t-79.5 121t-73 111.5h-45zM160 305q0 78 15 151.5t46 133.5q43 2 61.5 -19.5t26.5 -52.5t10.5 -64.5t10.5 -60.5q20 -113 -14.5 -203t-94.5 -172q-31 59 -46 134t-15 153z" />
<glyph unicode="&#xf3;" horiz-adv-x="567" d="M71 293q5 -78 11 -158q8 -37 23.5 -80t40 -73.5t60.5 -43t83 12.5q49 66 73.5 137.5t34 147t6 154.5t-5.5 159q31 -2 63 -3t65.5 6t66.5 29.5t65 67.5q-70 -23 -126 -29t-108 1.5t-104.5 26.5t-109.5 50q-63 -53 -93 -118.5t-40 -137t-5 -149.5zM160 305q0 78 15 151.5 t46 133.5q43 2 61.5 -19.5t26.5 -52.5t10.5 -64.5t10.5 -60.5q20 -113 -14.5 -203t-94.5 -172q-31 59 -46 134t-15 153zM227 847q-4 -20 15 -30q70 43 143.5 76t147 63.5t147.5 61.5t143 72v49l-20 20q-145 -59 -286.5 -132t-289.5 -144q4 -16 0 -36z" />
<glyph unicode="&#xf4;" horiz-adv-x="559" d="M60 974q-5 -32 36 -50q68 2 112 32.5t81 68.5t72.5 75t87.5 49q18 -47 31.5 -83t27.5 -69.5t28.5 -69.5t32.5 -83h60q-6 49 -15.5 89t-22.5 78t-28.5 78.5t-34.5 94.5q-4 18 -10 42.5t-19.5 45t-33.5 33t-51 6.5q-27 -68 -56.5 -113t-66.5 -75.5t-84 -54.5t-111 -50 q-31 -12 -36 -44zM71 293q5 -78 11 -158q8 -37 23.5 -80t40 -73.5t60.5 -43t83 12.5q49 66 73.5 137.5t34 147t6 154.5t-5.5 159q31 -2 63 -3t65.5 6t66.5 29.5t65 67.5q-70 -23 -126 -29t-108 1.5t-104.5 26.5t-109.5 50q-63 -53 -93 -118.5t-40 -137t-5 -149.5zM160 305 q0 78 15 151.5t46 133.5q43 2 61.5 -19.5t26.5 -52.5t10.5 -64.5t10.5 -60.5q20 -113 -14.5 -203t-94.5 -172q-31 59 -46 134t-15 153z" />
<glyph unicode="&#xf5;" horiz-adv-x="512" d="M70 1004q0 -35 16 -68q23 -23 36 -18.5t19 21.5t7.5 39.5t-1.5 39.5q45 35 84 26.5t76 -34t74 -57t74 -44.5q31 -10 64.5 -5t65 20.5t56.5 40t35 53.5q0 4 -14 18q-45 -53 -85 -63t-79 3t-76 44t-76 60.5t-80 51t-86 17.5q-33 -6 -57.5 -28.5t-38.5 -52.5t-14 -64z M71 293q5 -78 11 -158q8 -37 23.5 -80t40 -73.5t60.5 -43t83 12.5q49 66 73.5 137.5t34 147t6 154.5t-5.5 159q31 -2 63 -3t65.5 6t66.5 29.5t65 67.5q-70 -23 -126 -29t-108 1.5t-104.5 26.5t-109.5 50q-63 -53 -93 -118.5t-40 -137t-5 -149.5zM160 305q0 78 15 151.5 t46 133.5q43 2 61.5 -19.5t26.5 -52.5t10.5 -64.5t10.5 -60.5q20 -113 -14.5 -203t-94.5 -172q-31 59 -46 134t-15 153z" />
<glyph unicode="&#xf6;" horiz-adv-x="559" d="M71 293q5 -78 11 -158q8 -37 23.5 -80t40 -73.5t60.5 -43t83 12.5q49 66 73.5 137.5t34 147t6 154.5t-5.5 159q31 -2 63 -3t65.5 6t66.5 29.5t65 67.5q-70 -23 -126 -29t-108 1.5t-104.5 26.5t-109.5 50q-63 -53 -93 -118.5t-40 -137t-5 -149.5zM91 912.5 q1 -19.5 30 -50.5q31 45 54.5 74t46 54.5t46 55t54.5 74.5q2 53 -4.5 69.5t-18.5 9.5t-28.5 -30.5t-34 -50t-35 -50.5t-29.5 -28q-16 -33 -36.5 -53t-33 -37.5t-11.5 -37zM160 305q0 78 15 151.5t46 133.5q43 2 61.5 -19.5t26.5 -52.5t10.5 -64.5t10.5 -60.5 q20 -113 -14.5 -203t-94.5 -172q-31 59 -46 134t-15 153zM393 901q31 31 58.5 51.5t54 39t52.5 41t50 54.5q10 12 14.5 30t1.5 33t-15.5 24.5t-35.5 7.5q-10 -41 -41.5 -74t-65.5 -64.5t-57.5 -65.5t-15.5 -77z" />
<glyph unicode="&#xf8;" horiz-adv-x="935" d="M45 -152q12 -6 43 20t64.5 65.5t44.5 60.5q23 37 41 35t36.5 -17.5t38 -30t43.5 -1.5q57 2 106.5 23.5t89.5 56t71.5 79.5t54.5 94q16 72 19 126.5t-33 113.5q14 39 45.5 65.5t64.5 50t57.5 52.5t26.5 74q-41 18 -73.5 1.5t-61.5 -47t-54.5 -64.5t-50.5 -50 q-51 55 -113.5 76.5t-127.5 38.5q-25 -10 -40 -25.5t-29.5 -26t-31 -12.5t-47.5 15q-55 -55 -65 -116t1 -123.5t28.5 -125.5t18.5 -121.5t-28.5 -113t-115.5 -97.5q-35 -70 -23 -76zM255 345q3 40 11 81t13 82q12 12 30.5 16t39 8.5t41 11.5t34.5 25q35 -10 67.5 -20 t59.5 -41q-29 -45 -60.5 -82t-64.5 -72t-66.5 -71.5t-64.5 -81.5q-29 31 -36 67.5t-4 76.5zM350.5 117q14.5 39 46 74.5t70.5 69.5t70 67q18 0 25 10t13.5 22.5t14.5 22.5t28 10q20 -33 17.5 -60.5t-16 -55t-30 -54t-24.5 -57.5q-41 -53 -95 -80t-114 -47q-20 39 -5.5 78z " />
<glyph unicode="&#xf9;" horiz-adv-x="860" d="M44 125.5q-1 -27.5 4 -51t22.5 -35.5t54.5 -2q61 45 115.5 101.5t106.5 114.5t106.5 116.5t115.5 109.5q2 -29 1 -62.5t-2 -70.5t1 -72.5t11 -68.5q4 -31 23.5 -59.5t47 -47t60 -21.5t65.5 19q23 8 48.5 19.5t48 27t38 38t15.5 52.5q-29 -10 -55.5 -30.5t-54.5 -35.5 t-58.5 -19.5t-67.5 16.5q-37 68 -40 136.5t9.5 138t30 139t19.5 139.5q-10 -4 -15.5 -2t-8.5 7t-7 8t-10 -1q-43 -82 -104.5 -161t-133.5 -149.5t-149.5 -132t-155.5 -110.5q6 59 11 124t10.5 128.5t13.5 122.5t24 108q-55 -18 -80.5 -74.5t-36 -128t-12.5 -147.5t-10 -133 q0 -23 -1 -50.5zM287 1343q16 -66 45.5 -137t73 -138t99.5 -122t124 -86q-29 61 -67 125t-78 126.5t-79.5 120.5t-72.5 111h-45z" />
<glyph unicode="&#xfa;" horiz-adv-x="819" d="M44 125.5q-1 -27.5 4 -51t22.5 -35.5t54.5 -2q61 45 115.5 101.5t106.5 114.5t106.5 116.5t115.5 109.5q2 -29 1 -62.5t-2 -70.5t1 -72.5t11 -68.5q4 -31 23.5 -59.5t47 -47t60 -21.5t65.5 19q23 8 48.5 19.5t48 27t38 38t15.5 52.5q-29 -10 -55.5 -30.5t-54.5 -35.5 t-58.5 -19.5t-67.5 16.5q-37 68 -40 136.5t9.5 138t30 139t19.5 139.5q-10 -4 -15.5 -2t-8.5 7t-7 8t-10 -1q-43 -82 -104.5 -161t-133.5 -149.5t-149.5 -132t-155.5 -110.5q6 59 11 124t10.5 128.5t13.5 122.5t24 108q-55 -18 -80.5 -74.5t-36 -128t-12.5 -147.5t-10 -133 q0 -23 -1 -50.5zM261 853.5q-5 -19.5 13 -30.5q72 43 146 76t147.5 63.5t147 62.5t143.5 73v47l-20 20q-147 -59 -287.5 -131.5t-288.5 -144.5q4 -16 -1 -35.5z" />
<glyph unicode="&#xfb;" horiz-adv-x="833" d="M44 125.5q-1 -27.5 4 -51t22.5 -35.5t54.5 -2q61 45 115.5 101.5t106.5 114.5t106.5 116.5t115.5 109.5q2 -29 1 -62.5t-2 -70.5t1 -72.5t11 -68.5q4 -31 23.5 -59.5t47 -47t60 -21.5t65.5 19q23 8 48.5 19.5t48 27t38 38t15.5 52.5q-29 -10 -55.5 -30.5t-54.5 -35.5 t-58.5 -19.5t-67.5 16.5q-37 68 -40 136.5t9.5 138t30 139t19.5 139.5q-10 -4 -15.5 -2t-8.5 7t-7 8t-10 -1q-43 -82 -104.5 -161t-133.5 -149.5t-149.5 -132t-155.5 -110.5q6 59 11 124t10.5 128.5t13.5 122.5t24 108q-55 -18 -80.5 -74.5t-36 -128t-12.5 -147.5t-10 -133 q0 -23 -1 -50.5zM163 981q-5 -31 36 -51q68 2 111.5 33.5t80.5 69.5t73 74t87 48q18 -47 31.5 -83t28 -69.5t28.5 -68.5t33 -82h59q-6 49 -15 88t-22.5 77t-29 79t-33.5 94q-4 20 -10.5 45t-19.5 44t-33.5 31.5t-51.5 6.5q-27 -68 -56.5 -113t-66.5 -75.5t-84 -54 t-110 -50.5q-31 -12 -36 -43z" />
<glyph unicode="&#xfc;" horiz-adv-x="839" d="M44 125.5q-1 -27.5 4 -51t22.5 -35.5t54.5 -2q61 45 115.5 101.5t106.5 114.5t106.5 116.5t115.5 109.5q2 -29 1 -62.5t-2 -70.5t1 -72.5t11 -68.5q4 -31 23.5 -59.5t47 -47t60 -21.5t65.5 19q23 8 48.5 19.5t48 27t38 38t15.5 52.5q-29 -10 -55.5 -30.5t-54.5 -35.5 t-58.5 -19.5t-67.5 16.5q-37 68 -40 136.5t9.5 138t30 139t19.5 139.5q-10 -4 -15.5 -2t-8.5 7t-7 8t-10 -1q-43 -82 -104.5 -161t-133.5 -149.5t-149.5 -132t-155.5 -110.5q6 59 11 124t10.5 128.5t13.5 122.5t24 108q-55 -18 -80.5 -74.5t-36 -128t-12.5 -147.5t-10 -133 q0 -23 -1 -50.5zM242 926q0 -18 28 -49q31 45 54.5 73.5t46 54t46 54t54.5 74.5q2 53 -4 69.5t-17.5 9t-27.5 -31t-33.5 -50t-35 -50t-29.5 -27.5q-16 -33 -37 -53.5t-33 -38t-12 -35.5zM545 915q31 31 58.5 51.5t53 39t51 41t50.5 55.5q8 12 13 29.5t2 32t-15 23.5t-35 7 q-10 -41 -42 -72.5t-64.5 -63.5t-56 -66t-15.5 -77z" />
<glyph unicode="&#xff;" horiz-adv-x="860" d="M-586.5 -377q-19.5 -55 6.5 -112q25 -53 63 -93.5t86 -66t101.5 -41t106.5 -19.5q174 57 314 178t247.5 277t181.5 331t117 345q8 37 27.5 71.5t37 68.5t28.5 67t5 67q-63 6 -112.5 -17.5t-90 -63.5t-75.5 -91t-70 -100t-73 -91t-83 -63v455q-51 -51 -68.5 -131 t-16.5 -169t13.5 -181t20.5 -168q6 2 14.5 -2t14.5 -7.5t12 -3.5t10 13q78 133 173.5 267t203.5 232q-47 -178 -108.5 -346t-139.5 -333q-63 -76 -124.5 -163t-128 -166t-143.5 -139.5t-169 -84.5q-78 20 -149.5 46.5t-128.5 92.5q-45 27 -44 63.5t13 71.5t17 63.5t-31 36.5 q-39 -39 -58.5 -94zM191.5 953.5q1.5 -19.5 29.5 -50.5q31 45 54.5 74t46 54.5t46 55t54.5 74.5q2 53 -4 69.5t-18.5 9.5t-29 -30.5t-34 -50t-35 -50.5t-29.5 -28q-16 -33 -36.5 -53t-33 -37.5t-11 -37zM494 942q31 31 58.5 51.5t54 39t52 41t50.5 54.5q10 12 14 30t1 33 t-15 24.5t-35 7.5q-10 -41 -42 -74t-66 -64.5t-57.5 -65.5t-14.5 -77z" />
<glyph unicode="&#x152;" horiz-adv-x="1439" d="M70.5 584q7.5 -84 32 -166t53.5 -150q33 -43 69.5 -86t80.5 -73.5t96.5 -43t117.5 10.5q88 31 132 69.5t79 104.5q33 -131 121 -223q86 -35 167 -38t173 17q18 10 46 18.5t50.5 17.5t35.5 24.5t3 39.5q-76 -47 -159 -56t-169 -9q-51 8 -88 39t-61.5 70.5t-38.5 87 t-18 90.5q12 31 31.5 43t43 17t49 7t48.5 13q53 12 108 7t106.5 -3t94.5 21.5t72 80.5q-8 33 -20.5 41t-27 1t-29 -24.5t-24.5 -31.5q-45 -12 -81 -13.5t-68.5 0.5t-67.5 1t-78 -13q-49 -12 -85 -13t-56.5 15.5t-24.5 51t9 92.5q-12 113 13 171t74.5 83.5t118 27.5t140 1 t142.5 5t126 39l-14 15q-78 8 -136 8q-57 0 -114.5 -3t-123 -7.5t-159.5 -4.5q-20 -27 -34.5 -37t-24.5 -19t-19.5 -24.5t-19.5 -54.5v-6q-76 80 -175.5 118t-203.5 38q-16 0 -29.5 -10.5t-22.5 -24.5t-11.5 -29.5t8.5 -27.5q63 23 118.5 20.5t105.5 -21t95 -52t86 -76.5 l6 -21q-20 -98 -28.5 -201.5t6.5 -201.5q-25 -55 -68 -93q-51 -53 -119.5 -80.5t-136.5 -11.5q-66 33 -113 87.5t-76.5 122t-41.5 145t-6 155.5q-10 35 5 69t28.5 65.5t12.5 58t-46 45.5q-55 -61 -74 -141t-11.5 -164z" />
<glyph unicode="&#x153;" horiz-adv-x="962" d="M124 337q-3 -83 19 -165q12 -23 25.5 -52.5t30 -56t42 -42t62.5 -7.5q27 0 52.5 19.5t48 38t43 25.5t38.5 -17q27 -23 63 -39t75 -22.5t77.5 -1t71.5 27.5q10 41 3 54.5t-24.5 10t-42 -14.5t-51 -16t-51 3t-41.5 45q-33 72 -30.5 114t25 66.5t62.5 36.5t84 24.5t86 29 t72 51.5q18 35 19 69q0 35 -8.5 69t-19.5 65.5t-15 56.5q-47 23 -87 19.5t-73 -24t-58.5 -55.5t-43.5 -74q-27 31 -58 51.5t-63.5 38t-66 34t-66.5 36.5q-57 -43 -101.5 -105.5t-70 -136t-28.5 -156.5zM224 359.5q7 68.5 31 138t48 131.5q27 -8 54.5 -13.5t53 -14.5 t47.5 -25.5t40 -47.5q-16 -47 -25.5 -108.5t-27 -120.5t-49 -109.5t-93.5 -74.5q-55 49 -70.5 112.5t-8.5 132zM643 414q10 25 18.5 54.5t21.5 56t33.5 46t55.5 23.5q10 -33 4 -62.5t-24.5 -54t-47 -41t-61.5 -22.5z" />
<glyph unicode="&#x178;" horiz-adv-x="942" d="M24 992.5q-12 -19.5 5 -36.5q31 -80 85 -143t115.5 -122.5t120 -117t97 -125t48 -146.5t-29.5 -181q4 -18 6 -44t10 -46.5t24.5 -30.5t51.5 6q8 86 1 180.5t-7 188.5q0 96 16.5 186t69.5 168q25 35 64.5 57.5t74.5 44t57.5 49t12.5 76.5q-66 -25 -122 -68.5t-104.5 -96 t-86 -109.5t-68.5 -113q-117 109 -213.5 215.5t-190.5 233.5q-25 -6 -37 -25.5zM234.5 1112q1.5 -18 29.5 -49q31 45 54.5 73.5t46 54.5t46 54.5t54.5 73.5q2 53 -4 69.5t-18.5 10.5t-29 -29.5t-34 -50.5t-34 -50.5t-30.5 -27.5q-16 -33 -36.5 -53.5t-33 -39t-11 -36.5z M537 1102q31 31 58.5 51.5t53 39.5t51 40.5t52.5 54.5q8 12 13 29.5t2 32t-15 23.5t-35 7q-10 -41 -42 -72.5t-66 -63.5t-57.5 -65.5t-14.5 -76.5z" />
<glyph unicode="&#x2c6;" horiz-adv-x="722" d="M128 981q-5 -31 36 -51q68 2 113 33.5t81.5 69.5t72.5 74t85 48q18 -47 32.5 -83t29 -69.5t27.5 -68.5t32 -82h59q-6 49 -15 88t-22.5 77t-29 79t-33.5 94q-2 20 -8 45t-19.5 44t-34 31.5t-51.5 6.5q-29 -68 -57.5 -113t-65 -75.5t-85 -54t-111.5 -50.5q-31 -12 -36 -43z " />
<glyph unicode="&#x2dc;" horiz-adv-x="1017" d="M248 1036q0 -35 16 -67q23 -23 36 -19t19.5 21.5t7.5 40t-1 39.5q45 35 84 27.5t75.5 -33t73.5 -57.5t74 -44q31 -10 64.5 -5t65.5 20.5t56.5 39t34.5 52.5q0 6 -5 10t-9 8q-45 -51 -86 -62.5t-79 3t-76 44t-77 59.5t-80 52.5t-86 18.5q-33 -6 -57.5 -28.5t-37.5 -52.5 t-13 -67z" />
<glyph unicode="&#x2000;" horiz-adv-x="847" />
<glyph unicode="&#x2001;" horiz-adv-x="1694" />
<glyph unicode="&#x2002;" horiz-adv-x="847" />
<glyph unicode="&#x2003;" horiz-adv-x="1694" />
<glyph unicode="&#x2004;" horiz-adv-x="564" />
<glyph unicode="&#x2005;" horiz-adv-x="423" />
<glyph unicode="&#x2006;" horiz-adv-x="282" />
<glyph unicode="&#x2007;" horiz-adv-x="282" />
<glyph unicode="&#x2008;" horiz-adv-x="211" />
<glyph unicode="&#x2009;" horiz-adv-x="338" />
<glyph unicode="&#x200a;" horiz-adv-x="94" />
<glyph unicode="&#x2010;" horiz-adv-x="587" d="M124 444.5q-5 -22.5 11 -43.5q43 0 96.5 -10t105.5 -13t93 6t59 50q-86 16 -166.5 27.5t-166.5 21.5q-27 -16 -32 -38.5z" />
<glyph unicode="&#x2011;" horiz-adv-x="587" d="M124 444.5q-5 -22.5 11 -43.5q43 0 96.5 -10t105.5 -13t93 6t59 50q-86 16 -166.5 27.5t-166.5 21.5q-27 -16 -32 -38.5z" />
<glyph unicode="&#x2012;" horiz-adv-x="587" d="M124 444.5q-5 -22.5 11 -43.5q43 0 96.5 -10t105.5 -13t93 6t59 50q-86 16 -166.5 27.5t-166.5 21.5q-27 -16 -32 -38.5z" />
<glyph unicode="&#x2013;" horiz-adv-x="894" d="M50.5 443.5q-1.5 -13.5 4.5 -25.5t15.5 -23.5t11.5 -21.5q76 -14 155.5 -16.5t159.5 -2.5h160t156 -12q18 -12 42.5 -15t44 6t27 31.5t-7.5 57.5q-84 14 -180 14q-94 0 -193.5 -1t-195.5 4t-182 30q-16 -12 -17.5 -25.5z" />
<glyph unicode="&#x2014;" horiz-adv-x="1515" d="M92 438q0 -29 23 -49q152 -23 318.5 -25t337.5 2.5t341 7.5t328 -9q-4 14 0 25t6 19.5t-2 16.5t-25 18q-147 -4 -315 -6t-340 1t-339 14t-310 36q-23 -20 -23 -51z" />
<glyph unicode="&#x2018;" horiz-adv-x="382" d="M98 1178.5q2 -31.5 17.5 -61.5t39 -57.5t44.5 -53.5q45 0 56 7t5 20.5t-24.5 30.5t-35 36.5t-24.5 41t8 44.5q10 4 18.5 18.5t28.5 7.5q59 20 77 41t8.5 35.5t-37 20.5t-60.5 3t-61.5 -19.5t-38.5 -47.5q-23 -35 -21 -66.5z" />
<glyph unicode="&#x2019;" horiz-adv-x="382" d="M62.5 995.5q-13.5 -12.5 1 -14.5t77.5 10q33 23 61.5 45.5t48 50t27 62.5t-3.5 82q-35 35 -72.5 65.5t-86.5 30.5q-8 -29 -2 -45t18 -27.5t29.5 -23.5t32.5 -31q25 -33 12.5 -63.5t-39.5 -58t-58.5 -49t-45 -34z" />
<glyph unicode="&#x201a;" horiz-adv-x="382" d="M69 -139.5q-1 -14.5 27.5 -2t100.5 63.5q39 49 63.5 105.5t28.5 122.5q-12 41 -31.5 46t-34 -8.5t-21.5 -39.5t5 -46q-2 -16 -23.5 -50t-47 -71.5t-46 -71.5t-21.5 -48.5z" />
<glyph unicode="&#x201c;" horiz-adv-x="669" d="M80 1118q49 -70 69.5 -84t24.5 4.5t0 59.5t-1 86t19.5 82t61.5 45q20 16 40.5 15t42 -6t41 -6t36.5 17q2 25 -13.5 38t-41 19.5t-54 5.5t-51.5 -3q-49 -6 -82 -34t-52.5 -67t-28.5 -84t-11 -88zM366.5 1107q6.5 -46 34.5 -71q12 10 25.5 4t25 -11t19.5 -3t12 31 q-45 43 -34.5 70.5t46 48t79.5 37t67 36.5q-25 33 -57 33q-31 0 -66 -17.5t-69.5 -42t-65.5 -38.5q-23 -31 -16.5 -77z" />
<glyph unicode="&#x201d;" horiz-adv-x="669" d="M148.5 970.5q-3.5 -18.5 4 -33.5t24 -22.5t42.5 5.5q8 23 29.5 46t40 49.5t28 57.5t-5.5 68q-16 14 -22 31.5t-11.5 35t-12.5 34t-21 32.5q-53 4 -67.5 -10.5t-9.5 -40t22.5 -59.5t25.5 -65.5t1 -59t-52 -40.5q-12 -10 -15.5 -28.5zM457 934q33 12 56.5 37.5t38.5 59.5 t22.5 71t11.5 72q-10 10 -13.5 29.5t-9.5 34.5t-18 21t-39 -6q-6 -41 -13.5 -84t-14.5 -86t-13 -81.5t-8 -67.5z" />
<glyph unicode="&#x201e;" horiz-adv-x="669" d="M26 -94q-1 -6 17 -12q33 -8 62.5 7t55 42.5t48 58.5t41.5 53q6 14 14 43t8 56t-14 42t-53 7q0 -80 -43 -147.5t-105 -94.5q4 -12 -4 -22.5t-17 -18.5t-10 -14zM412 -186q10 16 23.5 15t23.5 -1q72 41 112.5 123t20.5 184q-53 47 -73.5 36t-23.5 -48t4 -83.5t13 -64.5 q-10 -29 -27.5 -45t-35 -31.5t-28.5 -34t-9 -50.5z" />
<glyph unicode="&#x2026;" horiz-adv-x="1372" d="M129 49q10 -10 28.5 -19.5t36 -14.5t32 -3t18.5 17q12 51 12 84q0 35 -39 39q-53 4 -72.5 -28t-15.5 -75zM629 98q10 -10 27.5 -20t36 -15.5t31.5 -2.5t17 18q12 49 13 84q0 35 -39 39q-51 4 -71.5 -28t-14.5 -75zM1065 29q10 -10 27.5 -19.5t36 -14.5t33 -3t18.5 16 q12 51 12 84q0 35 -41 39q-51 4 -70.5 -27.5t-15.5 -74.5z" />
<glyph unicode="&#x202f;" horiz-adv-x="338" />
<glyph unicode="&#x2039;" horiz-adv-x="528" d="M68 307q16 -31 38.5 -46t48 -23.5t51 -14.5t48.5 -18q33 12 66.5 5t63.5 -13.5t53.5 -1t33.5 42.5q-39 12 -80 19t-83 16.5t-81 26.5t-71 48q31 51 77 85t92 66.5t82.5 73.5t51.5 107q4 18 -11.5 26.5t-29.5 4.5q-37 -57 -91.5 -101.5t-108.5 -88.5t-96 -94t-54 -120z " />
<glyph unicode="&#x203a;" horiz-adv-x="528" d="M119 283q-10 -16 3 -30.5t28 -29.5q51 23 108 54.5t105.5 73.5t81 94.5t34.5 115.5q-10 18 -28.5 31.5t-39 27t-41 30t-34.5 38.5q-25 6 -41 23.5t-28.5 37t-26.5 35t-37 17.5q-23 -51 -2.5 -87t59.5 -67t82 -61.5t66 -73.5q-53 -72 -123 -134.5t-166 -94.5z" />
<glyph unicode="&#x205f;" horiz-adv-x="423" />
<glyph unicode="&#x2122;" horiz-adv-x="1529" d="M55 1397q10 -35 44 -43t77 -8q45 0 95.5 1t93.5 -18q-6 -47 -3 -97t3 -99t-6.5 -96.5t-28.5 -88.5q20 -25 41.5 -38t52.5 -9q-8 66 -4 117t11 98t12.5 97.5t0.5 115.5q35 37 78 37t87 -8t83 -8q41 0 72 34q-80 20 -159 25.5t-158.5 4.5t-160.5 0.5t-163 17.5 q-6 -12 -15.5 -15.5t-19.5 -3.5t-19.5 -2t-13.5 -14zM791.5 1045.5q3.5 -48.5 29.5 -97.5q45 51 58.5 113.5t23.5 128.5q31 -23 43 -52.5t20.5 -60t18.5 -60.5t33 -54q55 8 90 47t65.5 87t64.5 92t87 60q29 -49 48.5 -105.5t31.5 -115.5q4 -18 24.5 -52t44 -53.5t45 -11 t25.5 71.5q-51 76 -75.5 162t-51.5 172q-27 61 -52.5 60t-52 -30.5t-55 -66.5t-61.5 -45q-23 -6 -38 -30.5t-32.5 -48t-38 -37t-51.5 2.5q-20 31 -34.5 78t-35 87t-49 61.5t-75.5 1.5q-8 -55 -22.5 -106.5t-23 -100.5t-5 -97.5z" />
<glyph unicode="&#x25fc;" horiz-adv-x="829" d="M0 0v829h829v-829h-829z" />
<glyph unicode="&#xfb01;" horiz-adv-x="1296" d="M27 723q25 -47 68.5 -59.5t94 -10.5t101.5 5.5t92 -15.5q-6 -88 -22.5 -170t-41 -162t-54 -156.5t-58.5 -152.5q-12 -33 -26.5 -70.5t-21.5 -76.5t-2 -77t29 -71q33 0 42.5 17.5t8.5 43t-5.5 53t1.5 48.5q57 201 120 395.5t122 392.5q68 -12 138.5 -3.5t138 14.5t129 1 t108.5 -46q-14 -43 -24.5 -106.5t-17.5 -133.5t-11 -136.5t-6 -115.5q25 -29 52.5 -42t61.5 -9q25 10 40.5 30.5t5.5 49.5q-33 -29 -51.5 -19.5t-28 32t-11.5 50t-2 37.5q12 37 27.5 98.5t27 126t15.5 124t-8 93.5q-66 8 -142.5 4t-153.5 -5t-151.5 8.5t-136.5 42.5 q16 78 27.5 159.5t33 158.5t59.5 145.5t107 117.5q43 16 66 14.5t32 -15t10 -35t4 -43t13.5 -41t34.5 -27.5q4 16 0 35.5t15 29.5q10 47 -5.5 78t-46 48.5t-71.5 20.5t-84 -5q-76 -35 -118 -94.5t-65.5 -130t-35 -149.5t-23.5 -155q6 -70 -13.5 -101.5t-56 -41.5t-84 -5 t-93.5 12t-88 9t-66 -14zM1117 1083.5q-11 -16.5 22 -59.5q25 -10 41 7.5t37 27.5q8 14 -15.5 27.5t-48.5 13.5t-36 -16.5z" />
<glyph unicode="&#xfb02;" horiz-adv-x="1132" d="M98 684q4 -29 24.5 -41t48.5 -17t56.5 -8.5t51.5 -11.5q-16 -188 -57.5 -362t-71.5 -348q-8 -12 -15.5 -49t-5.5 -68t17.5 -41t52.5 31q18 113 32.5 217t32 207.5t42 205t65.5 207.5q123 23 244.5 36t258.5 9q4 -10 13.5 -17t13.5 -18q-6 -86 -31.5 -167.5t-50 -163.5 t-36 -167t11.5 -177q76 -18 148.5 16.5t137.5 85.5q-10 37 -37.5 33t-61.5 -18.5t-68.5 -23.5t-59.5 21q59 238 114.5 476.5t125.5 474.5q2 14 11 44.5t11 59.5t-12 47.5t-57 7.5q-25 -55 -38.5 -114.5t-24.5 -119t-25.5 -118.5t-38.5 -115q-53 8 -115 4t-127.5 -11 t-135 -11t-136.5 4q-18 33 -13.5 75t18 85t28 85t14.5 77q20 23 33.5 52t28.5 58t37.5 50.5t59.5 25.5q27 -23 50.5 -49.5t29.5 -57.5q25 10 31 22.5t2 39.5q-12 70 -51 96.5t-85 21.5t-88.5 -38t-62.5 -80q-39 -35 -54 -89t-23.5 -115.5t-17.5 -120t-33.5 -98.5t-74 -54.5 t-137.5 14.5z" />
</font>
</defs>
</svg>
