<?xml version="1.0" standalone="no"?>
<!DOCTYPE svg PUBLIC "-//W3C//DTD SVG 1.1//EN" "http://www.w3.org/Graphics/SVG/1.1/DTD/svg11.dtd" >
<svg xmlns="http://www.w3.org/2000/svg">
<metadata></metadata>
<defs>
<font id="disney_heroicregular" horiz-adv-x="1740" >
<font-face units-per-em="2048" ascent="1638" descent="-410" />
<missing-glyph horiz-adv-x="614" />
<glyph horiz-adv-x="2048" />
<glyph horiz-adv-x="2048" />
<glyph unicode="&#xd;" horiz-adv-x="614" />
<glyph unicode=" "  horiz-adv-x="614" />
<glyph unicode="&#x09;" horiz-adv-x="614" />
<glyph unicode="&#xa0;" horiz-adv-x="614" />
<glyph unicode="!" horiz-adv-x="608" d="M29 180q-12 25 22 29l17 -8q59 0 129 18q39 -8 59 -24q8 -10 4 -27q-4 -12 -6 -25v-82q-2 -47 -31 -67q-35 -4 -61 -4q-88 0 -99 37q-14 57 -34 153zM29 1628q6 31 20 31q23 -2 29 8q4 2 51 37q20 33 64.5 49t64.5 37q21 10 31 12q23 -4 22 -57q0 -18 -4 -62.5t-2 -60.5 q-6 -80 -29 -131q-6 -29 -18 -64q-18 -86 10 -110q14 -16 15 -45q0 -16 -7 -47q-8 -37 -10 -47q0 -55 -10 -168l-2 -70q-2 -80 -25 -291q-20 -180 -16 -289l-127 66q-4 117 -23 330q-4 90 0 260q-4 27 0 37l3 65q-12 8 -33 84q4 86 8 199q6 16 6 51q0 88 -4 119l-5 27 q-5 28 -9 30z" />
<glyph unicode="&#x22;" horiz-adv-x="1351" d="M0 1632q0 -43 4 -116l19 -68q4 -152 2 -207q-2 -8 20 -27q16 -14 35 -28q2 -6 14 -15l21 -18q14 -16 43 -41q35 -41 51 -51q14 0 41 -35q8 0 24.5 -14.5t26.5 -10.5l100 173q-43 37 -131 110l-10 6q-2 25 -10 51q-25 219 -19 297q-23 18 -36 21q-27 -2 -33 -8h-43 q-4 -2 -76 -15q-12 -4 -43 -4zM463 1653q2 -43 4 -117l18 -68q2 -74 2 -206q0 -8 19.5 -24.5t36.5 -31.5q2 -6 14 -14l21 -18q16 -16 43 -41q35 -41 51 -52q14 0 41 -34q8 -2 25.5 -15.5t25.5 -9.5l100 172q-43 37 -131 111l-10 6q-2 25 -10 51q-23 219 -19 297 q-23 16 -37 20q-26 -2 -32 -8h-43q-4 -4 -76 -14q-12 -4 -43 -4z" />
<glyph unicode="#" horiz-adv-x="1925" d="M18 1155q0 39 50 82q33 0 154.5 -3t152.5 -3q0 51 18 186q14 123 13 187q-10 41 67 41q100 0 100 -39q-10 -137 -26 -369q152 0 508 25l45 335q10 0 74.5 18.5t91.5 18.5q18 0 24 -6l-20 -336l358 2q35 0 35 -34q0 -29 -23.5 -80.5t-23.5 -49.5q-49 -16 -180 -28 q-119 -12 -179 -10q-6 -37 -8 -173.5t-8 -170.5q39 -2 146.5 5t156.5 7q43 0 72 -4q-16 -53 -31 -135q-2 -39 -6 -78q-31 -4 -133 -11q-135 -6 -205 5q-20 -74 -20 -164q0 -76 24 -244q6 -2 6 -4q0 -12 -73 -12q-121 -1 -129 24q-10 35 -11 90q0 45 10.5 139.5t10.5 129.5 q0 33 -6 53l-459 -12q-4 -23 -4 -48q0 -43 19.5 -135t19.5 -137q0 -43 -15 -78q-10 -10 -67 -10q-117 0 -117 33q0 6 2 10l-26 377q-104 -12 -175 -12q-80 0 -81 18q-10 8 -28 77.5t-13 82.5q23 0 100.5 -13.5t112.5 -13.5q18 0 30 2q20 84 35 334q-59 0 -194 20 q-125 20 -125 21q-49 55 -50 90zM547 1047q0 -84 4 -148q10 -153 33 -184q14 -20 106 -21q182 0 354 39q27 156 27 248q0 76 -17.5 88t-86.5 12q-135 0 -420 -34z" />
<glyph unicode="$" horiz-adv-x="974" d="M0 475q0 10 2 23q53 137 115 137q53 0 133 -143q53 -39 143 -130q66 -63 88 -63q16 0 29 23l100 323q-133 102 -264 207q-178 143 -231 231q-12 63 -9 150q4 94 27 139q27 37 43 88q4 20 57 35q27 16 101 47q-2 205 4 201q31 0 63 2q59 -2 62 -31q0 -53 6 -160 q113 -47 209 -114q76 -55 92 -56q-8 -59 -29 -110q-27 -68 -57 -68q-37 0 -74 88q-63 63 -129 125l-190 -112q-39 -57 -39 -86q0 -16 30.5 -60.5t39.5 -107.5q25 -72 233.5 -203t220.5 -174q4 -12 4 -31q0 -102 -98 -317q-2 -80 -172 -185l-12 -131h-148l-6 172 q4 25 -73.5 96.5t-104.5 71.5q-4 0 -4 -2q-18 -8 -39 -8q-47 0 -85 41t-38 92z" />
<glyph unicode="%" horiz-adv-x="1519" d="M18 1167q0 162 64 295q74 154 194 154q14 0 29 -2q256 -57 256 -426q0 -141 -61 -268q-78 -162 -217 -162q-39 0 -94.5 36.5t-69.5 36.5q-35 2 -68 117t-33 219zM109 1161q0 -96 65 -180q55 -74 92 -74q6 0 8 6q68 -12 127.5 86.5t59.5 214.5q0 207 -187 230 q-166 -131 -165 -283zM324 33v57q16 84 32 166q29 143 105 274.5t90 231.5q20 131 33 164q23 57 157 430q76 209 115 280q33 14 51 15q27 0 39 -29l17 -123q2 6 2 -61q0 -47 -33 -71t-109 -230q-57 -164 -114 -330q-66 -199 -134 -397q-90 -262 -137 -338q-66 -78 -92 -78 q-18 0 -22 39zM664 412q0 168 108 321q103 144 195 144q23 0 59.5 -23t73.5 -23q51 -2 87 -117.5t36 -260.5q0 -143 -62 -271q-80 -162 -219 -162q-279 131 -278 392zM799 430q0 -104 35 -170q41 -72 114 -67q170 12 170 225q0 94 -37 185t-88 122q-80 49 -139 -57 q-55 -96 -55 -238z" />
<glyph unicode="&#x26;" horiz-adv-x="974" d="M6 526q-2 31 14 52q6 43 60 90q68 59 82 82q66 74 166 163q-27 31 -84.5 91.5t-83.5 91.5q-6 2 -31 26q-18 18 -33.5 21.5t-15.5 11.5q0 6 11 21.5t11 23.5q41 45 152 141q98 88 143 148q-6 8 -4 55v49q0 43 2 103q-6 31 2 37q51 33 92 22q16 6 35 4q23 -4 23 -18 q0 -6 -4 -12q2 -78 -15 -226q25 -12 74 -51t84 -49q51 -37 82 -51q16 6 29 -19q-12 -27 -49 -61q-43 -41 -56 -60l-16 2q-45 39 -92 80q-55 45 -99 68q-29 -25 -82 -97.5t-96 -99.5q96 -76 205 -178q14 -2 56 -37t44 -55q-8 -25 -34 -64q-8 2 -17 7q-10 4 -16 -7 q-14 -16 -42 -26t-39 -22.5t-39 -23.5t-38 -24q-100 -63 -192 -172q14 -33 61 -55q55 -53 80 -74q49 -39 92 -51q8 12 118.5 61.5t131.5 49.5l14 6q8 0 17 4q10 -2 20 -5t10 -16q4 -49 35 -157q0 -20 -12 -24l-12 -5q-41 -10 -95 -25q-27 0 -77 -21.5t-74 -21.5l-15 -12 q-10 -86 -4 -133q8 -4 4 -29q4 -23 11 -47q2 -27 -11 -41q-20 -12 -68 -12t-67 -6q-18 8 -18 16q12 66 4 119q8 27 4 90l-2 37q-27 23 -66 35q-121 113 -135 119q-31 35 -96 104q-2 0 -13.5 3t-16.5 8t-7 16z" />
<glyph unicode="'" horiz-adv-x="684" d="M-29 1171q43 37 131 109l11 6q2 16 10 51q25 219 18 299q27 31 119 31q115 0 113 -29l-23 -192q2 -29 0 -105q-2 -74 -2 -104q0 -6 -55 -55q-4 -12 -14 -13l-21 -20q-14 -16 -43 -39q-16 -20 -51 -53q-14 2 -41 -33q-8 -2 -25.5 -16.5t-25.5 -10.5z" />
<glyph unicode="(" horiz-adv-x="802" d="M-10 805q0 -133 51 -268q35 -94 96 -187q31 -45 62 -88q25 -39 73 -92q14 -12 80 -104q51 -72 144 -132q43 -4 43 64q0 29 -9.5 83t-9.5 64q-100 51 -201 205q-131 201 -133 432q-4 302 211 607q25 14 160 249h-96q-72 -49 -303 -360q-168 -227 -168 -473zM397 1389z" />
<glyph unicode=")" horiz-adv-x="714" d="M8 1556q360 -420 361 -815q0 -285 -174 -489q-27 -12 -164 -246l96 -2q406 387 405 799q0 313 -229 651q-14 92 -63.5 148.5t-104.5 48.5l-98 -6z" />
<glyph unicode="*" horiz-adv-x="743" d="M2 1206q0 16 33 47q-12 2 69 2q68 0 125 -30q-35 33 -77 104q-39 66 -48 72q-6 27 28 58.5t63 29.5q96 -193 98 -195l16 54q16 43 43 47q18 2 45 34.5t45 32.5q27 0 64 -49q4 -12 4 -22q0 -41 -74 -99q-53 -41 -106 -80q10 2 90 33q72 29 115 29q33 0 57 -14q2 -16 2 -29 q0 -96 -105 -96q-31 0 -75 10l-37 8q57 -78 133 -178l-68 -70q-35 39 -59 72q-61 84 -82 153q-27 -84 -59 -208q-20 4 -80 6q-45 0 -39 65l80 160q-102 -10 -174 6q-27 29 -27 47z" />
<glyph unicode="+" horiz-adv-x="1021" d="M-14 831q0 39 37 78q16 20 47 21q29 0 57 -15q14 -6 74.5 15.5t79.5 21.5q10 70 12 199q-2 12 11 33.5t13 32.5l111 22q0 -12 7 -99t7 -126q0 -51 -10 -58q-20 -16 320 -43q25 -76 24 -106q0 -41 -31 -41q-12 0 -37.5 4t-39.5 4q-45 0 -133.5 -9t-104.5 -9q0 6 2 -99 q2 -61 -4 -61t-8 -74q-2 -84 -2 -92h-107q6 31 -16 109q-23 88 -23 141q0 39 9 76l-101 12q-37 -8 -117 -18q-16 -6 -46.5 19.5t-30.5 61.5z" />
<glyph unicode="," horiz-adv-x="538" d="M-35 59q0 57 72 125q-10 -12 -21 -24q66 53 117 53q23 0 43 -10q-6 -4 46 -98.5t44 -104.5q-4 -49 -63 -154q-43 -72 -86 -145q-35 -14 -54 -14q-18 0 -32.5 19.5t-30.5 39.5q0 72 22.5 128t51.5 56l-74 70q-8 -4 -21.5 13.5t-13.5 45.5z" />
<glyph unicode="-" horiz-adv-x="1214" d="M6 778q0 12 4 64q2 39 0 61q78 -2 238 8q41 -25 137 -8q72 14 170 17q61 2 178 2q121 -2 172 -2q10 -12 62 0q41 10 41 -48q12 -98 -52 -98q-14 0 -43.5 5t-44.5 5q-25 0 -39 -14q-57 -20 -131 -20q-51 0 -151.5 14t-149.5 14q-133 0 -223 -80q-18 10 -37 11 q-10 0 -30.5 -3.5t-32.5 -3.5q-27 0 -58 13q-10 27 -10 63z" />
<glyph unicode="." horiz-adv-x="571" d="M41 43q2 41 2 47h-2q-2 23 8 57q-14 45 4 64q8 6 21 6q4 0 67 -29l84 -14q4 4 17 -39q2 -39 4 -76q-2 -82 -29 -77q-8 8 -39 4q-23 12 -63 10q-47 -2 -64 2q-12 14 -10 45z" />
<glyph unicode="/" horiz-adv-x="669" d="M-12 6q0 31 22.5 95.5t22.5 82.5q14 109 139 633q111 477 129 737q-10 29 57.5 121t94.5 86q16 -78 16 -170q0 -115 -29 -255l-28 -140q0 -8 6 -6q-8 -49 -82 -268q-66 -190 -66 -328q0 -78 19 -156l-121 -409q6 4 10 4q20 0 -14.5 -45t-89.5 -45q-35 0 -74 22 q-12 14 -12 41z" />
<glyph unicode="0" horiz-adv-x="1792" d="M0 872q0 211 113 345q78 84 243 245q39 14 154 103q94 74 158 73q51 0 102 -41l197 31q186 -82 192 -84q104 -53 166 -125q2 -2 66 -26q39 -14 41 -45q-8 -29 16 -72q18 -35 39 -72q-14 -51 -14 -112q0 -59 18 -179t18 -178q0 -139 -77 -235q-90 -84 -160 -240 q-158 -176 -486 -260q-207 -6 -399 131q-154 109 -276 289q-111 233 -111 452zM199 838q0 -33 10 -98.5t10 -98.5q137 -377 471 -434q29 -8 58 -8q61 0 137 45q61 37 125 75l182 132q125 219 125 467q0 174 -70 309q-25 41 -51 82q-35 45 -88 41q-66 43 -131 88 q-84 47 -156 47q-41 0 -82 -15l2 -18l-309 -195q-70 -90 -96 -133q-49 -74 -72 -141q-66 -55 -65 -145z" />
<glyph unicode="1" horiz-adv-x="667" d="M8 1561q0 61 70 77q31 18 74 19q23 0 65.5 -6t61.5 -6q16 0 30 2q-4 -125 10 -387q-33 -66 -10 -226q20 -158 23 -418q-2 -215 -2 -430q-18 -16 -4 -100q12 -66 -56 -66q-23 -2 -39 -2q-82 0 -81 86q0 20 6 70.5t6 73.5q0 43 -17 65q-31 111 -30 262q0 63 7 191.5 t7 191.5q0 270 -111 437q6 18 7 41q0 23 -8.5 64.5t-8.5 60.5z" />
<glyph unicode="2" horiz-adv-x="1228" d="M0 1212q41 59 162 156q113 90 151 162q4 2 78 67q45 41 88 41q92 2 172 -108q100 -137 152 -164q33 -63 65 -127q39 -80 39 -133q0 -70 -63 -121q-66 -141 -228 -377q-182 -260 -241 -372l20 -19q57 -16 121 -16q63 0 181 23.5t177 23.5q80 0 148 -31v-190 q-37 0 -106.5 -9.5t-104.5 -9.5q-68 0 -123 27q-43 4 -88 4q-84 0 -215 -16q-156 -18 -209 -23q-31 74 -31 135q0 35 11 64q154 248 479 733q20 61 39 121q25 80 24 129q0 96 -82 147q-20 12 -69 62q-37 37 -76 47q-156 -152 -285 -326q-27 -23 -51 -47q-31 -29 -63 -25 q-53 37 -72 172z" />
<glyph unicode="3" horiz-adv-x="995" d="M31 1561q8 18 18 38q12 31 35 39q270 -84 461 -282q145 -37 211 -142q-4 -80 -88 -155q-74 -63 -150 -127l19 -62q0 -2 194 -141q129 -94 129 -160q0 -68 -115 -123q-84 -43 -182 -135q-139 -129 -172 -153q-20 -16 -78 -88q-45 -53 -94 -70q-113 20 -127 86 q37 74 103 137q76 70 151 90q74 31 140.5 134.5t131.5 140.5q-39 84 -153 151q-100 53 -201 107q-55 -12 -55 45q0 25 10 49q29 20 178 88q111 51 158 123l-27 55q-156 156 -497 355z" />
<glyph unicode="4" horiz-adv-x="1380" d="M-2 469q0 68 65 145q98 117 105 127q55 96 305 435q195 266 264 448q29 23 54 23q14 0 28 -9q49 -68 49 -149q0 -27 -6 -76q-6 -57 -8 -86q-2 -59 -2 -121q0 -135 14 -340q20 -256 23 -327l20 -15q16 -6 41 -6q23 0 74 8.5t74 8.5q74 0 82 -74q-14 -72 -119 -62 q-139 14 -172 -2q-10 -57 -8 -170.5t-9 -171.5q-14 -20 -55 -55q-117 12 -117 90q0 23 9 51l10 256q-57 0 -172 8.5t-172 8.5q-111 0 -197 -23q-137 0 -180 78zM223 563q39 10 86 10q41 0 124 -10t126 -10q51 0 96 10q0 45 25 127t25 125q0 35 -13 68q-47 45 -47 102 q0 35 26.5 107.5t26.5 109.5q0 33 -14 62q-109 -135 -240 -344q-111 -178 -221 -357z" />
<glyph unicode="5" horiz-adv-x="1116" d="M4 49q33 86 182 176q113 109 228 215q123 135 141 254q-213 223 -405 209q-76 35 -76 101q0 18 6 54t6 54q0 47 -33 76q8 47 17.5 95t31.5 81q-2 8 -24 80q-16 51 -17 84q0 72 70 110q111 4 657 -16q39 0 66 -33q20 -29 41 -59q8 -37 -35 -57q-72 -33 -72 -35 q-90 43 -239 49q-133 2 -264 2q-37 -41 -45 -117q-2 -61 -4 -125q-4 -16 -5 -33q0 -55 60 -108q90 -78 100 -94q256 -98 256 -99q145 -59 246 -120q18 -20 18 -41q0 -37 -79.5 -98.5t-92.5 -102.5l-28 -98q-12 -25 -44 -40.5t-63 -29.5l-272 -242q-25 -51 -146 -133 q-16 -8 -36 -8t-146 49z" />
<glyph unicode="6" horiz-adv-x="1308" d="M4 588q53 170 260 442q225 293 285 434q25 23 69 92q39 61 76 82q43 -4 89 -10t73 -29q-33 -84 -160 -220t-159 -218q-27 -66 -185 -282q-125 -170 -125 -291q0 -23 4 -45q47 -29 97.5 -114t105.5 -112q51 -102 174 -143q145 190 146 318q0 57 -25 108q-23 74 -147 127 q-135 55 -170 121q2 25 26 53q33 39 37 45q16 18 39 19q14 0 42 -8.5t42 -8.5q90 -41 135 -151q70 -57 139 -117q74 -72 74 -141q0 -35 -16 -74q-68 -150 -271 -447q-27 -18 -55 -18q-39 0 -102 45q-70 51 -101 59q-209 184 -280 314q-72 72 -76 78q-39 47 -41 92z" />
<glyph unicode="7" horiz-adv-x="1062" d="M16 1530q0 45 62 88q51 20 123 20q37 0 116 -8q74 -6 111 -6q43 -8 92 -8q41 0 116 7t112 7q88 0 157 -33q-2 -55 -49 -124q-76 -111 -78 -117q-313 -616 -436 -1264q-16 -27 -36.5 -55.5t-53.5 -34.5q-92 -14 -168 86q-4 23 -4 45q0 78 63 189q74 129 86 180 q53 70 103 237q47 162 112 234q106 246 174 520l-32 18q-31 6 -64 7q-63 0 -181 -35t-177 -35q-72 0 -135 35q-12 25 -13 47z" />
<glyph unicode="8" horiz-adv-x="1144" d="M-10 424q-2 72 73 154q63 66 125 131q66 92 72 98q43 57 90 82q-104 70 -209 137q-117 84 -116 166q0 27 10 53q117 160 180 228q111 121 229 176q84 2 146 -39q39 -25 100.5 -95.5t102.5 -101.5q90 -86 98 -143q-53 -51 -146 -178q-84 -117 -153 -174q-4 -2 -8 -3 q-6 0 -14.5 5.5t-12.5 5.5q-6 0 -10 -8q315 -229 409 -429q-49 -104 -178 -225q-110 -101 -221 -201q-14 -4 -55 -30q-33 -23 -58 -23q-16 0 -34 10q-246 172 -248 175q-141 115 -172 229zM156 428q68 -61 135 -123q86 -70 160 -106q14 23 55 30q49 10 63 21l164 188 q-4 39 -43 84q-57 68 -63 76q-57 -2 -101 49q-37 43 -71 84l-27 -10q-145 -129 -152 -135q-86 -84 -120 -158zM231 1206q68 -125 230 -213q162 187 225 320q-18 14 -80 112q-45 74 -110 74q-16 0 -37 -6q-82 -45 -140 -131q-45 -78 -88 -156z" />
<glyph unicode="9" horiz-adv-x="1132" d="M4 1114q0 29 10 64q6 6 164 215q98 129 180 211q63 33 107 32q23 0 41 -6q27 -10 33 -39q8 -35 18 -45q109 -86 217 -172q123 -104 158 -205q10 -111 -58 -235q-18 -37 -139 -213q-87 -131 -112 -223l10 -9q-35 -82 -70 -165q-43 -96 -100 -154q-6 -72 -43 -119 q-43 -53 -109 -53q-92 0 -143 82q68 154 303 502q211 313 277 508l-11 8q23 20 23 47q0 20 -15 39q-37 27 -92 93t-88 89q-55 39 -123 35q-199 -119 -239 -295q33 -88 133 -164q94 -72 199 -96q14 -20 14 -41q0 -25 -25 -62q-29 -43 -35 -59q-16 -10 -47.5 -11t-60.5 -1 q-31 12 -49 53q-25 55 -33 66q-37 43 -125 105t-117 95q-53 57 -53 123z" />
<glyph unicode=":" horiz-adv-x="587" d="M35 932q0 16 22 22q53 6 107 7q43 14 69 6h11q6 0 10 -3t10 -1q2 -8 2 -19q0 -18 -11 -56t-11 -57q0 -33 30 -53q4 -18 -6 -39.5t-28 -21.5q-59 2 -86 -2q-6 -6 -11 -6q-6 0 -16 6t-14 4q-6 0 -21.5 -2t-21.5 -2q-10 2 -17 12q-16 23 -14 66q2 63 0 71q6 8 6 19 q0 8 -5 25.5t-5 23.5zM61 61q2 43 2 48h-2q-2 23 9 57q-14 45 4 63q8 8 20 9q4 0 68 -31l84 -14q4 4 16 -39q0 -6 3 -41t3 -54q0 -63 -30 -59q-6 10 -39 4q-23 12 -64 10q-47 -2 -63 2q-10 16 -11 45z" />
<glyph unicode=";" horiz-adv-x="684" d="M-6 -137q12 6 129 90l10 4q4 20 12 41q23 205 19 244q20 14 37 14q23 -2 32 -4q16 -2 41 0q-18 12 -26 12h-2q0 -14 104 -24q14 -4 43 -4q0 -35 -4 -97l-18 -53q-2 -59 0 -170q0 -6 -23 -20q-29 -20 -33 -25q-4 -10 -16 -10l-20 -17q-14 -14 -43 -32q-35 -33 -50 -41 q-16 0 -41 -29q-8 0 -25.5 -12.5t-25.5 -8.5zM158 934q0 18 22 24q53 6 107 7q43 14 71 6h11q6 0 10 -3t10 -1q2 -8 2 -19q0 -18 -11 -57t-11 -55q0 -35 30 -56q4 -18 -6 -39.5t-28 -21.5q-59 2 -89 -2q-6 -6 -10 -6t-14 6t-16 4q-6 0 -21.5 -2t-21.5 -2q-10 2 -17 12 q-16 23 -14 68q2 61 0 71q6 8 6 19q0 8 -5 24.5t-5 22.5z" />
<glyph unicode="&#x3c;" horiz-adv-x="1290" d="M-6 805q139 147 368 176q129 57 259 115q229 94 436 125q43 6 68.5 -19.5t21.5 -50.5q-68 -66 -215 -107q-190 -51 -270 -92q-29 -25 -177 -61q-158 -39 -223 -80q143 -37 457 -129q156 -53 459 -145q12 -47 -95 -107q-102 -6 -131 35q-524 125 -958 340z" />
<glyph unicode="=" horiz-adv-x="1261" d="M6 678q0 76 55 76q16 0 53.5 -8.5t53.5 -8.5q25 0 37 13q109 37 321 20q229 -16 338 10q37 -31 60 -30q6 0 15 3t13 3q18 0 49 -35q6 -18 7 -35q0 -84 -158 -98q-94 0 -186 -2q-76 -12 -185 -13q-59 0 -178 7q-127 4 -178 4q-16 -2 -44 -9.5t-38 -7.5q-33 0 -33 74 q-2 20 -2 37zM10 1024q0 14 6 66q2 39 0 61q78 -2 238 8q39 -27 137 -8q72 12 170 16q61 2 176 0q123 -2 174 0q10 -14 33 -14h12.5h10.5q43 0 43 -57q2 -119 -64 -119q-16 0 -56 9t-59 7q-63 -18 -151 -18q-37 0 -114 4t-120 4q-139 0 -253 -37q-8 4 -19 4q-18 0 -57 -17.5 t-56 -17.5q-31 0 -38 48q-12 25 -13 61z" />
<glyph unicode="&#x3e;" horiz-adv-x="1347" d="M8 528q-12 -45 96 -104q102 -6 129 35q526 125 961 340q-142 147 -369 176q-129 57 -258 115q-229 94 -436 124q-45 6 -69.5 -19.5t-20.5 -51.5q68 -63 215 -105q190 -51 270 -92q29 -25 176 -61q156 -39 224 -80q-143 -37 -459 -129q-156 -53 -459 -148z" />
<glyph unicode="?" horiz-adv-x="1083" d="M-37 1483l2 20q27 25 74 82q33 20 53 80q29 90 33 98q49 45 86 45q25 0 41 -16q10 -11 14 -23q14 4 21.5 -12t13.5 -16q16 -10 35 -45q125 -111 262 -238q39 -20 90 -72q43 -39 109 -96q6 8 14 2q4 -4 10 -8q8 -12 8 -37q-2 -33 0 -41q-16 -27 -53 -65q4 -4 -29.5 -40 t-58.5 -38l-16 -19q-55 -63 -166 -167q-6 -6 -57 -50q-37 -31 -54 -63q-10 0 -26 -27q0 -143 -9 -211l-38 -20q-6 -8 -13.5 -38t-23.5 -34q-8 2 -80 -20q-16 8 -17 67q-2 25 5 82q6 49 -3 82q0 133 -18 205q6 12 29 61q14 14 54 52t58 57q14 4 35 28.5t31 30.5q4 2 121 90 q4 2 12 13l41 35q-57 68 -115 137q-70 78 -125 123q-12 16 -26.5 35.5t-30.5 19.5h-8t-27 -4q-20 -4 -31 12q-4 -4 -84 -96q-61 -72 -71 -62zM137 68q2 43 2 47h-2q-2 23 8 57q-14 45 5 64q8 6 20 6q4 0 68 -29l84 -14q4 4 16 -39v-88q-4 -68 -25 -66q-6 10 -39 4 q-23 12 -63 10q-47 -2 -64 3q-10 16 -10 45z" />
<glyph unicode="@" horiz-adv-x="2191" d="M8 854q0 227 135 369q53 39 151.5 132t149.5 134q209 229 545 229q139 0 305 -39q84 -23 170 -43q160 -10 226 -75q27 -16 49 -80q20 -55 26 -105q66 -90 109 -221q39 -117 39 -199q0 -18 -2 -32q-25 -94 -82 -349q-59 -94 -216 -177t-265 -83q-23 0 -88 -22 q-49 -18 -60 -14q-27 12 -53 22q-37 20 -37 51q0 20 14 45q-59 -35 -157 -80q-127 -57 -160 -57q-86 0 -166 49q-45 27 -90 51q-49 39 -41 105q-61 90 -61 213q0 154 90 330q66 131 172 215q119 98 252 98q84 0 159.5 -44t149.5 -163l39 178q35 59 73 60q43 0 78 -60 q4 -53 -82 -329q-90 -287 -90 -418q0 -76 25 -123q139 -12 225 70q57 55 82 133q90 211 90 385q0 164 -80 301q-66 76 -102 102q-66 49 -133 47q-117 100 -314 101q-125 0 -256 -43q-135 -53 -428 -359q-68 -70 -94 -137q-80 -61 -80 -176q0 -27 4 -60q-12 -29 -12 -65 q0 -98 78 -250q57 -113 125 -203q131 -168 358 -202q59 -16 127 -17q61 0 166 17q113 18 156 20q483 219 573 219q27 0 27 -18q0 -23 -53.5 -86.5t-105.5 -126t-200 -109.5q-111 -35 -446 -112q-250 -4 -512 170q-209 137 -367 342q-135 252 -135 489zM616 799 q0 -18 5.5 -45t5.5 -41q0 -12 -4.5 -36t-4.5 -38q0 -86 54 -145q72 -76 223 -76q39 0 80 4q150 82 217 274q37 104 37 209q0 123 -60 205q-68 94 -184 94q-68 0 -129 -35q-240 -248 -240 -370z" />
<glyph unicode="A" horiz-adv-x="1492" d="M0 33q-1 9 -1 19q0 90 67 206q102 180 114 213q90 258 129 363q78 201 160 350q49 119 141 356q-1 7 -1 13q0 41 33 72q23 22 48 22q16 0 33 -9q51 -35 68 -118q25 -137 26 -142q37 -57 94 -213q51 -139 111 -209q47 -154 131 -376q70 -188 141 -377q37 -76 37 -117 q0 -49 -39 -76q-16 -10 -35 -10q-43 0 -77 41q-84 233 -250 698q-20 25 -64 25q-29 0 -59 -10q-43 -14 -98 -15q-20 0 -60.5 2t-60.5 2q-63 0 -109 -20q-78 -166 -225 -502q8 -20 8 -43q0 -31 -16 -74q-14 -35 -29 -71q-57 -8 -108 -8q-49 0 -109 8zM535 901q23 4 47 4 q37 0 114.5 -12t116.5 -12q27 0 49 4q-39 100 -80 200q-50 117 -116 172q-20 -43 -56 -178q-31 -117 -75 -178z" />
<glyph unicode="B" horiz-adv-x="1253" d="M0 0l10 379q25 10 25 33q0 12 -9.5 38.5t-9.5 38.5q6 94 7 199q0 106 -9.5 306t-9.5 300q0 184 23 342q10 2 22 2q27 0 72 -14q53 -18 72 -20q20 -10 102 -84q61 -55 117 -60q29 -25 215 -143q133 -84 176 -164q-2 -57 -94 -123q-117 -86 -134 -106q92 -29 194.5 -153 t188.5 -157q43 -29 43 -59q0 -37 -53 -66q-307 -160 -921 -489h-27zM172 1077q0 -109 12.5 -329t12.5 -328q0 -88 -4 -164l573 309v23q-57 47 -246 127q-33 47 -106 88q-61 31 -123 61q-2 6 -2 12q0 25 28 42q29 18 58 34q59 80 209 189q-66 35 -193 139q-121 98 -190 129 q-29 -143 -29 -332z" />
<glyph unicode="C" horiz-adv-x="1189" d="M-41 752q61 61 123 122q72 70 90 136q78 78 160 118q12 10 272 271q158 158 307 235q16 8 35 8q29 0 52.5 -22.5t27.5 -46.5q-39 -96 -176 -203q-172 -135 -217 -190q-20 -39 -99 -109t-96 -115q-53 -39 -108 -77q-57 -45 -82 -93q29 -102 151 -204q117 -82 234 -166 q121 -117 403 -299q-2 -62 -127 -111q-102 16 -116 76q-477 287 -834 670z" />
<glyph unicode="D" horiz-adv-x="1501" d="M0 0q8 262 16 526q10 307 35 521q4 31 4 65q0 63 -18.5 189t-18.5 192q0 63 13 119q79 26 99 26h1q27 0 47 -16q35 -53 119 -84q100 -39 129 -63q313 -94 408 -258q217 -137 495 -420q6 -12 6 -25q0 -27 -26 -50.5t-49 -43.5q-121 -84 -242 -170q-143 -100 -254 -139 q-51 -45 -168 -128t-170 -130q-82 -18 -166 -37q-98 -23 -141 -74h-119zM201 389q0 -90 26 -168l131 37l476 324q68 45 137 88q77 53 110 102q-68 57 -231 225q-137 139 -244 220q-188 55 -358 172q-20 -94 -21 -207q0 -182 49 -342q-2 -25 -21 -83.5t-19 -90.5 q0 -31 12 -58q-47 -98 -47 -219z" />
<glyph unicode="E" horiz-adv-x="1163" d="M0 1419l37 176q18 14 47 15q8 0 26.5 -2t26.5 -2q23 0 41 10q135 12 350 16q170 4 338 6q20 -20 21 -43q0 -8 -5 -28.5t-5 -32.5t4 -27l-447 -8q-23 -35 -104 -43q-90 -8 -117 -33q8 -135 8 -248.5t-8 -205.5q31 -4 63 -4q94 0 242 51q166 59 240 67q35 -16 35 -61 q-1 -33 -1 -50.5t1 -19.5q-84 -59 -269 -94q-203 -39 -274 -74q-20 -43 -21 -94q0 -35 13.5 -106.5t13.5 -106.5q0 -59 -29 -106q-8 -33 -8 -58q0 -88 150 -88h36.5h36.5q92 0 133 -22h19q113 0 330 -21q10 -31 12 -78v-79q-291 -2 -901 -25q-25 156 -25 352q0 111 11.5 336 t11.5 336q0 223 -33 395z" />
<glyph unicode="F" horiz-adv-x="1249" d="M-4 944q0 66 35 176q41 133 47 176q-55 37 -55 125q0 12 2 35v37q0 45 -13 74q119 41 301 47q156 4 312 6h15q40 0 112 8q94 10 133 10q129 0 174 -77q2 -31 -31.5 -54t-64.5 -43q-20 -6 -41 -6q-59 0 -177 72q-49 -4 -204 -33q-121 -20 -201 -20q-55 0 -111 8l-20 -17 q6 -55 6 -118q0 -168 -41 -408q121 12 285 57q139 39 278 80q106 -10 119 -55q-25 -74 -100 -102q-39 -16 -152 -31q-104 -12 -155 -37q-43 -4 -175 -45l-77 -16q12 -213 51 -517q23 -18 20 -45q-2 -39 0 -49q12 -20 14.5 -65t10.5 -62q-127 -47 -273 -55q-11 68 -11 152 q0 75 9 163q25 250 25 306q0 131 -35 243q-12 37 -12 80z" />
<glyph unicode="G" horiz-adv-x="1351" d="M-23 786q82 111 269 252q229 176 325 269q51 53 160 159q45 37 125 103q29 16 64 37q27 33 98 88h7q50 0 85 -56q53 -53 78 -96q-14 -51 -84 -84q-60 -26 -119 -53q-463 -287 -700 -508q-14 -23 -84 -123q262 -303 794 -569q14 61 15 129q0 59 -19 196q-17 109 -17 184 q0 15 1 29q-8 41 -17 85q-7 31 -7 58q0 12 1 23q59 12 105 12q53 0 88 -16q-39 -47 -39 -102q0 -41 29.5 -123t29.5 -123q0 -55 -37 -102q2 -72 66 -158q-31 -123 -37 -285q-35 -10 -65 -10q-66 0 -156 70q-96 76 -156 84q-61 45 -276 182q-170 109 -260 190 q-72 61 -144 123q-82 72 -123 135z" />
<glyph unicode="H" horiz-adv-x="1388" d="M0 1573q51 29 162 65q45 -8 57 -41q4 -11 4 -33q0 -15 -2 -34q-3 -26 -3 -44t3 -28l-16 -8q14 -8 14 -23q0 -14 -19.5 -41.5t-21.5 -39.5q14 -158 41 -459q8 -1 17 -1q76 0 202 46q140 51 217 51q25 14 91.5 25.5t89.5 25.5q35 20 35 58q0 7 -1 14q8 66 9 104 q0 135 -86 187q6 51 10 100q4 37 4 65q0 19 -2 33q39 18 110 18q44 0 101 -7q8 -16 9 -62.5t11 -70.5l-43 -97q10 -115 11 -266q0 -57 -2.5 -168t-2.5 -168q0 -315 50 -520q-4 -16 -5 -33q0 -27 14.5 -78t14.5 -77q0 -27 -10 -50q-51 6 -102 13q-59 10 -91 47q12 106 13 217 q0 119 -15 282q-14 141 -26 283h-16q-92 0 -203 -43q-178 -70 -201 -76q-35 -23 -96 -45q-84 -29 -101 -37q-14 -96 -14 -204q0 -47 6 -189q3 -82 3 -148q0 -33 -1 -61q-8 -12 -16 -55q-48 -8 -84 -8q-44 0 -72 12q-39 29 -39 96q0 27 6 56q53 242 54 532q0 186 -23 445 q-23 219 -45 440z" />
<glyph unicode="I" horiz-adv-x="518" d="M0 1597q0 37 68 41q18 -8 49 -8q12 0 36.5 2t36.5 2q55 0 76 -32q3 -25 3 -48q0 -101 -54 -155q35 -330 35 -584q0 -199 -21 -389l11 -356q-53 -70 -109 -70q-14 0 -31 4q-31 23 -30 57q-2 66 -2 70v73q0 119 4 296q6 262 6 368q0 430 -72 713q-6 8 -6 16z" />
<glyph unicode="J" horiz-adv-x="1159" d="M0 537q4 6 23 43q12 27 34 36q61 -18 123 -36q68 -29 74 -84q57 -37 170 -144q100 -96 174 -133l20 17q0 207 -18 600q-18 348 -18 552v39q-39 45 -39 105q0 29 10 57q27 49 111 49q33 0 86 -8q81 -37 81 -104q0 -18 -8 -35q-51 -43 -51 -143q0 -16 4 -68q2 -41 0 -63 l21 -236q55 -78 55 -150q0 -55 -37 -92q-8 -113 -16 -225q-5 -86 -5 -153q0 -33 1 -62q49 -68 49 -92q0 -18 -13.5 -36.5t-16.5 -72t-17 -71.5q-18 -27 -72 -27h-14q-10 23 -49 29q-55 8 -64 12q-94 45 -254 201q-141 137 -270 174q-43 35 -74 121z" />
<glyph unicode="K" horiz-adv-x="1341" d="M0 485q10 114 10 297q0 114 -4 254q-4 149 -4 267q0 165 8 268q25 0 43.5 33.5t40.5 33.5q12 0 27 -6l45 -45v-588l16 -14q88 63 291 252q174 162 305 238q20 12 90 88q51 57 103 57q25 0 53.5 -8t46.5 -49q2 -8 2 -16q0 -67 -104 -111h-12q-43 0 -60 -25q10 -4 10 -16 q0 -10 -10 -15q-2 -2 -293 -243q-178 -145 -311 -232q94 -61 231 -233q133 -164 244 -226q43 -61 155.5 -173.5t155.5 -174.5q-2 -27 -6 -51q-4 -31 -33 -43q-18 -4 -32 -4q-45 0 -72 55q-31 68 -59 82q-92 70 -225.5 236t-221.5 231q-6 12 -13 25.5t-24 13.5q-59 0 -119 53 q-45 45 -92 90q-30 -38 -30 -98q0 -22 3 -59t3 -56q0 -20 -2 -38q34 -152 34 -268v-7q0 -59 -8 -115q-4 -14 12.5 -40.5t16.5 -34.5q0 -16 -29 -25h-9q-40 0 -128 31q-14 63 -21.5 202.5t-23.5 206.5z" />
<glyph unicode="L" horiz-adv-x="1159" d="M18 1507q-2 4 23 54q20 8 86 49q46 30 80 30h2q23 0 47 -10q-10 -25 -10 -57q0 -16 3 -48t3 -48q0 -63 -45 -101v-27q-1 -149 19 -421q22 -296 22 -443q12 -47 14 -147q2 -113 12 -164l148 -12q88 -6 137 -31h16q43 0 111 8q92 10 129 11q88 0 146 -41q2 -10 2 -19 q0 -33 -39 -51q-68 -29 -70 -31q-66 1 -147 1q-244 0 -633 -9q10 55 10 121q0 78 -20.5 248t-20.5 258q0 113 23 204z" />
<glyph unicode="M" horiz-adv-x="2054" d="M18 18q0 53 37 142q45 104 54 145l108 477q63 289 84 490q16 27 16 71q0 31 -11 96.5t-11 92.5q0 98 122 98h15q2 -4 33 -55q20 -33 18 -59q86 -70 121 -236q39 -186 88 -244q41 -51 99 -205q49 -133 122 -194l41 -88q27 37 77 133t85 145q29 176 137 414q94 199 187 397 q27 0 74 -20q41 -17 67 -16h8q12 -23 13 -48q0 -31 -54 -127q82 -328 166 -653q100 -393 184 -653q2 -14 3 -27q0 -78 -72 -78h-5q-51 0 -87 37q-29 37 -58 76q-51 246 -104 492q-61 287 -148 477q-90 -176 -178 -353q-98 -207 -123 -362q-45 -41 -80.5 -136t-70.5 -132 q-6 -1 -11 -1q-41 0 -49 42q-6 35 -12 71q-137 242 -311 721l-131 168q-35 -88 -64 -237q-47 -248 -47 -250q-41 -109 -74 -312q-33 -211 -67 -309q-18 -8 -47 -8q-23 0 -72 8t-72 10z" />
<glyph unicode="N" horiz-adv-x="1402" d="M0 444q37 139 37 361q0 87 -6 188q-8 161 -8 284q0 172 16 269q19 1 37 1q109 0 141 -54q8 -78 78 -158q27 -31 137 -131q49 -123 189 -293q180 -225 217 -282q34 34 34 98q0 15 -2 43v39q0 53 17 88q0 23 5 71t5 72q0 82 -53 123q6 37 49 135q37 86 37 140q0 31 -10 59 q-31 16 -31 59v70q42 17 110 17q38 0 84 -5q16 -135 17 -178q0 -96 -35 -164l-2 -305q0 -152 -35 -463q-29 -279 -29 -427v-19q-59 31 -102 113q-35 68 -70 135q-49 74 -188 241q-127 150 -180 246q-55 20 -96 67.5t-50 98.5l-94 80l-18 -16l-8 -867q40 -24 40 -72 q0 -22 -8 -40q-20 -43 -84 -56l-110 -12l-21 23v19q0 41 6 110q6 94 7 135q0 92 -23 157z" />
<glyph unicode="O" horiz-adv-x="1705" d="M8 758q0 274 137 565q20 47 137 101.5t144 119.5q174 86 389 86q219 0 416 -88q170 -78 244 -235q51 -117 63 -320q18 -311 23 -330q-55 -217 -226 -395q-186 -197 -428 -250q-70 -14 -143 -14q-268 0 -549 201q-207 227 -207 559zM182 662q51 -51 88 -164 q41 -133 70 -172q57 -86 182 -111q113 -20 209 -20q170 0 287 65q-8 39 35 39h16q12 -2 18 -2q39 0 58 18q205 190 205 375q0 80 -39 154q14 41 30.5 85t18.5 81q16 31 16 63q0 51 -53 121l-86 113q-158 127 -342 127q-78 0 -147 -27q-25 6 -50 6q-47 0 -138 -27.5 t-140 -29.5q-139 -168 -215 -359q-2 -18 -2 -41.5t2 -54.5q6 -74 6 -98q0 -84 -29 -141z" />
<glyph unicode="P" horiz-adv-x="1005" d="M0 55q0 19 12 63q9 35 9 60q0 6 -1 12q14 31 21 82q6 41 12 84q4 0 29 19q-2 274 -2 549q-6 311 -53 546l4 168q57 0 153.5 -59t155.5 -61q35 -6 39 -51.5t24 -45.5q12 0 33 9q216 -111 443 -361q-195 -217 -621 -362q12 -39 12 -82q0 -53 -27.5 -154.5t-27.5 -151.5 q0 -59 27 -110q35 -4 34 -29q0 -10 -7 -32.5t-7 -32.5q-8 -10 -8 -43v-47q-2 -14 -8 -25q-27 6 -72 8q-31 0 -84 -2q-59 -2 -76 -2q-14 25 -14 51zM221 1327q0 -59 20.5 -169.5t20.5 -166.5q0 -61 -18 -117q223 41 422 191q-156 139 -185 164q-111 92 -202 141l-56 8 q-2 -25 -2 -51z" />
<glyph unicode="Q" horiz-adv-x="1548" d="M0 868q0 94 8 205q150 309 309 461q61 8 201 59q125 45 203 45q27 0 51 -4l258 -188q143 -121 144 -244q0 -35 -11 -69q29 -113 58 -224q33 -137 39 -237q-14 -16 -29.5 -36t-11.5 -40l-9 -2q-12 -39 -100 -141q-78 -90 -78 -142q0 -57 70 -106q47 -68 47 -117 q0 -10 -2 -18q-16 -4 -46 -37t-48 -33q-14 0 -31 14q-27 27 -54.5 96.5t-62.5 98.5q-25 29 -59 29q-27 0 -86.5 -20.5t-89.5 -20.5q-119 18 -238 39q-137 25 -213 104q-12 8 -80 18q-51 8 -63 41q-76 201 -76 469zM150 854q0 -295 145 -420q155 -110 367 -110h4q47 0 94 6 q-43 27 -82 86q-61 94 -66 100l115 115q35 -27 94.5 -94.5t96.5 -98.5q104 117 153 260q-2 14 7 48t9 49q0 35 -43 49q8 29 9 57q0 31 -10.5 84t-12.5 78l17 14q-4 12 -39 121q-25 74 -60 113q-153 175 -379 175q-19 0 -39 -1q-264 -113 -376 -463l-4 -170v2z" />
<glyph unicode="R" horiz-adv-x="1306" d="M0 41q10 27 10 65q0 10 -2 33v33q0 84 68 117q1 8 1 17q0 57 -22 155q-27 121 -26 174q0 90 47 156q-37 70 -37 197q0 50 6 108q10 96 10 168q0 97 -18 151q0 66 2 129q6 76 74 94q297 -80 450 -161q238 -129 297 -326q-55 -78 -174 -158q-102 -66 -205 -131v-47 q172 -246 682 -663q-6 -18 -15.5 -39t-29.5 -33q-20 2 -52 -12.5t-46 -14.5q-16 0 -31 10q-33 49 -123 119q-106 82 -137 115q-18 29 -35 55q-23 35 -57 39q-51 41 -123 140.5t-113 136.5q-74 66 -170 75q-2 -51 -2 -112q0 -76 6.5 -240t6.5 -248q0 -66 -2 -120 q-55 -31 -131 -31q-37 0 -72 8zM221 903q129 49 379 160l102 88q-72 174 -434 270q-45 -71 -44 -201q0 -25 1 -51q5 -87 5 -148q0 -82 -9 -118z" />
<glyph unicode="S" horiz-adv-x="974" d="M-100 8q-1 8 -1 16q0 111 156 220q233 106 348 338l-16 98q-106 80 -211 158q-129 96 -180 182q-1 6 -1 12q0 39 44 82q68 63 76 82q72 100 213 227q121 109 239 215q51 -16 144 -36q-21 -164 -138 -201h-24q-57 -82 -164 -201q-162 -178 -176 -196q233 -160 383 -414 q-2 -63 -92 -131q-104 -76 -121 -119q-47 -20 -78 -80q-37 -72 -59 -90q-66 -55 -129 -111q-80 -59 -156 -59q-29 0 -57 8z" />
<glyph unicode="T" horiz-adv-x="1386" d="M-115 1497q0 53 39 141q88 -10 391 -20q240 -6 357 -39q14 -1 31 -1q67 0 171 13q145 18 201 19q68 0 121 -15q20 -18 21 -45q0 -14 -10.5 -48t-10.5 -50q-31 -9 -85 -9q-47 0 -110 7q-40 3 -74 3q-74 0 -120 -15l-145 -11q-39 -57 -39 -137q0 -43 17 -135t17 -139 q0 -66 -24 -119q-8 -39 -8 -84q0 -51 19.5 -155.5t19.5 -159.5q0 -68 -23 -129q-6 -92 -12 -183q-10 -115 -56 -178q-8 2 -20 2t-39 -5t-41 -5q-27 0 -45 16q-9 53 -9 150q0 66 4 153t4 155q0 99 -9 157q2 53 18 194q12 127 13 201q0 150 -50 258q6 23 16.5 65t14.5 62 q-70 27 -168 27q2 0 -182 -11v11q-23 12 -42 12q-27 0 -46 -23v11q-10 -1 -22 -1q-30 0 -74 7q-10 23 -11 53z" />
<glyph unicode="U" horiz-adv-x="1478" d="M0 1112v13q0 133 37 438l162 34q8 -23 8 -51q0 -31 -17 -104q-11 -51 -11 -83q0 -9 1 -16q12 -109 35 -520q16 -330 57 -520q63 -106 256 -115q68 6 137.5 13.5t100.5 52.5q39 43 141 221q18 121 19 281q0 78 -6.5 235.5t-6.5 235.5q0 76 5 139q6 14 6 29q0 29 -38 69.5 t-38 65.5q0 16 12 33q-8 16 -8 26q0 27 39 37q4 2 74 12h28q103 0 189 -26q0 -131 -54 -410q-42 -220 -42 -351q0 -21 1 -40q1 -15 1 -32q0 -93 -29 -222q-43 -180 -47 -246q-35 -35 -77 -115.5t-73 -111.5q-51 -51 -135 -59q-80 -25 -180 -25q-137 0 -264 43 q-147 80 -207 213q-45 104 -45 270q0 53 5 160t5 160q0 162 -41 266z" />
<glyph unicode="V" horiz-adv-x="1507" d="M0 1610q24 28 71 28h3q25 0 69 -8q55 -12 68 -14q8 -102 104 -295q90 -188 97 -301q29 -117 94 -285l106 -278q76 68 97 184q8 102 18 207q16 119 86 188q66 47 94 156q31 125 70 168q8 197 162 256h10q68 0 104 -74q-6 -37 -55 -92t-59 -82q-129 -342 -258 -686 q-152 -399 -271 -682q-55 6 -75 47q-12 23 -18.5 83t-18.5 85q-145 653 -355 1128q-80 2 -106 52q-16 31 -18.5 107.5t-18.5 107.5z" />
<glyph unicode="W" horiz-adv-x="2062" d="M0 1544q25 31 74 43q41 10 84 19q59 -25 75 -80q8 -25 13 -105q2 -66 22 -98q68 -106 103 -272q27 -147 53 -293q31 -53 68 -160q47 -129 61 -162q16 23 88 187q10 55 76 184q57 117 57 186q0 57 -31 113q-8 12 -147 223q-90 133 -119 234q92 57 197 75q57 -70 104 -213 q53 -162 92 -221q31 51 93 187q53 121 96 182q13 3 32 3q25 0 58 -5q82 -10 88 -10q-20 -29 -78 -146q-45 -90 -92 -135q-27 -31 -50.5 -112t-58.5 -115q23 -127 70 -318q68 -276 76 -313q68 61 103.5 194.5t95.5 190.5q31 61 73 235q39 152 92 230q8 12 80 166 q47 100 121 145l150 -20l-64 -99q4 -18 4 -37q0 -98 -112 -192q-78 -260 -224 -418q-6 -80 -69 -227q-74 -166 -88 -240q-33 -55 -75 -174t-77 -176q-74 0 -94 51q-10 27 -10 113q-2 78 -23 108q-31 14 -33 56q2 29 2 57q-6 23 -65 186q-37 99 -37 173v14 q-119 -242 -356 -729q-59 139 -158 536q-86 348 -188 531q-45 109 -91 219q-49 127 -61 229z" />
<glyph unicode="X" horiz-adv-x="1366" d="M0 86q16 90 123 209q72 12 106 88q47 102 66 121q16 45 115 164q82 98 82 166q0 35 -19 69q-66 59 -121 170q-84 172 -90 180q2 41 -40 72t-83 57q0 39 -19.5 110t-19.5 101q20 0 66.5 7.5t69.5 7.5q66 0 86 -54q-4 -20 25.5 -52t29.5 -46q0 -16 -19 -33l213 -385 q78 106 187 299q129 221 180 301q168 0 178 -2q-321 -431 -454 -802q172 -344 296 -664q57 -18 76 -59q8 -18 21 -86l-17 -23l-161 -2q-55 51 -101.5 176t-93.5 172q27 18 27 49q0 12 -13 56q-29 39 -63.5 124t-61.5 123q-49 -90 -96 -182q-55 -109 -74 -188 q-82 -96 -96 -113q-49 -66 -67 -127q-23 -45 -68 -45q-25 0 -83 20.5t-87 20.5z" />
<glyph unicode="Y" horiz-adv-x="1378" d="M0 1516q10 42 10 75q0 21 -4 39q20 8 47 8q12 0 72 -6q23 -3 42 -3t34 3q104 -84 198 -243q123 -211 162 -259q14 -51 17 -51q10 -29 32 -45q68 113 156 283q74 145 147 289q32 28 111 28h6q6 0 117 -8q-6 -57 -12 -115q-12 -58 -73 -58q-7 0 -15 1q-80 -63 -132 -190 q-68 -166 -92 -203q-127 -264 -256 -529q-143 -303 -239 -532l-197 4q-10 35 -10 66q0 102 147 239q156 141 166 244q6 47 58 154q47 98 47 151q0 74 -69 134.5t-148 178.5q-100 154 -129 191q-84 102 -193 154z" />
<glyph unicode="Z" horiz-adv-x="1525" d="M-57 51q74 113 258 445q160 283 274 444q70 51 152 186q88 145 149 203l39 105q-31 10 -80 10q-20 0 -63 -2t-64 -2q-45 0 -76 6q-28 24 -75 24h-4q-37 0 -70 -10q-66 -49 -184 -67q-100 -8 -199 -19l-18 19q6 14 6 34q0 23 -13.5 72t-13.5 74q0 16 4 29q18 12 77.5 19 t84.5 17q109 -23 307 -26q301 -4 326 -6l49 20q29 2 59 2q111 0 295 -39q-39 -76 -78 -151q-47 -88 -116 -123q-397 -569 -563 -864q-12 -51 -66 -125q-63 -88 -78 -121q463 -27 506 -27q240 0 428 51l111 -6q-8 -61 -35 -184h-14q-42 1 -109 -9q-78 -12 -111 -12 q-61 0 -110 23q-72 -2 -266 -14q-182 -12 -285 -13q-123 0 -221 15q-20 -20 -68 -23q-61 -2 -74 -6z" />
<glyph unicode="[" horiz-adv-x="716" d="M43 864q53 555 45 813l477 45l2 -104l-69 -78l-222 25q-16 -453 -8 -523l37 -305q4 -33 4 -65q0 -78 -25.5 -192.5t-23.5 -151.5q57 -123 57 -197q0 -61 -36 -76q209 -16 311 33l-17 -209q-84 -16 -176 -16q-55 0 -311 33q25 131 25 303q0 86 -9 272q-8 176 -8 270 q0 20 -6 31q-20 31 -47 92z" />
<glyph unicode="\" horiz-adv-x="669" d="M-12 6q0 31 22.5 95.5t22.5 82.5q14 109 139 633q111 477 129 737q-10 29 57.5 121t94.5 86q16 -78 16 -170q0 -115 -29 -255l-28 -140q0 -8 6 -6q-8 -49 -82 -268q-66 -190 -66 -328q0 -78 19 -156l-121 -409q6 4 10 4q20 0 -14.5 -45t-89.5 -45q-35 0 -74 22 q-12 14 -12 41z" />
<glyph unicode="]" horiz-adv-x="759" d="M51 -43q0 -53 47 -82q55 -8 140 -8q143 0 348 27q20 96 20 454q0 221 -10 686q-10 485 -10 639l-477 47l-3 -106l70 -76h264q2 -82 -18 -233q-20 -160 -21 -211q0 -31 5 -56l47 -313q8 -53 8 -180q0 41 -15 -484q-141 27 -215 27q-88 0 -147 -27q-33 -59 -33 -104z" />
<glyph unicode="^" horiz-adv-x="1052" d="M10 717q0 8 2 16q98 375 148 438q-2 53 41 127q31 47 59 97q16 10 41 82q18 59 82 77q131 -90 272 -399q98 -223 195 -444q-4 10 -33 -6q-37 -20 -63 -21q-35 0 -70 33q-49 133 -98 268q-117 291 -191 381q-27 -59 -47 -154q-45 -70 -51 -102l-8 -98q-10 -20 -66 -150 q-39 -88 -104 -164l-68 -12q-41 0 -41 31z" />
<glyph unicode="_" horiz-adv-x="1269" d="M-8 80q0 20 39 78q76 4 235 6q35 0 92 -6q49 -4 64 -4l270 22q31 2 60 2q98 0 141 -31q45 0 103 5l59 6q45 -39 45 -80q0 -39 -45 -64q-31 4 -181 6q-162 4 -206 -2l-248 -30q-4 -2 -23 -2q-129 0 -379 53q-27 18 -26 41z" />
<glyph unicode="`" horiz-adv-x="632" d="M2 1583q0 80 135 107l246 -230l-49 -71l-215 110q-66 -14 -111 57q-6 12 -6 27z" />
<glyph unicode="a" horiz-adv-x="1482" d="M-12 33v15q0 91 67 210q102 180 113 213q90 258 131 363q78 201 158 350q49 119 141 356q-1 7 -1 14q0 40 30 68q27 25 53 25q15 0 31 -9q51 -35 67 -118q27 -137 27 -142q39 -57 96 -213q49 -139 109 -209q47 -154 131 -376q72 -188 141 -377q39 -76 39 -117 q0 -49 -41 -76q-14 -10 -33 -10q-45 0 -80 41q-84 233 -249 698q-20 25 -64 25q-29 0 -59 -10q-41 -14 -97 -15q-23 0 -62.5 2t-57.5 2q-66 0 -111 -20q-78 -166 -225 -502q10 -20 10 -43q0 -31 -16 -74q-14 -35 -31 -71q-57 -8 -107 -8q-49 0 -110 8zM522 901q23 4 49 4 q35 0 113 -12t117 -12q27 0 49 4l-78 200q-51 117 -119 172q-20 -43 -55 -178q-31 -117 -76 -178z" />
<glyph unicode="b" horiz-adv-x="1234" d="M0 0l10 379q25 10 25 33q0 12 -9.5 38.5t-9.5 38.5q6 94 7 199q0 106 -9.5 306t-9.5 300q0 184 23 342q10 2 22 2q27 0 72 -14q53 -18 72 -20q20 -10 102 -84q61 -55 117 -60q29 -25 215 -143q133 -84 176 -164q-2 -57 -94 -123q-117 -86 -134 -106q92 -29 194.5 -153 t188.5 -157q43 -29 43 -59q0 -37 -53 -66q-307 -160 -921 -489h-27zM172 1081q0 -109 13.5 -329t13.5 -328q0 -88 -6 -164l573 309v23q-57 45 -246 127q-31 45 -104 88q-63 31 -125 61q-2 6 -2 12q0 24 28 42q29 16 58 34q61 78 209 189q-63 33 -193 139q-119 98 -190 129 q-29 -143 -29 -332z" />
<glyph unicode="c" horiz-adv-x="1214" d="M-121 745q61 61 125 123q70 72 88 136q78 78 160 118q12 10 274 273q156 156 305 233q16 8 35 8q31 0 53.5 -22.5t26.5 -46.5q-39 -94 -176 -203q-172 -135 -217 -190q-18 -39 -98 -109t-97 -115l-106 -78q-59 -45 -84 -92q29 -102 154 -202q115 -84 231 -168 q121 -117 403 -299q-2 -62 -127 -111q-102 16 -116 76q-477 287 -834 669z" />
<glyph unicode="d" horiz-adv-x="1531" d="M0 0q8 262 16 526q10 307 35 521q4 31 4 65q0 63 -18.5 189t-18.5 192q0 63 13 119q79 26 99 26h1q27 0 47 -16q35 -53 119 -84q100 -39 129 -63q313 -94 408 -258q217 -137 495 -420q6 -12 6 -25q0 -27 -26 -50.5t-49 -43.5q-121 -84 -242 -170q-143 -100 -254 -139 q-51 -45 -168 -128t-170 -130q-82 -18 -166 -37q-98 -23 -141 -74h-119zM201 389q0 -90 26 -168l131 37l476 324q68 45 137 88q77 53 110 102q-68 57 -231 225q-137 139 -244 220q-188 55 -358 172q-20 -94 -21 -207q0 -182 49 -342q-2 -25 -21 -83.5t-19 -90.5 q0 -31 12 -58q-47 -98 -47 -219z" />
<glyph unicode="e" horiz-adv-x="1136" d="M-14 1419l37 176q18 14 47 15q8 0 26.5 -2t26.5 -2q23 0 41 10q135 12 350 16q170 4 338 6q20 -20 20 -43q0 -8 -5 -28.5t-5 -32.5t4 -27l-446 -8q-23 -35 -105 -43q-90 -8 -116 -33q8 -135 8 -248.5t-8 -205.5q31 -4 63 -4q94 0 242 51q166 59 239 67q35 -16 35 -61 q-1 -33 -1 -50.5t1 -19.5q-84 -59 -268 -94q-203 -39 -274 -74q-20 -43 -21 -94q0 -35 13.5 -106.5t13.5 -106.5q0 -59 -29 -106q-8 -33 -8 -58q0 -88 149 -88h37h37q92 0 133 -22h19q113 0 329 -21q10 -31 13 -78v-79q-291 -2 -902 -25q-24 150 -24 337v15q0 111 11 336 t11 336q0 223 -32 395z" />
<glyph unicode="f" horiz-adv-x="1245" d="M-6 944q0 66 33 176q41 133 49 176q-55 37 -56 125v35q2 25 3 37q0 45 -13 74q117 41 299 47q156 4 314 6h14q39 0 111 8q94 10 135 10q127 0 174 -77q2 -31 -31.5 -54t-64.5 -43q-20 -6 -43 -6q-59 0 -175 72q-49 -4 -206 -33q-121 -20 -201 -20q-55 0 -109 8l-20 -17 q4 -55 4 -118q0 -168 -39 -408q119 12 283 57q139 39 280 80q104 -10 119 -55q-27 -74 -100 -102q-39 -16 -148.5 -29.5t-159.5 -38.5q-43 -4 -174 -45l-77 -16q12 -213 51 -517q23 -18 20 -45q-4 -39 0 -49q12 -20 14.5 -65t10.5 -62q-127 -47 -273 -55q-11 72 -11 161 q0 71 7 154q25 250 25 306q0 131 -33 243q-12 37 -12 80z" />
<glyph unicode="g" horiz-adv-x="1445" d="M-84 786q84 111 268 250q231 176 326 271q51 53 160 159q45 37 125 103q29 16 63 37q27 31 98 88h7q52 0 86 -56q55 -55 77 -96q-14 -53 -84 -86q-59 -24 -118 -51q-461 -287 -701 -508q-14 -23 -84 -123q262 -303 795 -569q16 59 16 129q0 57 -20 196q-17 124 -17 204v9 q-8 41 -16 80q-6 39 -6 71v15q59 11 105 11q53 0 87 -15q-36 -46 -36 -101q0 -44 28.5 -125t28.5 -122q0 -55 -37 -102q2 -74 66 -158q-31 -123 -37 -285q-35 -12 -66 -12q-63 0 -157.5 73.5t-153.5 82.5q-59 45 -275 182q-172 109 -262 190q-72 61 -143 123 q-82 72 -123 135z" />
<glyph unicode="h" horiz-adv-x="1290" d="M-18 1573q51 29 161 65q45 -8 58 -41q4 -11 4 -33q0 -15 -2 -34q-3 -26 -3 -44t3 -28l-17 -8q14 -8 15 -23q0 -14 -19.5 -41.5t-21.5 -39.5q14 -158 41 -459q8 -1 17 -1q76 0 201 46q140 51 218 51q25 14 91.5 25.5t88.5 25.5q36 20 36 60q0 6 -1 12q8 66 8 104 q0 135 -86 187q6 51 10 100q4 37 4 65q0 19 -2 33q39 18 110 18q44 0 101 -7q8 -16 9.5 -62.5t11.5 -70.5l-43 -97q10 -115 10 -266q0 -57 -2 -168t-2 -168q0 -315 49 -520q-4 -16 -4 -33q0 -27 14.5 -78t14.5 -77q0 -27 -11 -50q-51 6 -102 13q-59 10 -90 47q12 106 12 217 q0 119 -14 282q-14 141 -27 283h-16q-92 0 -203 -43q-178 -70 -201 -76q-35 -23 -96 -45q-84 -29 -100 -37q-14 -96 -14 -204q0 -47 6 -189q3 -82 3 -148q0 -33 -1 -61q-8 -12 -17 -55q-48 -8 -84 -8q-44 0 -71 12q-39 29 -39 96q0 27 6 56q53 242 53 532q0 186 -22 445 q-23 219 -45 440z" />
<glyph unicode="i" horiz-adv-x="565" d="M49 1597q0 37 68 41q18 -8 49 -8q12 0 36.5 2t37.5 2q55 0 75 -32q3 -25 3 -48q0 -101 -54 -155q35 -330 35 -584q0 -199 -20 -389l10 -356q-53 -70 -109 -70q-14 0 -30 4q-31 23 -31 57q-2 66 -2 70q-1 33 -1 73q0 119 5 296q6 262 6 368q0 430 -72 713q-6 8 -6 16z" />
<glyph unicode="j" horiz-adv-x="1159" d="M0 537q4 6 23 43q12 27 34 36q61 -18 123 -36q68 -29 74 -84q57 -37 170 -144q100 -96 174 -133l20 17q0 207 -18 600q-18 348 -18 552v39q-39 45 -39 105q0 29 10 57q27 49 111 49q33 0 86 -8q81 -37 81 -104q0 -18 -8 -35q-51 -43 -51 -143q0 -16 4 -68q2 -41 0 -63 l21 -236q55 -78 55 -150q0 -55 -37 -92q-8 -113 -16 -225q-5 -86 -5 -153q0 -33 1 -62q49 -68 49 -92q0 -18 -13.5 -36.5t-16.5 -72t-17 -71.5q-18 -27 -72 -27h-14q-10 23 -49 29q-55 8 -64 12q-94 45 -254 201q-141 137 -270 174q-43 35 -74 121z" />
<glyph unicode="k" horiz-adv-x="1341" d="M0 485q10 114 10 297q0 114 -4 254q-4 149 -4 267q0 165 8 268q25 0 43.5 33.5t40.5 33.5q12 0 27 -6l45 -45v-588l16 -14q88 63 291 252q174 162 305 238q20 12 90 88q51 57 103 57q25 0 53.5 -8t46.5 -49q2 -8 2 -16q0 -67 -104 -111h-12q-43 0 -60 -25q10 -4 10 -16 q0 -10 -10 -15q-2 -2 -293 -243q-178 -145 -311 -232q94 -61 231 -233q133 -164 244 -226q43 -61 155.5 -173.5t155.5 -174.5q-2 -27 -6 -51q-4 -31 -33 -43q-18 -4 -32 -4q-45 0 -72 55q-31 68 -59 82q-92 70 -225.5 236t-221.5 231q-6 12 -13 25.5t-24 13.5q-59 0 -119 53 q-45 45 -92 90q-30 -38 -30 -98q0 -22 3 -59t3 -56q0 -20 -2 -38q34 -152 34 -268v-7q0 -59 -8 -115q-4 -14 12.5 -40.5t16.5 -34.5q0 -16 -29 -25h-9q-40 0 -128 31q-14 63 -21.5 202.5t-23.5 206.5z" />
<glyph unicode="l" horiz-adv-x="1159" d="M0 1540q12 6 104 59q66 39 109 39q23 0 43 -8q-10 -25 -10 -57q0 -16 3 -48t3 -48q0 -63 -45 -101v-27q-1 -149 19 -421q22 -296 22 -443q12 -47 14 -147q2 -113 12 -164l148 -12q88 -6 137 -31h16q43 0 111 8q92 10 129 11q88 0 146 -41q2 -10 2 -19q0 -33 -39 -51 q-68 -29 -70 -31q-66 1 -147 1q-244 0 -633 -9q10 55 10 121q0 78 -20.5 248t-20.5 258q0 113 23 204l-48 676q-8 7 -15 15q-4 5 -4 11q0 3 1 7z" />
<glyph unicode="m" horiz-adv-x="2181" d="M-8 18q0 53 37 142q45 104 53 145l108 479q63 287 84 488q16 29 17 74q0 31 -11.5 95t-11.5 91q0 99 119 99q9 0 19 -1q2 -4 32 -53q20 -33 19 -61q86 -68 121 -236q39 -184 88 -244q41 -51 98 -202q49 -135 123 -197l41 -88q27 39 77 135t85 143q29 176 137 414 q94 199 186 397q27 0 74 -20q41 -17 68 -16h8q12 -20 12 -46q0 -31 -53 -129q82 -326 166 -653q100 -393 184 -653q2 -12 2 -25q0 -78 -72 -80h-5q-51 0 -87 37q-29 39 -57 76q-51 246 -105 492q-61 287 -147 477q-90 -176 -178 -353q-98 -207 -123 -362q-45 -41 -80 -133 q-37 -98 -72 -135h-8q-44 0 -51 41q-6 37 -12 71q-137 242 -312 721l-131 168q-35 -88 -63 -237q-47 -248 -47 -250q-41 -106 -74 -310q-33 -211 -68 -311q-18 -8 -47 -8q-23 0 -72 9t-71 9z" />
<glyph unicode="n" horiz-adv-x="1392" d="M-10 444q36 137 36 355q0 90 -6 194q-8 158 -8 279q0 176 17 274q19 1 37 1q109 0 141 -54q8 -78 78 -158q27 -31 137 -131q49 -123 188 -293q180 -225 217 -282q35 35 35 102q0 12 -2 39v39q0 53 17 88q0 23 5 71t5 72q0 82 -53 123q6 37 49 135q37 86 37 140 q0 31 -11 59q-30 16 -30 56v73q42 17 110 17q38 0 84 -5q16 -135 17 -178q0 -96 -35 -164l-2 -305q0 -152 -35 -463q-29 -279 -29 -427v-19q-59 31 -102 113q-35 68 -70 135q-49 74 -188 241q-127 150 -180 246q-55 20 -96.5 67.5t-49.5 98.5l-94 80l-19 -16l-8 -867 q41 -25 41 -74q0 -20 -8 -38q-20 -43 -84 -56q-55 -6 -111 -12l-20 23v19q0 41 6 110q6 94 6 135q0 92 -22 157z" />
<glyph unicode="o" horiz-adv-x="1708" d="M-29 772q0 276 138 567q20 47 136.5 100.5t143.5 121.5q174 86 389 86q219 0 416 -88q170 -78 244 -238q51 -115 63 -320q18 -311 23 -327q-55 -219 -226 -398q-186 -194 -428 -247q-70 -16 -143 -17q-268 0 -549 203q-207 225 -207 557zM145 678q51 -53 88 -166 q41 -131 70 -172q57 -86 182 -109q108 -22 201 -22h8q170 0 287 67q-8 37 35 37h17h18q39 0 57 19q205 188 205 373q0 80 -39 155q14 39 30.5 83t18.5 83q16 31 16 61q0 51 -53 121q-86 113 -86 115q-158 127 -342 127q-78 0 -147 -27q-25 4 -49 4q-47 0 -138.5 -27.5 t-140.5 -27.5q-139 -170 -215 -358q-2 -18 -2 -43t2 -56q6 -74 6 -98q0 -84 -29 -139z" />
<glyph unicode="p" horiz-adv-x="1126" d="M12 55q0 18 12 63q9 37 9 63v9q14 31 20 82q6 41 13 84q4 0 28 19q-2 274 -2 549q-6 311 -53 546l4 168q57 0 153.5 -59t155.5 -61q35 -6 39 -51.5t25 -45.5q12 0 33 9q215 -111 442 -361q-195 -217 -621 -362q12 -39 13 -82q0 -53 -28 -154.5t-28 -151.5q0 -59 27 -110 q35 -4 35 -29q0 -10 -7.5 -32.5t-7.5 -32.5q-8 -10 -8 -43v-47q-2 -14 -8 -25q-27 6 -72 8q-31 0 -84 -2q-59 -2 -75 -2q-14 25 -15 51zM233 1327q0 -59 20.5 -169.5t20.5 -166.5q0 -61 -18 -117q223 41 422 191q-156 139 -184 164q-111 92 -203 141l-55 8q-2 -25 -3 -51z " />
<glyph unicode="q" horiz-adv-x="1476" d="M-72 868q0 94 9 205q150 309 309 461q59 8 200 59q125 45 203 45q27 0 51 -4l258 -188q143 -121 144 -244q0 -35 -10 -69q29 -113 55 -224q33 -137 41 -237q-14 -16 -29.5 -36t-11.5 -40l-8 -2q-12 -39 -101 -141q-80 -90 -80 -142q0 -57 72 -106q47 -68 47 -117 q0 -10 -2 -18q-16 -4 -47 -37t-49 -33q-14 0 -29 14q-29 27 -55.5 96.5t-60.5 98.5q-25 29 -62 29q-25 0 -84 -20.5t-90 -20.5q-119 18 -238 39q-139 25 -213 104q-12 8 -79 18q-51 8 -64 41q-76 201 -76 469zM78 854q0 -295 145 -420q155 -110 365 -110h4q49 0 96 6 q-43 27 -82 86q-61 94 -65 100l114 115q33 -27 93.5 -94.5t97.5 -98.5q102 117 153 260q-2 14 7.5 48t9.5 49q0 35 -43 49q6 29 6 57q0 31 -9 84t-12 78l17 14q-6 12 -41 121q-23 74 -57 113q-155 175 -380 175q-19 0 -38 -1q-264 -113 -377 -463l-4 -170v2z" />
<glyph unicode="r" horiz-adv-x="1388" d="M0 41q10 27 10 65q0 10 -2 33v33q0 84 68 117q1 8 1 17q0 57 -22 155q-27 121 -26 174q0 90 47 156q-37 70 -37 197q0 50 6 108q10 96 10 168q0 97 -18 151q0 66 2 129q6 76 74 94q297 -80 450 -161q238 -129 297 -326q-55 -78 -174 -158q-102 -66 -205 -131v-47 q172 -246 682 -663q-6 -18 -15.5 -39t-29.5 -33q-20 2 -52 -12.5t-46 -14.5q-16 0 -31 10q-33 49 -123 119q-106 82 -137 115q-18 29 -35 55q-23 35 -57 39q-51 41 -123 140.5t-113 136.5q-74 66 -170 75q-2 -51 -2 -112q0 -76 6.5 -240t6.5 -248q0 -66 -2 -120 q-55 -31 -131 -31q-37 0 -72 8zM221 903q129 49 379 160l102 88q-72 174 -434 270q-45 -71 -44 -201q0 -25 1 -51q5 -87 5 -148q0 -82 -9 -118z" />
<glyph unicode="s" horiz-adv-x="974" d="M-100 8q-1 8 -1 16q0 111 156 220q233 106 348 338l-16 98q-104 80 -211 158q-127 96 -180 182q-1 6 -1 12q0 39 44 82q68 63 76 82q74 100 215 227q119 109 237 215q51 -16 144 -36q-19 -164 -138 -201h-24q-57 -82 -164 -201q-160 -178 -176 -196q233 -160 383 -414 q-2 -63 -92 -131q-102 -76 -121 -119q-47 -20 -78 -80q-35 -72 -59 -90q-63 -55 -129 -111q-78 -59 -154 -59q-29 0 -59 8z" />
<glyph unicode="t" horiz-adv-x="1327" d="M-133 1495q0 55 39 143q88 -12 391 -20q240 -6 356 -39q18 -2 40 -2q65 0 163 14q145 18 201 19q68 0 121 -15q20 -18 20 -45q0 -16 -10 -49t-10 -49q-34 -9 -93 -9q-44 0 -102 5q-45 4 -82 4q-69 0 -113 -14l-145 -11q-39 -59 -39 -137q0 -43 17.5 -135t17.5 -141 q0 -63 -25 -117q-8 -41 -8 -84q0 -53 19.5 -156.5t19.5 -158.5q0 -70 -22 -129q-6 -92 -13 -185q-10 -115 -55 -176q-8 2 -20 2t-39 -5t-41 -5q-27 0 -45 16q-9 53 -9 150q0 66 4 153q4 84 4 150q0 102 -10 162q2 53 19 194q12 127 12 199q0 152 -49 260q6 20 16.5 62.5 t14.5 64.5q-70 27 -168 27q2 0 -183 -11v11q-23 11 -42 11q-27 0 -46 -22v11q-10 -1 -22 -1q-30 0 -74 7q-10 23 -10 51z" />
<glyph unicode="u" horiz-adv-x="1462" d="M-10 1112v13q0 133 37 438l161 34q8 -23 9 -51q0 -31 -17 -104q-11 -51 -11 -83q0 -9 1 -16q12 -109 35 -520q16 -330 57 -520q63 -106 256 -115q68 6 137.5 13.5t100.5 52.5q39 39 141 221q18 121 18 281q0 78 -6 235.5t-6 235.5q0 76 4 139q6 14 6 29q0 29 -37.5 69.5 t-37.5 65.5q0 16 12 33q-8 16 -8 26q0 27 39 37q4 2 73 12h28q103 0 189 -26q0 -131 -53 -410q-42 -220 -42 -351q0 -21 1 -40q1 -15 1 -32q0 -93 -29 -222q-43 -180 -48 -246q-35 -35 -76.5 -115.5t-72.5 -111.5q-51 -51 -135 -59q-80 -25 -180 -25q-137 0 -265 43 q-147 80 -206 213q-45 104 -46 270q0 53 5.5 160t5.5 160q0 162 -41 266z" />
<glyph unicode="v" horiz-adv-x="1505" d="M0 1610q24 28 71 28h3q25 0 69 -8q55 -12 68 -14q8 -102 104 -295q90 -188 97 -301q29 -117 94 -285l106 -278q76 68 97 184q8 102 18 207q16 119 86 188q66 47 94 156q31 125 70 168q8 197 162 256h10q68 0 104 -74q-6 -37 -55 -92t-59 -82q-129 -342 -258 -686 q-152 -399 -271 -682q-55 6 -75 47q-12 23 -18.5 83t-18.5 85q-145 653 -355 1128q-80 2 -106 52q-16 31 -18.5 107.5t-18.5 107.5z" />
<glyph unicode="w" horiz-adv-x="2060" d="M0 1544q25 31 74 43q41 10 84 19q59 -25 75 -80q8 -25 13 -105q2 -66 22 -98q68 -106 103 -272q27 -147 53 -293q31 -53 68 -160q47 -129 61 -162q16 23 88 187q10 55 76 184q57 117 57 186q0 57 -31 113q-8 12 -147 223q-90 133 -119 234q92 57 197 75q57 -70 104 -213 q53 -162 92 -221q31 51 93 187q53 121 96 182q13 3 32 3q25 0 58 -5q82 -10 88 -10q-20 -29 -78 -146q-45 -90 -92 -135q-27 -31 -50.5 -112t-58.5 -115q23 -127 70 -318q68 -276 76 -313q68 61 103.5 194.5t95.5 190.5q31 61 73 235q39 152 92 230q8 12 80 166 q47 100 121 145l150 -20l-64 -99q4 -18 4 -37q0 -98 -112 -192q-78 -260 -224 -418q-6 -80 -69 -227q-74 -166 -88 -240q-33 -55 -75 -174t-77 -176q-74 0 -94 51q-10 27 -10 113q-2 78 -23 108q-31 14 -33 56q2 29 2 57q-6 23 -65 186q-37 99 -37 173v14 q-119 -242 -356 -729q-59 139 -158 536q-86 348 -188 531q-45 109 -91 219q-49 127 -61 229z" />
<glyph unicode="x" horiz-adv-x="1357" d="M0 86q16 90 123 209q72 12 106 88q47 102 66 121q16 45 115 164q82 98 82 166q0 35 -19 69q-66 59 -121 170q-84 172 -90 180q2 41 -40 72t-83 57q0 39 -19.5 110t-19.5 101q20 0 66.5 7.5t69.5 7.5q66 0 86 -54q-4 -20 25.5 -52t29.5 -46q0 -16 -19 -33l213 -385 q78 106 187 299q129 221 180 301q168 0 178 -2q-321 -431 -454 -802q172 -344 296 -664q57 -18 76 -59q8 -18 21 -86l-17 -23l-161 -2q-55 51 -101.5 176t-93.5 172q27 18 27 49q0 12 -13 56q-29 39 -63.5 124t-61.5 123q-49 -90 -96 -182q-55 -109 -74 -188 q-82 -96 -96 -113q-49 -66 -67 -127q-23 -45 -68 -45q-25 0 -83 20.5t-87 20.5z" />
<glyph unicode="y" horiz-adv-x="1376" d="M0 1516q10 42 10 75q0 21 -4 39q20 8 47 8q12 0 72 -6q23 -3 42 -3t34 3q104 -84 198 -243q123 -211 162 -259q14 -51 17 -51q10 -29 32 -45q68 113 156 283q74 145 147 289q32 28 111 28h6q6 0 117 -8q-6 -57 -12 -115q-12 -58 -73 -58q-7 0 -15 1q-80 -63 -132 -190 q-68 -166 -92 -203q-127 -264 -256 -529q-143 -303 -239 -532l-197 4q-10 35 -10 66q0 102 147 239q156 141 166 244q6 47 58 154q47 98 47 151q0 74 -69 134.5t-148 178.5q-100 154 -129 191q-84 102 -193 154z" />
<glyph unicode="z" horiz-adv-x="1585" d="M0 51q74 113 258 445q160 283 274 444q70 51 152 186q88 145 150 203l38 105q-31 10 -79 10q-20 0 -63.5 -2t-63.5 -2q-45 0 -76 6q-28 24 -76 24h-4q-37 0 -70 -10q-66 -49 -184 -67q-100 -8 -199 -19l-18 19q6 14 6 34q0 23 -13.5 72t-13.5 74q0 16 5 29q18 12 77.5 19 t83.5 17q109 -23 308 -26q301 -4 325 -6l49 20q29 2 60 2q111 0 295 -39q-39 -76 -78 -151q-47 -88 -117 -123q-397 -569 -563 -864q-12 -51 -66 -125q-63 -88 -78 -121q463 -27 506 -27q240 0 428 51l111 -6q-8 -61 -35 -184h-14q-42 1 -109 -9q-78 -12 -110 -12 q-61 0 -111 23q-72 -2 -266 -14q-182 -12 -285 -13q-123 0 -221 15q-20 -20 -68 -23q-61 -2 -73 -6z" />
<glyph unicode="{" horiz-adv-x="716" d="M2 756q-35 57 2 116q125 4 184 185q43 186 86 373q57 231 168 313q90 -14 125 -88q23 -53 15 -80q-66 -29 -119 -141q-49 -102 -49 -189q0 -43 16 -61q-57 -197 -72 -236q-43 -115 -96 -141q27 -47 55 -234q31 -211 68 -311q63 -168 188 -223q18 -25 19 -47 q0 -61 -103 -76q-147 68 -213 184q-76 137 -69 389q4 166 -53 222q-41 43 -152 45z" />
<glyph unicode="|" horiz-adv-x="524" d="M14 0q0 23 9 88q8 51 4 70q-2 166 20 522q25 371 25 545q0 303 -52 506q-4 4 -4 8q0 20 60 41q51 18 84 20q35 -12 41 -71q10 -78 24 -101q4 -37 -11 -115.5t-11 -123.5q41 -412 41 -609q0 -154 -15 -309q4 -31 4 -61q0 -29 -7 -84.5t-7 -87.5q0 -94 47 -211 q-4 -41 -67.5 -72t-124.5 -31q-20 0 -33 4q-27 18 -27 72z" />
<glyph unicode="}" horiz-adv-x="716" d="M8 1628q0 43 41 78q33 27 74 33q162 -41 215 -232q29 -168 59 -336q45 -182 201 -213q45 -78 45 -127q0 -39 -18 -100q-84 0 -146 -166q-47 -121 -53 -215q-2 0 -39 -117q-43 -137 -82 -215q-57 -117 -112 -116q-16 0 -31 8q-123 10 -123 33q0 -2 6 12q66 31 115 108 q82 127 86 345q4 117 47 241q49 141 117 172q-133 66 -134 111v14l3 15q0 33 -29 69q-12 211 -21 283q-20 158 -61 157q-12 0 -27 -16q-133 94 -133 174z" />
<glyph unicode="~" horiz-adv-x="1226" d="M4 678q0 51 25 90q8 45 99 83t177 38q111 0 316 -86q25 -12 50 -42t36 -34q35 -8 133 23q131 39 221 127q6 -10 53 -82q18 -31 19 -47q0 -25 -54 -97q-47 -43 -153 -88q-29 -12 -178 -12q-23 0 -46 12q-31 14 -43 17q-223 139 -362 139q-55 0 -94 -23q-17 -12 -35 -24 q-8 -4 -46 -47t-93 -62q-25 63 -25 115z" />
<glyph unicode="&#xa1;" horiz-adv-x="614" d="M39 47q0 96 2 88q4 66 22 107q-20 61 -20 123q0 39 8 81q12 51 12 52q0 68 13.5 282.5t13.5 306.5q0 45 -2 78l125 -49q8 -94 35 -268q6 -72 8 -211q2 -35 18.5 -235.5t20.5 -217.5l6 -22q6 -23 10 -25q-6 -25 -20 -24q-20 0 -27 -9q-43 -14 -172 -104q-20 -10 -29 -12 q-25 4 -24 59zM47 1309l4 20q-2 33 -2 68q0 39 27 55q41 6 71 6q76 0 86 -28q16 -45 39 -123q-47 -29 -139 -29q-68 0 -79 9.5t-7 21.5z" />
<glyph unicode="&#xa2;" horiz-adv-x="1087" d="M6 915q37 221 285 390q51 10 51 165q0 72 -10 152h149l-6 -299q78 35 230 66q59 -74 59 -123q0 -35 -37 -45q-557 -150 -557 -400q0 -129 145 -229q139 -96 299 -96q113 0 187 55q94 -18 94 -57q0 -10 -9 -39t-12 -47q-84 -78 -118 -103q-66 -47 -123 -47q-39 1 -80 21 q-25 -123 -25 -199q0 -55 15 -70q-43 -29 -90 -28q-78 0 -121 65q31 53 30 146q0 90 -26 188q-139 31 -244 184q-115 166 -86 350z" />
<glyph unicode="&#xa3;" horiz-adv-x="1122" d="M37 688q0 23 26 23q12 0 29 -4q119 4 236 12q10 70 20 121q8 39 28.5 46t31.5 32q20 51 38 196q10 88 181 213q182 137 344 139q47 -57 47 -110q0 -25 -10 -60q-37 -4 -93 -39q-63 -43 -84 -49q-125 -45 -184 -110q-84 -92 -123 -291q-4 -27 -16 -80l352 -35 q31 -72 19 -84q-213 -4 -394 -14q-47 -262 -100 -451q37 0 169 20.5t224 20.5q121 0 228 -30q35 -53 34 -99q0 -47 -34 -65q-29 0 -388.5 5t-427.5 5q10 31 29 178q12 104 45 139q49 51 49 123q0 14 -6 72q-4 43 0 70q-70 -6 -213 -15q-57 82 -57 121zM508 727q86 12 135 12 q88 0 217 -47z" />
<glyph unicode="&#xa4;" horiz-adv-x="1191" d="M-2 1087q8 76 22 107q23 41 82 41l150 -168q106 72 237 72t236 -72l139 139q109 -16 117 -119q4 -47 -66 -100q-59 -49 -81 -49q-2 0 -3 2q0 4 11 10q23 -35 33 -117.5t38 -115.5q10 -12 11 -35q0 -78 -82 -203l139 -135q-45 -80 -117 -119l-139 140q-55 -39 -160 -39 q-74 0 -111.5 18t-93.5 29q-43 6 -81 33q4 -55 -36 -107.5t-100 -77.5q0 -2 -4 -2q-25 0 -65 31q-51 41 -62 96l154 148q-18 29 -58 50t-55 44q-23 39 -22 129q0 53 35 121q10 18 71 112zM207 723q0 -59 35 -109q14 -16 73 -77q76 -76 185 -76q70 0 182 76q29 20 52.5 75.5 t23.5 108.5q0 115 -76 182q-150 94 -252 94q-88 0 -141 -71q-14 -21 -53 -109q-10 -23 -25 -35q-4 -2 -4 -59z" />
<glyph unicode="&#xa5;" horiz-adv-x="1402" d="M-76 1540q10 49 60 72q31 16 84 20q41 4 41 6q127 -106 241 -247q82 -102 144 -207q23 -43 43 -84q170 279 297 516q39 33 208 18q-2 -35 -10 -102q-10 -55 -78 -47q-150 -154 -232.5 -333t-68.5 -304q143 16 236 16q143 0 188 -43q29 -28 35 -110q-45 2 -134 19.5 t-122 17.5q-18 0 -33 -5q-68 -8 -168 -20q0 16 -4 -86q-4 -68 9.5 -74t136.5 -2q152 6 227 2q72 -43 72 -76q0 -29 -68 -36q-33 -6 -76 -7q-43 0 -120.5 7.5t-106.5 7.5q-78 0 -82 -37q-4 -49 19 -213q-6 -86 6 -184q-31 -8 -60 -17q-61 -14 -100 -14q-57 0 -72 31 q14 45 19 217q6 195 6 202q-88 -2 -207 7q-135 8 -148.5 26.5t-13.5 44.5q0 27 12.5 52.5t14.5 23.5q6 -6 323 -29l11 156l-334 37q-16 102 -10 102h340q14 119 -5 133q-137 207 -294 363q-133 133 -226 180z" />
<glyph unicode="&#xa6;" horiz-adv-x="598" d="M-10 141q0 94 13 271.5t13 220.5q0 47 -8 55q6 47 27 47q14 0 55.5 -32.5t59.5 -32.5q-6 -33 -3 -131q-10 -4 -10 -84q0 -37 3 -145.5t3 -166.5q0 -223 -45 -217q-23 -16 -39 -16q-70 0 -69 231zM-2 1266q4 315 31 352q76 55 102 55q25 0 14 -69q-11 -79 7 -93 q-2 -109 6 -188.5t6 -138.5q2 -51 -6 -131q-6 -86 -6 -103q0 -37 14 -35q-51 -47 -84 -47q-14 0 -38 10.5t-42 8.5q-8 113 -4 379z" />
<glyph unicode="&#xa7;" horiz-adv-x="1138" d="M82 645q0 53 32.5 128t88.5 112q31 20 104 43q-129 123 -129 248q0 143 113 233q104 82 252 82q98 0 293 -57q63 -18 94 -113q14 -49 31 -176l-103 -90l-127 51q2 -10 7 7t5 42q0 98 -86 121q-18 6 -41.5 36.5t-56.5 30.5q-29 0 -89 -24.5t-105 -24.5q-25 0 -25 -26 q0 -12 7 -42t7 -42q0 -51 34 -93t65 -81q53 -55 159 -121q129 -66 295 -162q104 -86 137 -149q10 -18 -6 -109q-18 -104 -18 -94q2 8 27 90q2 10 4 14q-10 -43 -21 -84q-31 -94 -57 -125q-41 -45 -154 -92q160 -121 160 -280q0 -94 -53.5 -171t-141.5 -116q-94 -41 -202 -41 q-193 0 -303 94q-193 164 -193 236q0 39 51 39q18 0 21 -5q-3 -4 -15 -4q-33 -35 -41 -39q0 10 48 41q55 37 112 37q33 0 64 -12q10 -55 45 -90q33 -25 63.5 -53.5t61.5 -57.5q41 -35 84 -35q86 0 147 43q70 47 70 132q0 51 -35 94q-47 55 -139 127q-113 86 -201 116 q-104 37 -152 82q-29 31 -55 62q-133 117 -133 268zM244 664q0 -35 24.5 -74t61.5 -43t71 -58q43 -66 97 -98q133 -77 229 -147q147 76 147 186q0 59 -51 121q-14 16 -84 61q-80 49 -141 109q-45 43 -115 82q-78 45 -90 55q-150 -86 -149 -194z" />
<glyph unicode="&#xa8;" horiz-adv-x="1101" d="M0 1765q-4 -20 5 -40.5t30 -20.5q57 2 86 -2q4 -6 10 -6q4 0 14.5 6t16.5 4q6 0 20.5 -2t22.5 -2q8 2 16 12q14 23 15 66q-2 61 0 71q-8 8 -9 19q0 8 5.5 24.5t5.5 24.5q0 16 -21 23q-53 6 -106 6q-45 12 -70 6h-10q-8 0 -11.5 -3t-9.5 -1q-4 -8 -4 -19q0 -18 11.5 -56 t11.5 -56q0 -33 -29 -54zM512 1917q0 16 20 22q53 6 107 7q45 14 70 6h10q8 0 11 -2t9 -2q4 -8 4 -19q0 -18 -11 -56t-11 -54q0 -35 29 -56q4 -18 -5.5 -39.5t-29.5 -21.5q-57 2 -86 -2q-4 -4 -11 -4q-4 0 -14 6t-16 2q-6 0 -23 -2q-12 -2 -20 0t-17 10q-14 23 -14 68 q2 61 0 69q8 8 8 21q0 8 -5 24.5t-5 22.5z" />
<glyph unicode="&#xa9;" horiz-adv-x="1613" d="M25 664q0 291 221 682q215 92 461 110l270 8q76 -27 153 -51q70 -27 127 -92q172 -278 209 -561q8 -63 9 -111q0 -133 -74 -225q-47 -43 -72 -119q-23 -63 -45 -129q-78 -88 -237 -139q-2 -2 -283 -74q-207 -6 -391 111q-160 98 -275 268q-74 154 -73 322zM166 737 q0 -27 9 -88t9 -94q66 -178 144 -262q106 -117 295 -150q80 -23 143 -22q57 0 119 37q53 35 108 67l185 133q78 137 106 207q45 106 45 203q0 113 -59 244q-29 35 -62 75q-78 117 -164 156q-108 51 -350 51q-90 -10 -178 -22q-61 -12 -115 -90q-47 -66 -94 -133 q-53 -78 -76 -144q-72 -61 -65 -168zM383 678q0 -39 57 -139q68 -121 129 -123q45 0 120 -23.5t130 -23.5q88 0 139 10q55 41 56 63q0 14 -30 32t-36 32q-25 16 -57 16q-27 0 -82 -13t-86 -13q-125 -1 -195 198q-23 27 -22 60q0 80 128 157.5t279 87.5q23 39 23 62 q0 27 -37 69q-86 -14 -215 -86q-117 -66 -139 -63q-39 4 -100.5 -111.5t-61.5 -191.5z" />
<glyph unicode="&#xaa;" horiz-adv-x="1032" d="M12 637q-4 49 45 115q72 90 80 106q63 131 90 184q55 100 111 177q35 61 98 180q-4 25 22.5 43t55.5 6q37 -16 47 -59q18 -70 19 -72q27 -29 67 -107q35 -72 76 -106q10 -25 190 -381q25 -39 25 -59q0 -25 -27 -39q-39 -18 -77 16q-59 117 -175 352q-27 23 -86 8 q-35 -8 -111.5 -5t-115.5 -11q-55 -84 -158 -252q6 -12 7 -22q0 -8 -31 -74q-41 -4 -76 -4t-76 4zM383 1075q37 6 113.5 -3t115.5 -5q-29 51 -55 102q-37 59 -82 86q-14 -20 -39 -90q-20 -57 -53 -90z" />
<glyph unicode="&#xab;" horiz-adv-x="1003" d="M0 760q0 59 78 123q0 18 207 219q92 25 116 24q43 0 43 -45q0 -14 -2 -34q-43 -43 -84 -89q-68 -69 -82 -65q-29 8 -116 -139q27 -31 92 -144q57 -102 96 -137q4 -10 4 -20q0 -59 -94 -80q-10 14 -63 119q-18 33 -37 65q0 10 -79 76.5t-79 126.5zM365 774q104 88 204 225 q57 86 115 170q104 -18 104 -82q0 -10 -2 -20q-6 -20 -75 -80q-61 -55 -61.5 -89t-61.5 -79q-74 -53 -78 -59q160 -176 272 -287q-6 -2 -6 -8t5 -22.5t5 -26.5q0 -33 -49 -43zM365 774q139 -248 372 -401z" />
<glyph unicode="&#xac;" horiz-adv-x="1298" d="M-10 958q0 31 20.5 52.5t38.5 19.5q283 -20 494 -12q143 4 473 -19q12 -131 12 -147q0 -111 -10 -428q-37 -74 -121 -62q-43 6 -49 62l14 268q2 31 -14 170q-2 10 -76 10q-61 0 -272 -11t-305 -11q-111 0 -146 12q-59 45 -59 96z" />
<glyph unicode="&#xad;" horiz-adv-x="1214" d="M6 778q0 12 4 64q2 39 0 61q78 -2 238 8q41 -25 137 -8q72 14 170 17q61 2 178 2q121 -2 172 -2q10 -12 62 0q41 10 41 -48q12 -98 -52 -98q-14 0 -43.5 5t-44.5 5q-25 0 -39 -14q-57 -20 -131 -20q-51 0 -151.5 14t-149.5 14q-133 0 -223 -80q-18 10 -37 11 q-10 0 -30.5 -3.5t-32.5 -3.5q-27 0 -58 13q-10 27 -10 63z" />
<glyph unicode="&#xae;" horiz-adv-x="1677" d="M-6 788q0 242 202.5 438.5t448.5 196.5l295 -12q29 -12 174 -37q104 -18 158 -80q-6 -31 80 -88q94 -66 106 -88q-14 -51 -14 -112q0 -59 18.5 -177t18.5 -180q0 -139 -76 -225q-45 -53 -68 -127q-27 -88 -47 -121q-55 -86 -235 -149q-160 -57 -283 -58q-348 0 -565 238 q-213 229 -213 581zM170 754q0 -33 10 -99.5t10 -99.5q70 -190 201 -311q152 -141 338 -142q47 0 121 33q8 4 121 27q94 18 98 33l-20 18q276 287 276 602q0 143 -65 270l-46 2q-90 137 -221 179q-88 28 -293 28q-213 0 -292 -112q-49 -66 -97 -133q-53 -78 -73 -144 q-68 -57 -68 -151zM459 330q0 18 31.5 41.5t50.5 25.5l-15 -22q2 18 2 147v307q0 6 -24.5 63.5t-24.5 96.5q0 59 45 103q215 0 254 -5q158 -18 228 -100q16 -16 34 -49q-18 -23 -79 -121q-51 -86 -78 -104q59 -82 237 -275q-25 -47 -39 -61q-23 -18 -67 -23 q-184 94 -273 361q147 76 148 172q0 55 -82 86q-59 23 -123 20h-29q0 -61 -4 -219q-4 -145 -2 -227q0 -125 10 -221q-94 -16 -143 -17q-57 0 -57 21z" />
<glyph unicode="&#xaf;" horiz-adv-x="974" d="M-4 1630q0 39 37 64q23 -6 61 -6q51 0 191.5 15t197.5 15q74 0 99 -18q27 -37 26 -64q0 -33 -35 -67q-137 0 -135 0q-35 -4 -55 -13q-6 -4 -12 3q-35 35 -129 34q-47 0 -122 -9t-87 -9q-15 0 -17 4q-20 23 -20 51z" />
<glyph unicode="&#xb0;" horiz-adv-x="819" d="M10 1180q0 74 43 153q117 145 266 142q129 -29 193 -89q27 -51 61 -79q25 -27 25 -62q0 -25 -16.5 -74t-16.5 -73q0 -14 4 -29q-174 -150 -282 -149q-43 0 -84 26q-49 33 -51 33q-33 31 -97 84q-45 45 -45 117zM96 1192q0 -29 25 -47q12 -33 65 -90q74 -59 140 -60 q76 0 125 72q47 63 47 145q-1 121 -95 148q-25 12 -47 26q-29 14 -51 15q-10 0 -22 -4q-125 -18 -179 -142q0 -10 -4 -31.5t-4 -31.5z" />
<glyph unicode="&#xb1;" horiz-adv-x="1189" d="M-4 627q0 39 27.5 64.5t60.5 25.5q14 0 40 -8.5t38 -8.5q29 0 85 21.5t85 21.5q0 35 8 100.5t8 96.5t13.5 62.5t13.5 46.5l131 26q0 -250 8 -332q31 0 106.5 4.5t108.5 4.5q113 0 193 -64q-12 -16 -22.5 -68.5t-10.5 -78.5q-20 0 -188.5 -11.5t-190.5 -11.5 q0 -98 -2 -196q-2 -111 -14 -179l364 7q-4 -2 -4 -17q0 -23 8 -76t8 -57q-27 -4 -221 -4q-131 2 -358 6q-211 6 -221 6q-18 0 -37 45t-19 68q0 49 60 49l295 -27q-2 145 -4 373l-349 43q-23 35 -20 68z" />
<glyph unicode="&#xb2;" horiz-adv-x="958" d="M-14 655l8 72q33 20 166 143q106 96 135 93q49 -8 106 57q68 78 68 188q0 37 -6 76q-127 90 -260 90q-80 0 -115 -22q0 -10 -10 26.5t-10 69.5q0 73 49 104q225 -23 362 -125q127 -96 127 -225q0 -211 -330 -436l3 -6q150 45 227 45q61 0 147 -21q37 -35 37 -73 q0 -35 -37 -66q-123 -4 -305 8q-43 14 -84 15q-25 0 -64.5 -6.5t-60.5 -6.5h-153z" />
<glyph unicode="&#xb3;" horiz-adv-x="825" d="M-20 727q0 31 28 49q-10 0 -2 15q8 12 37 12q37 0 96 -23q35 -14 76 -14q80 0 143.5 48t63.5 114q0 25 -10 51q-72 72 -136 88q-16 4 -180 20q-53 20 -53 56q0 25 37 45q33 0 85 28.5t71 28.5q10 0 21 -7t19 -7q20 0 52 37q45 53 49 57q14 10 14 25q0 41 -110.5 79.5 t-204.5 34.5l16 115q27 -2 86.5 -26.5t85.5 -24.5q12 0 28.5 6t26.5 6q45 0 117 -66.5t101 -127.5q4 -8 4 -19q0 -43 -64.5 -102.5t-122.5 -81.5v-4q92 -18 160 -78t68 -133q0 -121 -183 -199q-164 -72 -387 -76q-33 37 -32 74z" />
<glyph unicode="&#xb4;" horiz-adv-x="708" d="M27 1645q37 25 67 47q72 55 94 92q10 18 52 49q31 20 59 41l8 12q45 -29 64 -61q18 -41 35 -82q-141 -119 -326 -172q-63 23 -53 74z" />
<glyph unicode="&#xb6;" horiz-adv-x="1304" d="M6 1102q0 -141 49 -217q90 -139 355 -189q35 -408 34 -645q0 -223 -33.5 -217t-33.5 -41q0 -51 33 -143h217q0 174 -19 739q-18 586 -18 776q0 154 8 189q55 0 92 -11.5t41 -11.5q19 0 60 23q10 -176 12 -600q0 -489 4 -574q0 -137 2 -532q18 -20 82 -21q51 0 92 14.5 t41 39.5q0 10 -8 22q-18 147 -19 457v210v222q0 461 -28 758l137 2q18 6 35 10q31 12 30 39q0 43 -65 125q-70 -4 -143 -4q-86 0 -216.5 6t-168.5 6q-68 0 -99 -10q-29 0 -75 2t-66 2q-147 0 -211 -119q-41 -72 -80 -143q-41 -82 -41 -164z" />
<glyph unicode="&#xb7;" horiz-adv-x="552" d="M176 686q0 20 8 57q-12 45 4 64q10 6 21 6q4 0 67 -29l84 -14q4 2 17 -39q4 -39 6 -76q-2 -82 -31 -77q-6 8 -39 4q-23 12 -61 10q-49 -2 -66 2q-10 14 -8 45q2 41 0 47h-2z" />
<glyph unicode="&#xb8;" d="M45 -383q0 23 31 25q276 14 280 94q2 78 -155 104q-8 23 -56 68q-39 39 -32 57q-4 8 -4 17q0 49 75 96l62 28l127 -73q-35 4 -35 -31q0 -25 15.5 -58.5t27.5 -37.5q16 -43 86 -125q57 -70 57 -103q0 -20 -12 -36q-20 -72 -125 -95q-113 -14 -223 -26q-119 43 -119 96z " />
<glyph unicode="&#xb9;" horiz-adv-x="663" d="M10 1358q0 8 9.5 16t7.5 12q47 63 96 130q92 117 149 116q23 0 41 -18l-30 -584q-2 -70 14 -160t16 -106q0 -43 -32 -59q-10 4 -17 4q-6 0 -20.5 -4.5t-28.5 -4.5q-35 0 -98 23q0 -2 24.5 119t24.5 231q-12 2 -12 23q0 8 14 67q18 72 2 250q-20 -23 -51 -75t-43 -64 q-66 57 -66 84z" />
<glyph unicode="&#xba;" horiz-adv-x="968" d="M-12 1059q0 109 59 223q156 213 363 207q176 -41 260 -129q37 -76 84 -115q35 -39 34 -90q0 -35 -22.5 -106.5t-22.5 -108.5q0 -23 7 -41q-238 -219 -385 -219q-59 0 -115 39q-70 47 -72 49q-43 41 -129 119q-61 68 -61 172zM111 1053q0 -43 32 -70q16 -47 88 -131 q76 -47 152 -47q117 0 201 100q80 94 80 207q-1 143 -136 184q-33 18 -65 37q-39 20 -70 21q-14 0 -28 -2q-172 -29 -244 -207q0 -16 -5 -47t-5 -45z" />
<glyph unicode="&#xbb;" horiz-adv-x="1003" d="M-8 1020q0 33 24.5 66.5t59.5 33.5q20 0 43 -14q66 -16 100 -84q45 -86 74 -111q43 -33 174 -192q-123 -113 -229 -252q-60 -84 -119 -168q-106 20 -107 84q0 8 4 18q18 57 134 166q129 123 143 142q-160 178 -273 286q-29 -8 -28 25zM412 455q41 39 116 120 q86 94 111 134q-74 104 -219 272q-6 18 -6 31q0 51 78 65q41 -39 81 -78q66 -66 66 -94t72 -96l94 -90q-10 -20 -51 -76q-35 -47 -35 -64.5t-205 -218.5q-14 -10 -27 -10q-41 0 -75 105z" />
<glyph unicode="&#xbc;" horiz-adv-x="1705" d="M2 1346q0 10 8 18t8 10q47 66 95 131q92 115 149 115q25 0 41 -18q-23 -430 -29 -584q-4 -70 13 -156q18 -92 18 -110q0 -41 -33 -60q-10 6 -18 6q-6 0 -19.5 -5t-27.5 -5q-35 0 -98 23q0 -2 23.5 119.5t23.5 230.5q-12 2 -13 24q0 6 17 66q18 74 2 250 q-20 -20 -51 -73.5t-43 -65.5q-66 57 -66 84zM61 18q1 11 11 25q92 156 168 270q178 276 239 303q55 150 341 556.5t354 418.5q20 12 36 13q39 0 39 -37q0 -14 -10 -23q-139 -266 -340 -612q-117 -152 -371 -537q-113 -174 -225 -346q-129 -49 -201 -49q-41 0 -41 18z M717 227q0 41 228.5 294t299.5 296q31 -33 31 -76q0 -12 -4 -39.5t-4 -39.5q-4 -86 6 -207q16 -182 16 -193l13 -6q12 -4 26 -4q16 0 48 4t46 4q49 0 54 -37q-8 -37 -78 -30q-90 6 -109 -3q-6 -29 -5 -86t-5 -86q-10 -10 -37 -28q-74 6 -74 45q0 12 5 26l8 129q20 0 -174 9 q-104 4 -174 -11q-88 0 -117 39zM895 287q25 4 55 4q25 0 79 -5t81 -5q33 0 61 6q-4 168 -8 168q2 -2 4 -19q-4 -2 -6 -2l6 51q4 45 4 74q0 41 -10 59q-68 -66 -139 -163q-113 -150 -127 -168z" />
<glyph unicode="&#xbd;" horiz-adv-x="1906" d="M2 1370q0 8 8 16.5t6 12.5q49 63 97 129q92 117 149 117q23 0 41 -19l-31 -584q-2 -70 14.5 -159.5t16.5 -106.5q0 -43 -33 -59q-10 4 -16 4t-20.5 -4t-28.5 -4q-35 0 -99 22q0 -2 25 119t25 231q-12 2 -13 23q0 8 15 68q18 72 2 249q-20 -23 -51 -75t-43 -64 q-63 57 -64 84zM80 12q0 11 10 25q92 156 166 270q180 276 242 303q53 152 339.5 557.5t352.5 417.5q20 12 39 12q39 0 39 -36q0 -14 -11 -23q-139 -266 -339 -612q-117 -152 -371 -537q-113 -172 -225 -346q-131 -49 -203 -49q-39 0 -39 18zM1001 -4l9 72q33 20 166 143 q106 96 135 92q49 -6 108 59q68 76 68 189q0 35 -8 74q-127 90 -258 90q-82 0 -117 -23q0 -8 -9.5 28t-9.5 68q1 74 48 105q227 -23 362 -125q127 -96 127 -225q0 -211 -330 -437l2 -6q152 45 228 45q63 0 147 -20q37 -35 37 -74q0 -35 -37 -65q-123 -4 -305 10 q-43 12 -84 12q-23 0 -63.5 -6t-61.5 -6h-154z" />
<glyph unicode="&#xbe;" horiz-adv-x="1708" d="M-12 772q0 33 28 49q-10 0 -2 15q8 14 39 14q35 0 94 -23q37 -14 78 -14q80 0 142.5 47t62.5 113q0 27 -10 53q-72 70 -135 88q-16 4 -181 19q-51 23 -51 55q0 25 35 45q33 2 81 27.5t75 25.5q10 0 22 -2q31 -10 66 27q27 29 53 59q14 12 14 25q0 43 -109.5 80.5 t-205.5 33.5l16 115q29 0 87.5 -25.5t84.5 -25.5q12 0 28.5 7t27.5 7q47 0 121 -69q68 -66 96 -127q4 -8 4 -17q0 -43 -64.5 -103.5t-122.5 -82.5v-4q92 -18 160 -77.5t68 -133.5q0 -121 -182 -199q-164 -70 -388 -76q-33 39 -32 74zM80 -12q0 10 10 22q92 158 168 273 q178 276 240 301q55 152 340.5 558t353.5 417q20 12 39 12q37 0 37 -35q0 -16 -11 -25q-139 -266 -339 -612q-115 -150 -371 -534q-113 -174 -225 -349q-129 -49 -201 -49q-41 0 -41 21zM731 229q0 33 41 72q63 59 68 66q37 49 196 219q125 133 170 225q29 20 54 8 q31 -35 30 -76q0 -12 -4 -39.5t-6 -41.5q-4 -86 6 -205q16 -184 17 -193l14 -8q10 -2 26 -2q14 0 47 4t48 4q47 0 53 -37q-10 -37 -78 -32q-92 6 -110 0q-6 -29 -5.5 -87.5t-5.5 -85.5q-8 -10 -35 -28q-76 6 -75 45q0 12 6 26l6 130q20 0 -174 8q-104 2 -174 -13 q-88 0 -115 41zM920 281q25 4 55 4q25 0 79 -5.5t81 -5.5q33 0 61 7q-4 168 -8 168q2 -2 4 -19q-4 -2 -6 -2l6 51q4 45 4 74q0 41 -10 59q-68 -66 -139 -163q-113 -150 -127 -168z" />
<glyph unicode="&#xbf;" horiz-adv-x="966" d="M-16 391q0 156 94 232q51 41 205 88q143 45 200 100q27 31 109 96q12 8 12 21q0 31 -56 84t-56 45q90 59 133 59q47 0 51 -57q78 -111 78 -160q0 -27 -23 -59q-29 -35 -55 -72q-31 -55 -160 -109q-190 -78 -215 -92q-106 -61 -106 -147q0 -94 112 -182q100 -78 172 -78 q25 0 31 14q72 -23 233 -63q59 -150 29 -150q-12 0 -37 19q-176 -16 -448 108q-303 139 -303 303zM436 1251q0 4 4 6q23 16 23 89q0 41 -6 88q29 39 90 39q33 0 69 -13q31 -8 48 -20q0 -2 -2 -6q37 -76 36 -131q0 -53 -36 -70q-225 -2 -226 18z" />
<glyph unicode="&#xc0;" horiz-adv-x="1638" d="M0 33q-8 96 66 225q102 180 114 213q90 258 129 363q78 201 160 350q49 119 141 356q-6 49 32 85t81 13q51 -35 68 -118q25 -137 26 -142q37 -57 94 -213q51 -139 111 -209q47 -154 131 -376q70 -188 141 -377q37 -76 37 -117q0 -49 -39 -76q-16 -10 -35 -10 q-43 0 -77 41q-84 233 -250 698q-20 25 -64 25q-29 0 -59 -10q-43 -14 -98 -15q-20 0 -60.5 2t-60.5 2q-63 0 -109 -20q-78 -166 -225 -502q8 -20 8 -43q0 -31 -16 -74q-14 -35 -29 -71q-57 -8 -108 -8q-49 0 -109 8zM496 1880q0 51 37.5 81t95.5 24l-129 -132q-4 12 -4 27z M500 1853l129 132l245 -228l-49 -71l-215 110q-66 -14 -110 57zM535 901q23 4 47 4q37 0 114.5 -12t116.5 -12q27 0 49 4q-39 100 -80 200q-50 117 -116 172q-20 -43 -56 -178q-31 -117 -75 -178z" />
<glyph unicode="&#xc1;" horiz-adv-x="1519" d="M23 98q-1 -48 38 -75q16 -10 35 -11q43 0 78 41q84 233 250 699q20 27 63 26q31 0 60 -12q43 -14 98 -14q20 0 61.5 3t59.5 3q66 0 108 -23q78 -166 226 -502q-8 -20 -8 -43q0 -29 15 -68.5t30 -76.5q59 -6 108 -6t109 6q8 96 -66 225q-102 180 -114 213 q-90 260 -130 363q-78 201 -159 350q-49 119 -142 356q6 49 -28 82q-41 41 -84 17q-51 -35 -66 -119q-27 -135 -28 -141q-37 -55 -95 -213q-51 -139 -110 -209q-45 -154 -129 -377q-72 -188 -144 -377q-37 -74 -36 -117zM492 897q41 100 79 203q51 115 117 170 q23 -41 57 -178q31 -115 74 -179q-20 4 -47 5q-37 0 -113.5 -11.5t-115.5 -11.5q-27 0 -51 2zM498 1749l49 -72l215 111q66 -14 110 57q6 14 7 29q-1 79 -136 104z" />
<glyph unicode="&#xc2;" horiz-adv-x="1638" d="M0 33q-8 96 66 225q102 180 114 213q90 258 129 363q78 201 160 350q49 119 141 356q-6 49 32 85t81 13q51 -35 68 -118q25 -137 26 -142q37 -57 94 -213q51 -139 111 -209q47 -154 131 -376q70 -188 141 -377q37 -76 37 -117q0 -49 -39 -76q-16 -10 -35 -10 q-43 0 -77 41q-84 233 -250 698q-20 25 -64 25q-29 0 -59 -10q-43 -14 -98 -15q-20 0 -60.5 2t-60.5 2q-63 0 -109 -20q-78 -166 -225 -502q8 -20 8 -43q0 -31 -16 -74q-14 -35 -29 -71q-57 -8 -108 -8q-49 0 -109 8zM356 1781q51 76 175 165t208 110l330 -262 q-8 -96 -104 -117q-115 141 -240 221q-16 0 -115 -84q-59 -49 -119 -98q-31 -10 -55 -10q-68 0 -80 75zM535 901q23 4 47 4q37 0 114.5 -12t116.5 -12q27 0 49 4q-39 100 -80 200q-50 117 -116 172q-20 -43 -56 -178q-31 -117 -75 -178z" />
<glyph unicode="&#xc3;" horiz-adv-x="1638" d="M0 33q-8 96 66 225q102 180 114 213q90 258 129 363q78 201 160 350q49 119 141 356q-6 49 32 85t81 13q51 -35 68 -118q25 -137 26 -142q37 -57 94 -213q51 -139 111 -209q47 -154 131 -376q70 -188 141 -377q37 -76 37 -117q0 -49 -39 -76q-16 -10 -35 -10 q-43 0 -77 41q-84 233 -250 698q-20 25 -64 25q-29 0 -59 -10q-43 -14 -98 -15q-20 0 -60.5 2t-60.5 2q-63 0 -109 -20q-78 -166 -225 -502q8 -20 8 -43q0 -31 -16 -74q-14 -35 -29 -71q-57 -8 -108 -8q-49 0 -109 8zM366 1755q96 160 189 160q66 0 161 -49q18 -10 34 -19.5 t42 -9.5q37 0 83 25.5t69 58.5q84 -8 94 -96q-20 -31 -47 -52q-39 -29 -76 -55q-55 -12 -98 -12t-73 14t-53.5 26.5t-129.5 59.5q-55 -23 -58.5 -26t-25.5 -64q-41 -25 -70 -25q-45 0 -41 64zM535 901q23 4 47 4q37 0 114.5 -12t116.5 -12q27 0 49 4q-39 100 -80 200 q-50 117 -116 172q-20 -43 -56 -178q-31 -117 -75 -178z" />
<glyph unicode="&#xc4;" horiz-adv-x="1521" d="M0 33q-8 96 66 225q102 180 114 213q90 258 129 363q78 201 160 350q49 119 141 356q-6 49 32 85t81 13q51 -35 68 -118q25 -137 26 -142q37 -57 94 -213q51 -139 111 -209q47 -154 131 -376q70 -188 141 -377q37 -76 37 -117q0 -49 -39 -76q-16 -10 -35 -10 q-43 0 -77 41q-84 233 -250 698q-20 25 -64 25q-29 0 -59 -10q-43 -14 -98 -15q-20 0 -60.5 2t-60.5 2q-63 0 -109 -20q-78 -166 -225 -502q8 -20 8 -43q0 -31 -16 -74q-14 -35 -29 -71q-57 -8 -108 -8q-49 0 -109 8zM309 1777q-4 -20 5 -40.5t30 -20.5q57 2 86 -2 q4 -6 10 -6q4 0 14.5 6t16.5 4q6 0 20.5 -2t22.5 -2q8 2 16 12q14 23 15 66q-2 61 0 71q-8 8 -9 19q0 8 5.5 24.5t5.5 24.5q0 16 -21 23q-53 6 -106 6q-45 12 -70 6h-10q-8 0 -11.5 -3t-9.5 -1q-4 -8 -4 -19q0 -18 11.5 -56t11.5 -56q0 -33 -29 -54zM535 901q23 4 47 4 q37 0 114.5 -12t116.5 -12q27 0 49 4q-39 100 -80 200q-50 117 -116 172q-20 -43 -56 -178q-31 -117 -75 -178zM821 1929q0 16 20 22q53 6 107 7q45 14 70 6h10q8 0 11 -2t9 -2q4 -8 4 -19q0 -18 -11 -56t-11 -54q0 -35 29 -56q4 -18 -5.5 -39.5t-29.5 -21.5q-57 2 -86 -2 q-4 -4 -11 -4q-4 0 -14 6t-16 2q-6 0 -23 -2q-12 -2 -20 0t-17 10q-14 23 -14 68q2 61 0 69q8 8 8 21q0 8 -5 24.5t-5 22.5z" />
<glyph unicode="&#xc5;" horiz-adv-x="1509" d="M0 33q-8 96 66 225q102 180 114 213q90 258 129 363q78 201 160 350q49 119 141 356q-6 49 32 85t81 13q51 -35 68 -118q25 -137 26 -142q37 -57 94 -213q51 -139 111 -209q47 -154 131 -376q70 -188 141 -377q37 -76 37 -117q0 -49 -39 -76q-16 -10 -35 -10 q-43 0 -77 41q-84 233 -250 698q-20 25 -64 25q-29 0 -59 -10q-43 -14 -98 -15q-20 0 -60.5 2t-60.5 2q-63 0 -109 -20q-78 -166 -225 -502q8 -20 8 -43q0 -31 -16 -74q-14 -35 -29 -71q-57 -8 -108 -8q-49 0 -109 8zM484 1815q0 80 49 69q27 -6 82 26t92 30 q90 -10 151.5 -45t61.5 -80q0 -14 -6 -29q-94 -184 -223 -184q-156 0 -199 158q-8 27 -8 55zM535 901q23 4 47 4q37 0 114.5 -12t116.5 -12q27 0 49 4q-39 100 -80 200q-50 117 -116 172q-20 -43 -56 -178q-31 -117 -75 -178zM607 1768q0 -41 26.5 -64.5t67.5 -23.5 q29 0 37 22q16 45 33.5 64.5t17.5 40.5q0 53 -84 53q-39 0 -68.5 -25.5t-29.5 -66.5z" />
<glyph unicode="&#xc6;" horiz-adv-x="1914" d="M-125 111q55 111 250 397q223 330 278 338q63 8 248 276q111 168 221 336q20 16 93 17q68 0 250 -21.5t243 -21.5q76 0 82 22q119 -47 119 -74q0 -18 -35 -45q-37 0 -276.5 -5t-251.5 -5q-20 -115 -21 -190q0 -43 8 -66q23 -68 23 -180q0 -74 -10 -148l125 21 q125 22 206 22q82 0 129 -18q49 -63 50 -64q0 -6 -25 -36q-100 0 -246 -60q-59 -25 -114 -24q-41 0 -83 14l-42 14q-14 -231 0 -276q16 -47 6 -170q31 25 94 24q47 0 129 -16q76 -14 90 -14q86 8 234 22q55 -47 55 -86q0 -35 -47 -90q-41 0 -388 10.5t-364 10.5l10 571 q-49 12 -90 12q-45 0 -69 -16q-35 -27 -133 -27q-90 0 -203 21q-86 -145 -172 -289q-154 -256 -217 -305q-133 0 -156 119zM504 713l407 12v559h-10q-236 -401 -397 -571z" />
<glyph unicode="&#xc7;" horiz-adv-x="1243" d="M-72 745q61 61 125 123q70 72 88 136q78 78 160 118q12 10 274 273q156 156 306 233q16 8 34 8q31 0 53.5 -22.5t26.5 -46.5q-39 -94 -176 -203q-172 -135 -217 -190q-18 -39 -98 -109t-96 -115q-53 -39 -107 -78q-59 -45 -84 -92q29 -104 150 -207q61 -51 235 -163 q68 -66 172 -125q176 -98 189 -107q0 -18 5 -56t5 -54q0 -45 -33 -58q-53 45 -104 92q-49 39 -140 68q-43 6 -43 -37q0 -51 27 -65q16 -43 98 -138q70 -80 70 -118q0 -18 -12 -33q-20 -72 -125 -94q-111 -14 -224 -27q-119 43 -118 96q0 23 30 25q279 14 281 94 q2 78 -156 104q-8 23 -55 68q-39 39 -33 57q-2 8 -2 17q0 49 74 96q31 14 61 29q-246 154 -348 229q-135 104 -293 272z" />
<glyph unicode="&#xc8;" horiz-adv-x="1175" d="M0 1419l37 176q18 14 47 15q8 0 26.5 -2t26.5 -2q23 0 41 10q135 12 350 16q170 4 338 6q20 -20 21 -43q0 -8 -5 -28.5t-5 -32.5t4 -27l-447 -8q-23 -35 -104 -43q-90 -8 -117 -33q16 -270 0 -454q31 -4 63 -4q94 0 242 51q166 59 240 67q35 -16 35 -61q-2 -66 0 -70 q-84 -59 -269 -94q-203 -39 -274 -74q-20 -43 -21 -94q0 -35 13.5 -106.5t13.5 -106.5q0 -59 -29 -106q-8 -33 -8 -58q0 -88 150 -88h36.5h36.5q92 0 133 -22q113 2 349 -21q10 -31 12 -78v-79q-291 -2 -901 -25q-25 156 -25 352q0 111 11.5 336t11.5 336q0 223 -33 395z M256 1874q0 80 135 107l246 -230l-49 -71l-215 110q-66 -14 -111 57q-6 12 -6 27z" />
<glyph unicode="&#xc9;" horiz-adv-x="1175" d="M0 1419l37 176q18 14 47 15q8 0 26.5 -2t26.5 -2q23 0 41 10q135 12 350 16q170 4 338 6q20 -20 21 -43q0 -8 -5 -28.5t-5 -32.5t4 -27l-447 -8q-23 -35 -104 -43q-90 -8 -117 -33q16 -270 0 -454q31 -4 63 -4q94 0 242 51q166 59 240 67q35 -16 35 -61q-2 -66 0 -70 q-84 -59 -269 -94q-203 -39 -274 -74q-20 -43 -21 -94q0 -35 13.5 -106.5t13.5 -106.5q0 -59 -29 -106q-8 -33 -8 -58q0 -88 150 -88h36.5h36.5q92 0 133 -22q113 2 349 -21q10 -31 12 -78v-79q-291 -2 -901 -25q-25 156 -25 352q0 111 11.5 336t11.5 336q0 223 -33 395z M311 1757l49 -71l215 110q66 -14 111 57q6 14 6 27q0 82 -135 107z" />
<glyph unicode="&#xca;" horiz-adv-x="1175" d="M0 1419l37 176q18 14 47 15q8 0 26.5 -2t26.5 -2q23 0 41 10q135 12 350 16q170 4 338 6q20 -20 21 -43q0 -8 -5 -28.5t-5 -32.5t4 -27l-447 -8q-23 -35 -104 -43q-90 -8 -117 -33q16 -270 0 -454q31 -4 63 -4q94 0 242 51q166 59 240 67q35 -16 35 -61q-2 -66 0 -70 q-84 -59 -269 -94q-203 -39 -274 -74q-20 -43 -21 -94q0 -35 13.5 -106.5t13.5 -106.5q0 -59 -29 -106q-8 -33 -8 -58q0 -88 150 -88h36.5h36.5q92 0 133 -22q113 2 349 -21q10 -31 12 -78v-79q-291 -2 -901 -25q-25 156 -25 352q0 111 11.5 336t11.5 336q0 223 -33 395z M84 1794q51 76 175 165t208 110l330 -262q-8 -96 -104 -117q-115 141 -240 221q-16 0 -115 -84q-59 -49 -119 -98q-31 -10 -55 -10q-68 0 -80 75z" />
<glyph unicode="&#xcb;" horiz-adv-x="1175" d="M0 1419l37 176q18 14 47 15q8 0 26.5 -2t26.5 -2q23 0 41 10q135 12 350 16q170 4 338 6q20 -20 21 -43q0 -8 -5 -28.5t-5 -32.5t4 -27l-447 -8q-23 -35 -104 -43q-90 -8 -117 -33q16 -270 0 -454q31 -4 63 -4q94 0 242 51q166 59 240 67q35 -16 35 -61q-2 -66 0 -70 q-84 -59 -269 -94q-203 -39 -274 -74q-20 -43 -21 -94q0 -35 13.5 -106.5t13.5 -106.5q0 -59 -29 -106q-8 -33 -8 -58q0 -88 150 -88h36.5h36.5q92 0 133 -22q113 2 349 -21q10 -31 12 -78v-79q-291 -2 -901 -25q-25 156 -25 352q0 111 11.5 336t11.5 336q0 223 -33 395z M195 1774q4 -68 24 -66q6 10 39 4q23 12 67 10t60 2q10 16 10 45q-2 43 -2 48h2q2 23 -8 57q14 45 -4 63q-8 6 -21 7q-4 0 -67 -29l-84 -14q-4 4 -16 -39v-88zM530 1769q2 41 2 48h-2q-2 23 9 57q-14 45 4 63q8 6 20 7q4 0 68 -29l84 -14q2 2 16 -39q-2 -45 -2 -88 q-2 -70 -22 -66q-8 8 -39 4q-23 12 -64 10q-49 -2 -63 2q-12 14 -11 45z" />
<glyph unicode="&#xcc;" horiz-adv-x="882" d="M4 1884q0 80 135 107l246 -230l-49 -71l-215 110q-66 -14 -111 57q-6 12 -6 27zM84 1597q0 37 68 41q18 -8 49 -8q12 0 36.5 2t36.5 2q55 0 76 -32q15 -137 -51 -203q35 -330 35 -584q0 -199 -21 -389l11 -356q-53 -70 -109 -70q-14 0 -31 4q-31 23 -30 57q-2 66 -2 70 q-2 133 4 369q6 262 6 368q0 430 -72 713q-6 8 -6 16z" />
<glyph unicode="&#xcd;" horiz-adv-x="663" d="M16 1751l50 -72l215 111q66 -14 110 57q6 12 6 27q0 79 -135 104zM82 1587q-17 -135 51 -203q-35 -330 -35 -581q0 -201 21 -391l-10 -357q51 -70 108 -69q14 0 31 4q31 23 31 59q0 63 2 68q0 133 -5 368q-8 262 -8 369q0 430 74 713q4 8 4 16q0 37 -65 41q-20 -6 -52 -6 h-36q-25 2 -37 2q-55 0 -74 -33z" />
<glyph unicode="&#xce;" horiz-adv-x="952" d="M8 1796q51 76 175 165t208 110l330 -262q-8 -96 -104 -117q-115 141 -240 221q-16 0 -115 -84q-59 -49 -119 -98q-31 -10 -55 -10q-68 0 -80 75zM225 1589q0 37 68 41q18 -8 49 -8q12 0 36.5 2t36.5 2q55 0 76 -32q15 -137 -51 -203q35 -330 35 -584q0 -199 -21 -389 l11 -356q-53 -70 -109 -70q-14 0 -31 4q-31 23 -30 57q-2 66 -2 70q-2 133 4 369q6 262 6 368q0 430 -72 713q-6 8 -6 16z" />
<glyph unicode="&#xcf;" horiz-adv-x="1085" d="M23 1790q-4 -20 5 -40.5t30 -20.5q57 2 86 -2q4 -6 10 -6q4 0 14.5 6t16.5 4q6 0 20.5 -2t22.5 -2q8 2 16 12q14 23 15 66q-2 61 0 71q-8 8 -9 19q0 8 5.5 24.5t5.5 24.5q0 16 -21 23q-53 6 -106 6q-45 12 -70 6h-10q-8 0 -11.5 -3t-9.5 -1q-4 -8 -4 -19q0 -18 11.5 -56 t11.5 -56q0 -33 -29 -54zM270 1599q0 37 68 41q18 -8 49 -8q12 0 36.5 2t36.5 2q55 0 76 -32q15 -137 -51 -203q35 -330 35 -584q0 -199 -21 -389l11 -356q-53 -70 -109 -70q-14 0 -31 4q-31 23 -30 57q-2 66 -2 70q-2 133 4 369q6 262 6 368q0 430 -72 713q-6 8 -6 16z M535 1942q0 16 20 22q53 6 107 7q45 14 70 6h10q8 0 11 -2t9 -2q4 -8 4 -19q0 -18 -11 -56t-11 -54q0 -35 29 -56q4 -18 -5.5 -39.5t-29.5 -21.5q-57 2 -86 -2q-4 -4 -11 -4q-4 0 -14 6t-16 2q-6 0 -23 -2q-12 -2 -20 0t-17 10q-14 23 -14 68q2 61 0 69q8 8 8 21 q0 8 -5 24.5t-5 22.5z" />
<glyph unicode="&#xd0;" horiz-adv-x="1648" d="M-156 780q0 23 33 76q4 0 10.5 21.5t48 23.5t138.5 6v133l-18 173q-17 173 -17 278q0 125 24 162q399 0 523 -25q104 -20 268 -96q143 -68 197 -68q14 0 26 2q82 18 178.5 -161t79.5 -279q-63 -401 -258 -618q-309 -344 -1016 -412q13 162 13 754q-143 -6 -207 -15 q-23 23 -23 45zM246 711q0 -23 13 -32t13 -132q0 -131 -14 -344q143 14 383 149q223 127 254 121q49 -8 145.5 183.5t94.5 310.5q0 254 -240 387q-229 127 -637 123v-557q91 4 320 22q35 -86 34 -127q0 -25 -11 -31t-19 -8q-133 -25 -213 -24q-59 0 -111 10q-12 -29 -12 -51 z" />
<glyph unicode="&#xd1;" horiz-adv-x="1433" d="M0 444q51 193 31 549q-20 387 8 553q141 10 178 -53q8 -78 78 -158q27 -31 137 -131q49 -123 189 -293q180 -225 217 -282q35 35 34 102q0 12 -2 39v39q0 53 17 88q0 23 5 71t5 72q0 82 -53 123q6 37 49 135q37 86 37 140q0 31 -10 59q-31 16 -31 59v70q66 27 194 12 q16 -135 17 -178q0 -96 -35 -164l-2 -305q0 -152 -35 -463q-31 -297 -29 -446q-59 31 -102 113q-35 68 -70 135q-49 74 -188 241q-127 150 -180 246q-55 20 -96 67.5t-50 98.5l-94 80l-18 -16l-8 -867q41 -25 40 -74q0 -20 -8 -38q-20 -43 -84 -56l-110 -12l-21 23 q-2 43 6 129q6 94 7 135q0 92 -23 157zM196 1755q96 160 189 160q66 0 161 -49q18 -10 34 -19.5t42 -9.5q37 0 83 25.5t69 58.5q84 -8 94 -96q-20 -31 -47 -52q-39 -29 -76 -55q-55 -12 -98 -12t-73 14t-53.5 26.5t-129.5 59.5q-55 -23 -58.5 -26t-25.5 -64q-41 -25 -70 -25 q-45 0 -41 64z" />
<glyph unicode="&#xd2;" d="M8 758q0 274 137 565q20 47 137 101.5t144 119.5q174 86 389 86q219 0 416 -88q170 -78 244 -235q51 -117 63 -320q18 -311 23 -330q-55 -217 -226 -395q-186 -197 -428 -250q-70 -14 -143 -14q-268 0 -549 201q-207 227 -207 559zM182 662q51 -51 88 -164 q41 -133 70 -172q57 -86 182 -111q113 -20 209 -20q170 0 287 65q-8 39 35 39h16q12 -2 18 -2q39 0 58 18q205 190 205 375q0 80 -39 154q14 41 30.5 85t18.5 81q16 31 16 63q0 51 -53 121l-86 113q-158 127 -342 127q-78 0 -147 -27q-25 6 -50 6q-47 0 -138 -27.5 t-140 -29.5q-139 -168 -215 -359q-4 -35 0 -96q6 -74 6 -98q0 -84 -29 -141zM586 1884q0 80 135 107l246 -230l-49 -71l-215 110q-66 -14 -111 57q-6 12 -6 27z" />
<glyph unicode="&#xd3;" d="M-78 657q55 -217 225 -395q186 -197 428 -250q70 -14 144 -14q268 0 549 201q207 227 207 559q0 274 -138 565q-20 47 -137 101.5t-143 119.5q-174 86 -389 86q-219 0 -416 -88q-170 -78 -244 -235q-51 -117 -63 -320q-18 -311 -23 -330zM106 1073q0 51 54 121l86 113 q158 127 342 127q78 0 147 -27q25 6 49 6q47 0 138.5 -27.5t140.5 -29.5q139 -168 215 -359q4 -35 0 -96q-6 -74 -6 -98q0 -84 28 -141q-51 -51 -88 -164q-41 -133 -69 -172q-57 -86 -182 -111q-113 -20 -209 -20q-170 0 -287 65q8 39 -35 39h-16q-12 -2 -19 -2 q-39 0 -57 18q-205 190 -205 375q0 80 39 154q-14 41 -30.5 85t-18.5 81q-16 31 -17 63zM518 1765l49 -71l215 110q66 -14 111 58q6 12 6 26q0 80 -135 107z" />
<glyph unicode="&#xd4;" d="M8 758q0 274 137 565q20 47 137 101.5t144 119.5q174 86 389 86q219 0 416 -88q170 -78 244 -235q51 -117 63 -320q18 -311 23 -330q-55 -217 -226 -395q-186 -197 -428 -250q-70 -14 -143 -14q-268 0 -549 201q-207 227 -207 559zM182 662q51 -51 88 -164 q41 -133 70 -172q57 -86 182 -111q113 -20 209 -20q170 0 287 65q-8 39 35 39h16q12 -2 18 -2q39 0 58 18q205 190 205 375q0 80 -39 154q14 41 30.5 85t18.5 81q16 31 16 63q0 51 -53 121l-86 113q-158 127 -342 127q-78 0 -147 -27q-25 6 -50 6q-47 0 -138 -27.5 t-140 -29.5q-139 -168 -215 -359q-4 -35 0 -96q6 -74 6 -98q0 -84 -29 -141zM428 1794q51 76 175 165t208 110l330 -262q-8 -96 -104 -117q-115 141 -240 221q-16 0 -115 -84q-59 -49 -119 -98q-31 -10 -55 -10q-68 0 -80 75z" />
<glyph unicode="&#xd5;" d="M8 758q0 274 137 565q20 47 137 101.5t144 119.5q174 86 389 86q219 0 416 -88q170 -78 244 -235q51 -117 63 -320q18 -311 23 -330q-55 -217 -226 -395q-186 -197 -428 -250q-70 -14 -143 -14q-268 0 -549 201q-207 227 -207 559zM182 662q51 -51 88 -164 q41 -133 70 -172q57 -86 182 -111q113 -20 209 -20q170 0 287 65q-8 39 35 39h16q12 -2 18 -2q39 0 58 18q205 190 205 375q0 80 -39 154q14 41 30.5 85t18.5 81q16 31 16 63q0 51 -53 121l-86 113q-158 127 -342 127q-78 0 -147 -27q-25 6 -50 6q-47 0 -138 -27.5 t-140 -29.5q-139 -168 -215 -359q-4 -35 0 -96q6 -74 6 -98q0 -84 -29 -141zM356 1765q96 160 189 160q66 0 161 -49q18 -10 34 -19.5t42 -9.5q37 0 83 25.5t69 58.5q84 -8 94 -96q-20 -31 -47 -52q-39 -29 -76 -55q-55 -12 -98 -12t-73 14t-53.5 26.5t-129.5 59.5 q-55 -23 -58.5 -26t-25.5 -64q-41 -25 -70 -25q-45 0 -41 64z" />
<glyph unicode="&#xd6;" d="M74 766q0 274 137 565q20 47 137 101.5t144 119.5q174 86 389 86q219 0 416 -88q170 -78 244 -235q51 -117 63 -320q18 -311 23 -330q-55 -217 -226 -395q-186 -197 -428 -250q-70 -14 -143 -14q-268 0 -549 201q-207 227 -207 559zM248 670q51 -51 88 -164 q41 -133 70 -172q57 -86 182 -111q113 -20 209 -20q170 0 287 65q-8 39 35 39h16q12 -2 18 -2q39 0 58 18q205 190 205 375q0 80 -39 154q14 41 30.5 85t18.5 81q16 31 16 63q0 51 -53 121l-86 113q-158 127 -342 127q-78 0 -147 -27q-25 6 -50 6q-47 0 -138 -27.5 t-140 -29.5q-139 -168 -215 -359q-4 -35 0 -96q6 -74 6 -98q0 -84 -29 -141zM387 1788q-4 -20 5 -40.5t30 -20.5q57 2 86 -2q4 -6 10 -6q4 0 14.5 6t16.5 4q6 0 20.5 -2t22.5 -2q8 2 16 12q14 23 15 66q-2 61 0 71q-8 8 -9 19q0 8 5.5 24.5t5.5 24.5q0 16 -21 23 q-53 6 -106 6q-45 12 -70 6h-10q-8 0 -11.5 -3t-9.5 -1q-4 -8 -4 -19q0 -18 11.5 -56t11.5 -56q0 -33 -29 -54zM899 1940q0 16 20 22q53 6 107 7q45 14 70 6h10q8 0 11 -2t9 -2q4 -8 4 -19q0 -18 -11 -56t-11 -54q0 -35 29 -56q4 -18 -5.5 -39.5t-29.5 -21.5q-57 2 -86 -2 q-4 -4 -11 -4q-4 0 -14 6t-16 2q-6 0 -23 -2q-12 -2 -20 0t-17 10q-14 23 -14 68q2 61 0 69q8 8 8 21q0 8 -5 24.5t-5 22.5z" />
<glyph unicode="&#xd7;" horiz-adv-x="1073" d="M-14 1069q0 86 127 90l313 -313q41 59 133 172q78 59 180 139q96 -68 121 -121q-53 -92 -196 -182q-117 -72 -117 -129l-2 2q322 -274 321 -311q0 -6 -4 -6q4 -23 4 -48q0 -90 -63 -90q-27 0 -64 17q-115 84 -204 203q-72 98 -109 110q-25 -18 -49 -37q-39 -31 -47 -67 q-27 -49 -94 -136q-57 -74 -66 -77q-23 14 -55 14q-8 0 -23 -2h-18q-37 0 -37 47q0 15 2 35q-2 -8 -2 -10v-2q-6 0 110.5 170t180.5 180q-59 47 -146 129q-59 76 -192 190q-4 16 -4 33z" />
<glyph unicode="&#xd8;" d="M104 655q0 242 125 498q18 41 126 88t130 107q160 76 357 75q166 0 319 -53q16 33 45 88q2 25 51.5 44.5t94.5 19.5q25 0 34 -6q10 -14 19.5 -62.5t21.5 -60.5q-96 -33 -96 -64q0 -10 11.5 -29.5t9.5 -31.5q209 -299 209 -563q0 -285 -234 -494q-182 -166 -401 -211 q-63 -14 -129 -14q-137 0 -281 57q-59 -18 -121 -37q-96 -29 -151 -29q-47 0 -66 21q-4 10 -4 20q0 31 51 76q59 51 68 70q-188 199 -189 491zM262 569q47 -43 78 -133q41 -119 55 -145q-8 -16 -8 -23q0 -2 2 -2q10 0 252 375q273 422 365 537q-18 6 -91 39q-47 20 -79 20 q-27 0 -56 -10q-23 4 -43 4q-45 0 -129 -23.5t-129 -25.5q-125 -150 -196 -316q-2 -33 2 -86q4 -66 4 -88q0 -72 -27 -123zM516 43zM561 176q70 -16 144 -16q174 0 362 86q76 0 170 100q139 123 139 328t-151 442q-160 -203 -322 -407q-324 -426 -342 -533zM1161 1370z" />
<glyph unicode="&#xd9;" horiz-adv-x="1705" d="M0 1112q-2 131 37 451l162 34q8 -23 8 -51q0 -31 -17 -104q-14 -66 -10 -99q12 -109 35 -520q16 -330 57 -520q63 -106 256 -115q68 6 137.5 13.5t100.5 52.5q39 43 141 221q18 121 19 281q0 78 -6.5 235.5t-6.5 235.5q0 76 5 139q6 14 6 29q0 29 -38 69.5t-38 65.5 q0 16 12 33q-8 16 -8 26q0 27 39 37q4 2 74 12q119 4 217 -26q0 -131 -54 -410q-49 -256 -41 -391q6 -102 -28 -254q-43 -180 -47 -246q-35 -35 -77 -115.5t-73 -111.5q-51 -51 -135 -59q-80 -25 -180 -25q-137 0 -264 43q-147 80 -207 213q-45 104 -45 270q0 53 5 160 t5 160q0 162 -41 266zM362 1878q0 80 135 107l246 -230l-49 -71l-215 110q-66 -14 -111 57q-6 12 -6 27z" />
<glyph unicode="&#xda;" horiz-adv-x="1705" d="M-92 1612q0 -131 53 -410q49 -256 41 -391q-6 -102 29 -254q43 -180 47 -246q35 -35 77 -115.5t72 -111.5q51 -51 135 -59q80 -25 181 -25q137 0 264 43q147 80 207 213q45 104 45 270q0 53 -5 160t-5 160q0 162 41 266q2 131 -37 451l-162 34q-8 -23 -8 -51 q0 -31 16 -104q14 -66 10 -99q-12 -109 -35 -520q-16 -330 -57 -520q-63 -106 -256 -115q-68 6 -137.5 13.5t-99.5 52.5q-39 43 -142 221q-18 121 -18 281q0 78 6 235.5t6 235.5q0 76 -4 139q-6 14 -6 29q0 29 38 69.5t38 65.5q0 16 -13 33q8 16 9 26q0 27 -39 37 q-4 2 -74 12q-119 4 -217 -26zM356 1769l50 -71l215 110q66 -14 110 58q6 12 6 26q0 80 -135 105z" />
<glyph unicode="&#xdb;" horiz-adv-x="1673" d="M0 1112q-2 131 37 451l162 34q8 -23 8 -51q0 -31 -17 -104q-14 -66 -10 -99q12 -109 35 -520q16 -330 57 -520q63 -106 256 -115q68 6 137.5 13.5t100.5 52.5q39 43 141 221q18 121 19 281q0 78 -6.5 235.5t-6.5 235.5q0 76 5 139q6 14 6 29q0 29 -38 69.5t-38 65.5 q0 16 12 33q-8 16 -8 26q0 27 39 37q4 2 74 12q119 4 217 -26q0 -131 -54 -410q-49 -256 -41 -391q6 -102 -28 -254q-43 -180 -47 -246q-35 -35 -77 -115.5t-73 -111.5q-51 -51 -135 -59q-80 -25 -180 -25q-137 0 -264 43q-147 80 -207 213q-45 104 -45 270q0 53 5 160 t5 160q0 162 -41 266zM182 1798q51 76 175 165t208 110l330 -262q-8 -96 -104 -117q-115 141 -240 221q-16 0 -115 -84q-59 -49 -119 -98q-31 -10 -55 -10q-68 0 -80 75z" />
<glyph unicode="&#xdc;" horiz-adv-x="1705" d="M0 1112q-2 131 37 451l162 34q8 -23 8 -51q0 -31 -17 -104q-14 -66 -10 -99q12 -109 35 -520q16 -330 57 -520q63 -106 256 -115q68 6 137.5 13.5t100.5 52.5q39 43 141 221q18 121 19 281q0 78 -6.5 235.5t-6.5 235.5q0 76 5 139q6 14 6 29q0 29 -38 69.5t-38 65.5 q0 16 12 33q-8 16 -8 26q0 27 39 37q4 2 74 12q119 4 217 -26q0 -131 -54 -410q-49 -256 -41 -391q6 -102 -28 -254q-43 -180 -47 -246q-35 -35 -77 -115.5t-73 -111.5q-51 -51 -135 -59q-80 -25 -180 -25q-137 0 -264 43q-147 80 -207 213q-45 104 -45 270q0 53 5 160 t5 160q0 162 -41 266zM174 1781q-4 -20 5 -40.5t30 -20.5q57 2 86 -2q4 -6 10 -6q4 0 14.5 6t16.5 4q6 0 20.5 -2t22.5 -2q8 2 16 12q14 23 15 66q-2 61 0 71q-8 8 -9 19q0 8 5.5 24.5t5.5 24.5q0 16 -21 23q-53 6 -106 6q-45 12 -70 6h-10q-8 0 -11.5 -3t-9.5 -1 q-4 -8 -4 -19q0 -18 11.5 -56t11.5 -56q0 -33 -29 -54zM686 1933q0 16 20 22q53 6 107 7q45 14 70 6h10q8 0 11 -2t9 -2q4 -8 4 -19q0 -18 -11 -56t-11 -54q0 -35 29 -56q4 -18 -5.5 -39.5t-29.5 -21.5q-57 2 -86 -2q-4 -4 -11 -4q-4 0 -14 6t-16 2q-6 0 -23 -2 q-12 -2 -20 0t-17 10q-14 23 -14 68q2 61 0 69q8 8 8 21q0 8 -5 24.5t-5 22.5z" />
<glyph unicode="&#xdd;" horiz-adv-x="1376" d="M0 1516q16 68 6 114q20 8 47 8q12 0 72 -6q47 -6 76 0q104 -84 198 -243q123 -211 162 -259q14 -51 17 -51q10 -29 32 -45q68 113 156 283q74 145 147 289q33 29 117 28q6 0 117 -8q-6 -57 -12 -115q-14 -65 -88 -57q-80 -63 -132 -190q-68 -166 -92 -203 q-127 -264 -256 -529q-143 -303 -239 -532l-197 4q-10 35 -10 66q0 102 147 239q156 141 166 244q6 47 58 154q47 98 47 151q0 74 -69 134.5t-148 178.5q-100 154 -129 191q-84 102 -193 154zM258 1870q18 -23 39 -43q29 -29 27 -39q27 -35 106 -102q92 -78 94 -80 q23 -20 45 -21q27 2 29 0q158 160 252 213q-12 121 -74 135q-29 -43 -57 -84q-59 -80 -127 -131q-33 0 -76 33q-35 39 -67 78q-57 66 -58 84q0 6 2 6q-37 27 -59 27q-25 0 -41.5 -33t-28.5 -31q-4 -6 -6 -12z" />
<glyph unicode="&#xde;" horiz-adv-x="1277" d="M-2 1470q0 205 18 293q14 25 43 25q35 0 88 -35q25 -16 50 -35q-31 -31 -31 -131q0 -76 18 -186q8 -49 19 -98q217 0 446 -113q250 -125 250 -270q0 -27 -13.5 -104t-13.5 -109q0 -29 7 -45q18 -51 -207 -199q-240 -154 -434 -184l-21 -148q-4 -25 10 -92q16 -80 17 -92 q4 -53 -47 -53q-31 0 -166 59q-8 297 -2 766q16 207 12 131q-4 39 -14 82q-4 20 2 67q-31 168 -31 471zM201 535q0 -41 2 -66q188 23 436 135q35 16 35 96q0 88 -39 226q-12 133 -111 172q-77 28 -321 28q12 -70 12 -180q0 -78 -7 -220t-7 -191z" />
<glyph unicode="&#xdf;" horiz-adv-x="1251" d="M145 369q0 80 29 167t29 166q0 135 -27 328q2 207 39 289q14 31 73.5 74t73.5 82q23 55 236 55q88 0 194.5 -68.5t149.5 -161.5q31 -39 31 -83q0 -70 -101.5 -203t-101.5 -189q0 -94 188 -149q96 -29 177 -152q70 -106 69 -174q0 -139 -102 -237q-66 -63 -121 -84 q-45 -14 -141 -15q-127 0 -222 68q-41 29 -65 72q-6 10 -43 90q0 123 98 123q29 0 47.5 -14.5t10.5 -37.5q8 -12 32 -73q14 -31 33 -45q49 -35 105 -35q27 0 52 28.5t48 34.5q84 20 84 111q0 197 -348 354q-4 6 -42 83t-38 73q0 8 51 98q63 115 129 176q-14 137 -76 207 q-53 63 -129 64q-94 0 -168 -86q-78 -92 -77 -224q0 -43 8 -86l59 -897q16 -16 17 -37q0 -57 -93 -57q-61 0 -143 35q-25 193 -25 330z" />
<glyph unicode="&#xe0;" horiz-adv-x="1544" d="M-12 33q-6 96 67 225q102 180 113 213q90 258 131 363q78 201 158 350q49 119 141 356q-6 49 29 82q43 39 84 16q51 -35 67 -118q27 -137 27 -142q39 -57 96 -213q49 -139 109 -209q47 -154 131 -376q72 -188 141 -377q39 -76 39 -117q0 -49 -41 -76q-14 -10 -33 -10 q-45 0 -80 41q-84 233 -249 698q-20 25 -64 25q-29 0 -59 -10q-41 -14 -99 -15q-20 0 -60 2t-58 2q-66 0 -111 -20q-78 -166 -225 -502q10 -20 10 -43q0 -31 -16 -74q-14 -35 -31 -71q-57 -8 -107 -8q-49 0 -110 8zM483 1915q0 -27 17 -62l129 132q-145 6 -146 -70z M500 1853l129 132l245 -228l-49 -71l-215 110q-66 -14 -110 57zM522 901q23 4 49 4q35 0 113 -12t117 -12q27 0 49 4l-78 200q-51 117 -119 172q-20 -43 -55 -178q-31 -117 -76 -178z" />
<glyph unicode="&#xe1;" horiz-adv-x="1470" d="M-29 86q0 -49 39 -76q16 -10 35 -10q43 0 78 41q84 231 250 698q20 25 63 25q31 0 60 -10q43 -14 98 -15q20 0 61 2t60 2q63 0 108 -20q78 -168 226 -502q-8 -20 -9 -43q0 -31 17 -74q14 -35 28 -71q59 -8 109 -8q49 0 109 8q8 96 -66 225q-102 180 -115 213 q-90 258 -129 363q-78 201 -159 350q-49 119 -142 356q6 49 -28 82q-41 39 -84 16q-51 -35 -66 -118q-27 -137 -29 -142q-37 -57 -94 -213q-51 -139 -110 -209q-45 -154 -129 -376q-72 -188 -144 -377q-37 -76 -37 -117zM422 1858q0 -51 37 -74q27 -14 96 -27l246 230 l-49 71l-215 -110q-66 14 -111 -58q-4 -18 -4 -32zM440 885q41 100 80 200q51 117 117 172q23 -43 57 -178q31 -117 74 -178q-20 4 -47 4q-37 0 -114 -12t-115 -12q-27 0 -52 4z" />
<glyph unicode="&#xe2;" horiz-adv-x="1527" d="M-12 33q-6 96 67 225q102 180 113 213q90 258 131 363q78 201 158 350q49 119 141 356q-6 49 29 82q43 39 84 16q51 -35 67 -118q27 -137 27 -142q39 -57 96 -213q49 -139 109 -209q47 -154 131 -376q72 -188 141 -377q39 -76 39 -117q0 -49 -41 -76q-14 -10 -33 -10 q-45 0 -80 41q-84 233 -249 698q-20 25 -64 25q-29 0 -59 -10q-41 -14 -97 -15q-23 0 -62.5 2t-57.5 2q-66 0 -111 -20q-78 -166 -225 -502q10 -20 10 -43q0 -31 -16 -74q-14 -35 -31 -71q-57 -8 -107 -8q-49 0 -110 8zM329 1787q51 76 175 165t208 110l330 -262 q-8 -96 -104 -117q-115 141 -240 221q-16 0 -115 -84q-59 -49 -119 -98q-31 -10 -55 -10q-68 0 -80 75zM522 901q23 4 49 4q35 0 113 -12t117 -12q27 0 49 4l-78 200q-51 117 -119 172q-20 -43 -55 -178q-31 -117 -76 -178z" />
<glyph unicode="&#xe3;" horiz-adv-x="1517" d="M-12 33q-6 96 67 225q102 180 113 213q90 258 131 363q78 201 158 350q49 119 141 356q-6 49 29 82q43 39 84 16q51 -35 67 -118q27 -137 27 -142q39 -57 96 -213q49 -139 109 -209q47 -154 131 -376q72 -188 141 -377q39 -76 39 -117q0 -49 -41 -76q-14 -10 -33 -10 q-45 0 -80 41q-84 233 -249 698q-20 25 -64 25q-29 0 -59 -10q-41 -14 -97 -15q-23 0 -62.5 2t-57.5 2q-66 0 -111 -20q-78 -166 -225 -502q10 -20 10 -43q0 -31 -16 -74q-14 -35 -31 -71q-57 -8 -107 -8q-49 0 -110 8zM366 1772q96 160 189 160q66 0 161 -49 q18 -10 34 -19.5t42 -9.5q37 0 83 25.5t69 58.5q84 -8 94 -96q-20 -31 -47 -52q-39 -29 -76 -55q-55 -12 -98 -12t-73 14t-53.5 26.5t-129.5 59.5q-55 -23 -58.5 -26t-25.5 -64q-41 -25 -70 -25q-45 0 -41 64zM522 901q23 4 49 4q35 0 113 -12t117 -12q27 0 49 4l-78 200 q-51 117 -119 172q-20 -43 -55 -178q-31 -117 -76 -178z" />
<glyph unicode="&#xe4;" horiz-adv-x="1509" d="M-12 33q-6 96 67 225q102 180 113 213q90 258 131 363q78 201 158 350q49 119 141 356q-6 49 29 82q43 39 84 16q51 -35 67 -118q27 -137 27 -142q39 -57 96 -213q49 -139 109 -209q47 -154 131 -376q72 -188 141 -377q39 -76 39 -117q0 -49 -41 -76q-14 -10 -33 -10 q-45 0 -80 41q-84 233 -249 698q-20 25 -64 25q-29 0 -59 -10q-41 -14 -97 -15q-23 0 -62.5 2t-57.5 2q-66 0 -111 -20q-78 -166 -225 -502q10 -20 10 -43q0 -31 -16 -74q-14 -35 -31 -71q-57 -8 -107 -8q-49 0 -110 8zM313 1775q-4 -20 5 -40.5t30 -20.5q57 2 86 -2 q4 -6 10 -6q4 0 14.5 6t16.5 4q6 0 20.5 -2t22.5 -2q8 2 16 12q14 23 15 66q-2 61 0 71q-8 8 -9 19q0 8 5.5 24.5t5.5 24.5q0 16 -21 23q-53 6 -106 6q-45 12 -70 6h-10q-8 0 -11.5 -3t-9.5 -1q-4 -8 -4 -19q0 -18 11.5 -56t11.5 -56q0 -33 -29 -54zM522 901q23 4 49 4 q35 0 113 -12t117 -12q27 0 49 4l-78 200q-51 117 -119 172q-20 -43 -55 -178q-31 -117 -76 -178zM825 1927q0 16 20 22q53 6 107 7q45 14 70 6h10q8 0 11 -2t9 -2q4 -8 4 -19q0 -18 -11 -56t-11 -54q0 -35 29 -56q4 -18 -5.5 -39.5t-29.5 -21.5q-57 2 -86 -2q-4 -4 -11 -4 q-4 0 -14 6t-16 2q-6 0 -23 -2q-12 -2 -20 0t-17 10q-14 23 -14 68q2 61 0 69q8 8 8 21q0 8 -5 24.5t-5 22.5z" />
<glyph unicode="&#xe5;" horiz-adv-x="1540" d="M-12 33q-6 96 67 225q102 180 113 213q90 258 131 363q78 201 158 350q49 119 141 356q-6 49 29 82q43 39 84 16q51 -35 67 -118q27 -137 27 -142q39 -57 96 -213q49 -139 109 -209q47 -154 131 -376q72 -188 141 -377q39 -76 39 -117q0 -49 -41 -76q-14 -10 -33 -10 q-45 0 -80 41q-84 233 -249 698q-20 25 -64 25q-29 0 -59 -10q-41 -14 -97 -15q-23 0 -62.5 2t-57.5 2q-66 0 -111 -20q-78 -166 -225 -502q10 -20 10 -43q0 -31 -16 -74q-14 -35 -31 -71q-57 -8 -107 -8q-49 0 -110 8zM461 1835q0 80 49 69q27 -6 82 26t92 30 q90 -10 151.5 -45t61.5 -80q0 -14 -6 -29q-94 -184 -223 -184q-156 0 -199 158q-8 27 -8 55zM522 901q23 4 49 4q35 0 113 -12t117 -12q27 0 49 4l-78 200q-51 117 -119 172q-20 -43 -55 -178q-31 -117 -76 -178zM584 1788q0 -41 26.5 -64.5t67.5 -23.5q29 0 37 22 q16 45 33.5 64.5t17.5 40.5q0 53 -84 53q-39 0 -68.5 -25.5t-29.5 -66.5z" />
<glyph unicode="&#xe6;" horiz-adv-x="1972" d="M6 86q84 94 385 487q330 432 330 469q0 2 -6 1t-6 6q0 25 131 186q82 98 164 199q57 -4 122 -4q61 0 174 6t166 6q139 0 252 -31q82 14 82 -27q0 -29 -45 -73q-37 0 -276.5 -5.5t-251.5 -5.5q0 -23 -9.5 -98.5t-9.5 -114.5q0 -45 21.5 -90t21.5 -84q0 -37 -12 -107.5 t-12 -88.5q260 0 461 24l6 -161q-2 0 -33 7t-53 7q-18 0 -56.5 -11.5t-74.5 -11.5q-55 0 -153 7l-97 8q-16 -49 -17 -99q0 -47 20.5 -123.5t20.5 -115.5q0 -51 -24 -98q-4 0 62.5 -11.5t109.5 -11.5t74.5 20.5t78.5 20.5q31 0 119 -8q76 -6 109 -4q39 -35 39 -70 q0 -18 -11 -49q-16 -41 -20 -57q-41 0 -388 10t-364 10q-23 92 -22 166q0 92 33 244v161l-496 -10q-88 -27 -234 -289q-78 -152 -155 -305q-135 0 -156 119zM639 690l408 12v560h-11q-94 -168 -190 -338q-98 -160 -207 -234z" />
<glyph unicode="&#xe7;" horiz-adv-x="1206" d="M-72 745q61 61 125 123q70 72 88 136q78 78 160 118q12 10 274 273q156 156 306 233q16 8 34 8q31 0 53.5 -22.5t26.5 -46.5q-39 -94 -176 -203q-172 -135 -217 -190q-18 -39 -98 -109t-96 -115q-53 -39 -107 -78q-59 -45 -84 -92q29 -104 150 -207q61 -51 235 -163 q68 -66 172 -125q176 -98 189 -107q0 -18 5 -56t5 -54q0 -45 -33 -58q-53 45 -104 92q-49 39 -140 68q-43 6 -43 -37q0 -51 27 -65q16 -43 98 -138q70 -80 70 -118q0 -18 -12 -33q-20 -72 -125 -94q-111 -14 -224 -27q-119 43 -118 96q0 23 30 25q279 14 281 94 q2 78 -156 104q-8 23 -55 68q-39 39 -33 57q-2 8 -2 17q0 49 74 96q31 14 61 29q-246 154 -348 229q-135 104 -293 272z" />
<glyph unicode="&#xe8;" horiz-adv-x="1142" d="M-14 1419l37 176q18 14 47 15q8 0 26.5 -2t26.5 -2q23 0 41 10q135 12 350 16q170 4 338 6q20 -20 20 -43q0 -8 -5 -28.5t-5 -32.5t4 -27l-446 -8q-23 -35 -105 -43q-90 -8 -116 -33q16 -270 0 -454q31 -4 63 -4q94 0 242 51q166 59 239 67q35 -16 35 -61q-2 -66 0 -70 q-84 -59 -268 -94q-203 -39 -274 -74q-20 -43 -21 -94q0 -35 13.5 -106.5t13.5 -106.5q0 -59 -29 -106q-8 -33 -8 -58q0 -88 149 -88h37h37q92 0 133 -22q113 2 348 -21q10 -31 13 -78v-79q-291 -2 -902 -25q-25 156 -24 352q0 111 11 336t11 336q0 223 -32 395zM238 1888 q0 80 135 107l246 -230l-49 -71l-215 110q-66 -14 -111 57q-6 12 -6 27z" />
<glyph unicode="&#xe9;" horiz-adv-x="1175" d="M-14 1419l37 176q18 14 47 15q8 0 26.5 -2t26.5 -2q23 0 41 10q135 12 350 16q170 4 338 6q20 -20 20 -43q0 -8 -5 -28.5t-5 -32.5t4 -27l-446 -8q-23 -35 -105 -43q-90 -8 -116 -33q16 -270 0 -454q31 -4 63 -4q94 0 242 51q166 59 239 67q35 -16 35 -61q-2 -66 0 -70 q-84 -59 -268 -94q-203 -39 -274 -74q-20 -43 -21 -94q0 -35 13.5 -106.5t13.5 -106.5q0 -59 -29 -106q-8 -33 -8 -58q0 -88 149 -88h37h37q92 0 133 -22q113 2 348 -21q10 -31 13 -78v-79q-291 -2 -902 -25q-25 156 -24 352q0 111 11 336t11 336q0 223 -32 395zM270 1776 l49 -72l216 111q66 -14 110 57q6 14 6 29q0 79 -135 104z" />
<glyph unicode="&#xea;" horiz-adv-x="1175" d="M-20 1415l37 176q18 14 47 15q8 0 26.5 -2t26.5 -2q23 0 41 10q135 12 350 16q170 4 338 6q20 -20 20 -43q0 -8 -5 -28.5t-5 -32.5t4 -27l-446 -8q-23 -35 -105 -43q-90 -8 -116 -33q16 -270 0 -454q31 -4 63 -4q94 0 242 51q166 59 239 67q35 -16 35 -61q-2 -66 0 -70 q-84 -59 -268 -94q-203 -39 -274 -74q-20 -43 -21 -94q0 -35 13.5 -106.5t13.5 -106.5q0 -59 -29 -106q-8 -33 -8 -58q0 -88 149 -88h37h37q92 0 133 -22q113 2 348 -21q10 -31 13 -78v-79q-291 -2 -902 -25q-25 156 -24 352q0 111 11 336t11 336q0 223 -32 395zM98 1792 q51 76 175 165t208 110l330 -262q-8 -96 -104 -117q-115 141 -240 221q-16 0 -115 -84q-59 -49 -119 -98q-31 -10 -55 -10q-68 0 -80 75z" />
<glyph unicode="&#xeb;" horiz-adv-x="1175" d="M-14 1419l37 176q18 14 47 15q8 0 26.5 -2t26.5 -2q23 0 41 10q135 12 350 16q170 4 338 6q20 -20 20 -43q0 -8 -5 -28.5t-5 -32.5t4 -27l-446 -8q-23 -35 -105 -43q-90 -8 -116 -33q16 -270 0 -454q31 -4 63 -4q94 0 242 51q166 59 239 67q35 -16 35 -61q-2 -66 0 -70 q-84 -59 -268 -94q-203 -39 -274 -74q-20 -43 -21 -94q0 -35 13.5 -106.5t13.5 -106.5q0 -59 -29 -106q-8 -33 -8 -58q0 -88 149 -88h37h37q92 0 133 -22q113 2 348 -21q10 -31 13 -78v-79q-291 -2 -902 -25q-25 156 -24 352q0 111 11 336t11 336q0 223 -32 395zM59 1767 q-4 -20 5 -40.5t30 -20.5q57 2 86 -2q4 -6 10 -6q4 0 14.5 6t16.5 4q6 0 20.5 -2t22.5 -2q8 2 16 12q14 23 15 66q-2 61 0 71q-8 8 -9 19q0 8 5.5 24.5t5.5 24.5q0 16 -21 23q-53 6 -106 6q-45 12 -70 6h-10q-8 0 -11.5 -3t-9.5 -1q-4 -8 -4 -19q0 -18 11.5 -56t11.5 -56 q0 -33 -29 -54zM571 1919q0 16 20 22q53 6 107 7q45 14 70 6h10q8 0 11 -2t9 -2q4 -8 4 -19q0 -18 -11 -56t-11 -54q0 -35 29 -56q4 -18 -5.5 -39.5t-29.5 -21.5q-57 2 -86 -2q-4 -4 -11 -4q-4 0 -14 6t-16 2q-6 0 -23 -2q-12 -2 -20 0t-17 10q-14 23 -14 68q2 61 0 69 q8 8 8 21q0 8 -5 24.5t-5 22.5z" />
<glyph unicode="&#xec;" horiz-adv-x="798" d="M-43 1667q0 80 135 107l246 -230l-49 -71l-215 110q-66 -14 -111 57q-6 12 -6 27zM35 1393q0 33 61 37q16 -8 43 -9q12 0 34 2t34 2q49 0 67 -28q12 -119 -47 -176q31 -287 31 -508q0 -174 -18 -338l10 -312q-47 -59 -98 -59q-12 0 -27 2q-29 20 -29 51v60q-2 117 2 321 q6 227 6 322q0 373 -63 618q-6 8 -6 15z" />
<glyph unicode="&#xed;" horiz-adv-x="536" d="M-45 1550l49 -71l215 110q66 -14 111 58q6 14 6 26q0 82 -135 107zM18 1380q0 33 60 37q18 -6 45 -6h33q23 2 32 2q51 0 68 -29q14 -119 -45 -176q31 -287 31 -506q0 -176 -19 -340l10 -309q-47 -61 -98 -61q-14 0 -26 4q-29 18 -29 49q0 57 -2 61q-2 115 4 320 q6 229 6 322q0 375 -65 620q-4 6 -5 12z" />
<glyph unicode="&#xee;" horiz-adv-x="901" d="M6 1550q51 76 175 165t208 110l330 -262q-8 -96 -104 -117q-115 141 -240 221q-16 0 -115 -84q-59 -49 -119 -98q-31 -10 -55 -10q-68 0 -80 75zM234 1389q0 33 61 37q16 -8 43 -9q12 0 34 2t34 2q49 0 67 -28q12 -119 -47 -176q31 -287 31 -508q0 -174 -18 -338l10 -312 q-47 -59 -98 -59q-12 0 -27 2q-29 20 -29 51v60q-2 117 2 321q6 227 6 322q0 373 -63 618q-6 8 -6 15z" />
<glyph unicode="&#xef;" horiz-adv-x="944" d="M14 1550q-4 -20 5 -40.5t30 -20.5q57 2 86 -2q4 -6 10 -6q4 0 14.5 6t16.5 4q6 0 20.5 -2t22.5 -2q8 2 16 12q14 23 15 66q-2 61 0 71q-8 8 -9 19q0 8 5.5 24.5t5.5 24.5q0 16 -21 23q-53 6 -106 6q-45 12 -70 6h-10q-8 0 -11.5 -3t-9.5 -1q-4 -8 -4 -19q0 -18 11.5 -56 t11.5 -56q0 -33 -29 -54zM268 1387q0 33 61 37q16 -8 43 -9q12 0 34 2t34 2q49 0 67 -28q12 -119 -47 -176q31 -287 31 -508q0 -174 -18 -338l10 -312q-47 -59 -98 -59q-12 0 -27 2q-29 20 -29 51v60q-2 117 2 321q6 227 6 322q0 373 -63 618q-6 8 -6 15zM526 1702 q0 16 20 22q53 6 107 7q45 14 70 6h10q8 0 11 -2t9 -2q4 -8 4 -19q0 -18 -11 -56t-11 -54q0 -35 29 -56q4 -18 -5.5 -39.5t-29.5 -21.5q-57 2 -86 -2q-4 -4 -11 -4q-4 0 -14 6t-16 2q-6 0 -23 -2q-12 -2 -20 0t-17 10q-14 23 -14 68q2 61 0 69q8 8 8 21q0 8 -5 24.5t-5 22.5 z" />
<glyph unicode="&#xf0;" horiz-adv-x="1193" d="M14 434q0 41 11 82q27 117 52 231.5t77 172.5q129 141 323 141q100 0 211 -57q-57 117 -141 213l-275 -127q-57 31 -57 67q0 16 12 35l240 108q-20 18 -115 78q-72 45 -92 88q74 16 92 17q55 0 125 -17q72 -55 125 -102l215 102l43 -102q4 -6 4 -12q0 -31 -82 -52 l-94 -20q330 -377 330 -657q0 -51 -8 -103q-18 -123 -37 -246q-29 -127 -103 -153q-27 -10 -170 -90q-100 -55 -184 -56q-256 0 -397 193q-104 143 -105 266zM209 512q0 -135 12 -190q18 -94 76 -103q31 -4 100.5 -51t118.5 -47q154 0 238 133q67 110 67 274q0 193 -90 293 q-82 94 -194 94q-33 0 -54 -14q-31 -23 -100 -33q-57 -10 -88 -47q-86 -100 -86 -309z" />
<glyph unicode="&#xf1;" horiz-adv-x="1873" d="M-10 444q51 193 30 549q-20 387 9 553q141 10 178 -53q8 -78 78 -158q27 -31 137 -131q49 -123 188 -293q180 -225 217 -282q35 35 35 102q0 12 -2 39v39q0 53 17 88q0 23 5 71t5 72q0 82 -53 123q6 37 49 135q37 86 37 140q0 31 -11 59q-31 16 -30 59v70q66 27 194 12 q16 -135 17 -178q0 -96 -35 -164l-2 -305q0 -152 -35 -463q-31 -297 -29 -446q-59 31 -102 113q-35 68 -70 135q-49 74 -188 241q-127 150 -180 246q-55 20 -96.5 67.5t-49.5 98.5l-94 80l-19 -16l-8 -867q41 -25 41 -74q0 -20 -8 -38q-20 -43 -84 -56q-55 -6 -111 -12 l-20 23q-2 43 6 129q6 94 6 135q0 92 -22 157zM209 1770q96 160 189 160q66 0 161 -49q18 -10 34 -19.5t42 -9.5q37 0 83 25.5t69 58.5q84 -8 94 -96q-20 -31 -47 -52q-39 -29 -76 -55q-55 -12 -98 -12t-73 14t-53.5 26.5t-129.5 59.5q-55 -23 -58.5 -26t-25.5 -64 q-41 -25 -70 -25q-45 0 -41 64z" />
<glyph unicode="&#xf2;" d="M-29 772q0 276 138 567q20 47 136.5 100.5t143.5 121.5q174 86 389 86q219 0 416 -88q170 -78 244 -238q51 -115 63 -320q18 -311 23 -327q-55 -219 -226 -398q-186 -194 -428 -247q-70 -16 -143 -17q-268 0 -549 203q-207 225 -207 557zM145 678q51 -53 88 -166 q41 -131 70 -172q57 -86 182 -109q113 -23 209 -22q170 0 287 67q-8 37 35 37h17h18q39 0 57 19q205 188 205 373q0 80 -39 155q14 39 30.5 83t18.5 83q16 31 16 61q0 51 -53 121q-86 113 -86 115q-158 127 -342 127q-78 0 -147 -27q-25 4 -49 4q-47 0 -138.5 -27.5 t-140.5 -27.5q-139 -170 -215 -358q-4 -37 0 -99q6 -74 6 -98q0 -84 -29 -139zM528 1909q0 80 135 107l246 -230l-49 -71l-215 110q-66 -14 -111 57q-6 12 -6 27z" />
<glyph unicode="&#xf3;" d="M-29 772q0 276 138 567q20 47 136.5 100.5t143.5 121.5q174 86 389 86q219 0 416 -88q170 -78 244 -238q51 -115 63 -320q18 -311 23 -327q-55 -219 -226 -398q-186 -194 -428 -247q-70 -16 -143 -17q-268 0 -549 203q-207 225 -207 557zM145 678q51 -53 88 -166 q41 -131 70 -172q57 -86 182 -109q113 -23 209 -22q170 0 287 67q-8 37 35 37h17h18q39 0 57 19q205 188 205 373q0 80 -39 155q14 39 30.5 83t18.5 83q16 31 16 61q0 51 -53 121q-86 113 -86 115q-158 127 -342 127q-78 0 -147 -27q-25 4 -49 4q-47 0 -138.5 -27.5 t-140.5 -27.5q-139 -170 -215 -358q-4 -37 0 -99q6 -74 6 -98q0 -84 -29 -139zM567 1759l49 -71l215 110q66 -14 111 57q6 14 6 29q0 80 -135 105z" />
<glyph unicode="&#xf4;" d="M-29 772q0 276 138 567q20 47 136.5 100.5t143.5 121.5q174 86 389 86q219 0 416 -88q170 -78 244 -238q51 -115 63 -320q18 -311 23 -327q-55 -219 -226 -398q-186 -194 -428 -247q-70 -16 -143 -17q-268 0 -549 203q-207 225 -207 557zM145 678q51 -53 88 -166 q41 -131 70 -172q57 -86 182 -109q113 -23 209 -22q170 0 287 67q-8 37 35 37h17h18q39 0 57 19q205 188 205 373q0 80 -39 155q14 39 30.5 83t18.5 83q16 31 16 61q0 51 -53 121q-86 113 -86 115q-158 127 -342 127q-78 0 -147 -27q-25 4 -49 4q-47 0 -138.5 -27.5 t-140.5 -27.5q-139 -170 -215 -358q-4 -37 0 -99q6 -74 6 -98q0 -84 -29 -139zM364 1792q51 76 175 165t208 110l330 -262q-8 -96 -104 -117q-115 141 -240 221q-16 0 -115 -84q-59 -49 -119 -98q-31 -10 -55 -10q-68 0 -80 75z" />
<glyph unicode="&#xf5;" d="M-29 770q0 276 138 567q20 47 136.5 100.5t143.5 121.5q174 86 389 86q219 0 416 -88q170 -78 244 -238q51 -115 63 -320q18 -311 23 -327q-55 -219 -226 -398q-186 -194 -428 -247q-70 -16 -143 -17q-268 0 -549 203q-207 225 -207 557zM145 676q51 -53 88 -166 q41 -131 70 -172q57 -86 182 -109q113 -23 209 -22q170 0 287 67q-8 37 35 37h17h18q39 0 57 19q205 188 205 373q0 80 -39 155q14 39 30.5 83t18.5 83q16 31 16 61q0 51 -53 121q-86 113 -86 115q-158 127 -342 127q-78 0 -147 -27q-25 4 -49 4q-47 0 -138.5 -27.5 t-140.5 -27.5q-139 -170 -215 -358q-4 -37 0 -99q6 -74 6 -98q0 -84 -29 -139zM409 1751q96 160 189 160q66 0 161 -49q18 -10 34 -19.5t42 -9.5q37 0 83 25.5t69 58.5q84 -8 94 -96q-20 -31 -47 -52q-39 -29 -76 -55q-55 -12 -98 -12t-73 14t-53.5 26.5t-129.5 59.5 q-55 -23 -58.5 -26t-25.5 -64q-41 -25 -70 -25q-45 0 -41 64z" />
<glyph unicode="&#xf6;" d="M-29 772q0 276 138 567q20 47 136.5 100.5t143.5 121.5q174 86 389 86q219 0 416 -88q170 -78 244 -238q51 -115 63 -320q18 -311 23 -327q-55 -219 -226 -398q-186 -194 -428 -247q-70 -16 -143 -17q-268 0 -549 203q-207 225 -207 557zM145 678q51 -53 88 -166 q41 -131 70 -172q57 -86 182 -109q113 -23 209 -22q170 0 287 67q-8 37 35 37h17h18q39 0 57 19q205 188 205 373q0 80 -39 155q14 39 30.5 83t18.5 83q16 31 16 61q0 51 -53 121q-86 113 -86 115q-158 127 -342 127q-78 0 -147 -27q-25 4 -49 4q-47 0 -138.5 -27.5 t-140.5 -27.5q-139 -170 -215 -358q-4 -37 0 -99q6 -74 6 -98q0 -84 -29 -139zM346 1759q-4 -20 5 -40.5t30 -20.5q57 2 86 -2q4 -6 10 -6q4 0 14.5 6t16.5 4q6 0 20.5 -2t22.5 -2q8 2 16 12q14 23 15 66q-2 61 0 71q-8 8 -9 19q0 8 5.5 24.5t5.5 24.5q0 16 -21 23 q-53 6 -106 6q-45 12 -70 6h-10q-8 0 -11.5 -3t-9.5 -1q-4 -8 -4 -19q0 -18 11.5 -56t11.5 -56q0 -33 -29 -54zM858 1911q0 16 20 22q53 6 107 7q45 14 70 6h10q8 0 11 -2t9 -2q4 -8 4 -19q0 -18 -11 -56t-11 -54q0 -35 29 -56q4 -18 -5.5 -39.5t-29.5 -21.5q-57 2 -86 -2 q-4 -4 -11 -4q-4 0 -14 6t-16 2q-6 0 -23 -2q-12 -2 -20 0t-17 10q-14 23 -14 68q2 61 0 69q8 8 8 21q0 8 -5 24.5t-5 22.5z" />
<glyph unicode="&#xf7;" horiz-adv-x="1214" d="M2 731q6 57 2 78q74 -2 225 6q39 -20 131 -6q166 25 310 25q72 0 132 -6.5t52 -6.5q10 -10 59 0q37 8 37 -39q12 -80 -49 -80q-12 0 -39.5 4.5t-42.5 4.5q-25 0 -37 -13q-66 -20 -155 -20q-37 0 -111 4t-110 4q-158 0 -254 -72q-10 4 -25 4q-12 0 -36.5 -6t-35.5 -6 q-35 0 -45 47q-12 31 -8 78zM319 1151q0 16 21 23q53 6 106 6q45 12 70 6h10q8 0 11.5 -3t9.5 -1q4 -8 4 -19q0 -18 -11.5 -56t-11.5 -56q0 -33 29 -54q4 -20 -5 -40.5t-30 -20.5q-57 2 -86 -2q-4 -6 -10 -6q-4 0 -14.5 6t-16.5 4q-6 0 -20.5 -2t-22.5 -2q-8 2 -16 12 q-14 23 -14 66q2 61 0 71q8 8 8 19q0 8 -5.5 24.5t-5.5 24.5zM336 496q0 16 22 22q53 6 107 6q45 14 70 6h10q8 0 11 -2t9 -2q2 -8 2 -18q0 -18 -10 -56t-10 -57q0 -33 28 -53q4 -18 -5 -39.5t-29 -21.5q-59 2 -86 -2q-4 -6 -11 -7q-6 0 -15 6.5t-15 4.5q-6 0 -23 -2 q-14 -2 -20 0q-10 2 -17 10q-14 23 -14 65q2 63 0 72q6 8 6 18t-5 26.5t-5 23.5z" />
<glyph unicode="&#xf8;" horiz-adv-x="1669" d="M33 655q0 242 125 498q18 41 125.5 88t130.5 107q160 76 356 75q166 0 320 -53q16 33 45 88q2 25 51 44.5t94 19.5q25 0 35 -6q10 -14 19 -62.5t22 -60.5q-96 -33 -96 -64q0 -10 11 -29.5t9 -31.5q209 -299 209 -563q0 -285 -234 -494q-182 -166 -401 -211 q-57 -12 -121 -12q-147 0 -289 55q-8 4 -20 4q-25 0 -108 -51t-128 -51q-49 0 -82 53q-8 43 52 113q53 63 67 63l2 -2q-2 -2 -6 -8q-188 199 -188 491zM190 569q47 -43 78 -133q41 -119 56 -145q-8 -16 -9 -23q0 -2 2 -2q10 0 252 375q273 422 365 537q-18 6 -90 39 q-47 20 -80 20q-27 0 -55 -10q-23 4 -43 4q-45 0 -129 -23.5t-129 -25.5q-125 -150 -197 -316q-2 -33 2 -86q4 -66 4 -88q0 -72 -27 -123zM444 43zM489 176q111 -35 216 -35q123 0 235 47q8 -2 18 -2q51 0 127 72q39 45 80 88q139 123 140 328q0 205 -152 442 q-39 -61 -283 -411q-297 -428 -381 -529zM1090 1370z" />
<glyph unicode="&#xf9;" horiz-adv-x="1705" d="M-10 1112q-2 131 37 451l161 34q8 -23 9 -51q0 -31 -17 -104q-14 -66 -10 -99q12 -109 35 -520q16 -330 57 -520q63 -106 256 -115q68 6 137.5 13.5t100.5 52.5q39 39 141 221q18 121 18 281q0 78 -6 235.5t-6 235.5q0 76 4 139q6 14 6 29q0 29 -37.5 69.5t-37.5 65.5 q0 16 12 33q-8 16 -8 26q0 27 39 37q4 2 73 12q119 4 217 -26q0 -131 -53 -410q-49 -256 -41 -391q6 -102 -28 -254q-43 -180 -48 -246q-35 -35 -76.5 -115.5t-72.5 -111.5q-51 -51 -135 -59q-80 -25 -180 -25q-137 0 -265 43q-147 80 -206 213q-45 104 -46 270 q0 53 5.5 160t5.5 160q0 162 -41 266zM340 1886q0 80 135 107l246 -230l-49 -71l-215 110q-66 -14 -111 57q-6 12 -6 27z" />
<glyph unicode="&#xfa;" horiz-adv-x="1705" d="M-10 1112q-2 131 37 451l161 34q8 -23 9 -51q0 -31 -17 -104q-14 -66 -10 -99q12 -109 35 -520q16 -330 57 -520q63 -106 256 -115q68 6 137.5 13.5t100.5 52.5q39 39 141 221q18 121 18 281q0 78 -6 235.5t-6 235.5q0 76 4 139q6 14 6 29q0 29 -37.5 69.5t-37.5 65.5 q0 16 12 33q-8 16 -8 26q0 27 39 37q4 2 73 12q119 4 217 -26q0 -131 -53 -410q-49 -256 -41 -391q6 -102 -28 -254q-43 -180 -48 -246q-35 -35 -76.5 -115.5t-72.5 -111.5q-51 -51 -135 -59q-80 -25 -180 -25q-137 0 -265 43q-147 80 -206 213q-45 104 -46 270 q0 53 5.5 160t5.5 160q0 162 -41 266zM350 1761l49 -71l215 110q66 -14 111 58q6 14 6 26q0 82 -135 107z" />
<glyph unicode="&#xfb;" horiz-adv-x="1705" d="M-10 1112q-2 131 37 451l161 34q8 -23 9 -51q0 -31 -17 -104q-14 -66 -10 -99q12 -109 35 -520q16 -330 57 -520q63 -106 256 -115q68 6 137.5 13.5t100.5 52.5q39 39 141 221q18 121 18 281q0 78 -6 235.5t-6 235.5q0 76 4 139q6 14 6 29q0 29 -37.5 69.5t-37.5 65.5 q0 16 12 33q-8 16 -8 26q0 27 39 37q4 2 73 12q119 4 217 -26q0 -131 -53 -410q-49 -256 -41 -391q6 -102 -28 -254q-43 -180 -48 -246q-35 -35 -76.5 -115.5t-72.5 -111.5q-51 -51 -135 -59q-80 -25 -180 -25q-137 0 -265 43q-147 80 -206 213q-45 104 -46 270 q0 53 5.5 160t5.5 160q0 162 -41 266zM178 1775q51 76 175 165t208 110l330 -262q-8 -96 -104 -117q-115 141 -240 221q-16 0 -115 -84q-59 -49 -119 -98q-31 -10 -55 -10q-68 0 -80 75z" />
<glyph unicode="&#xfc;" horiz-adv-x="1705" d="M-10 1112q-2 131 37 451l161 34q8 -23 9 -51q0 -31 -17 -104q-14 -66 -10 -99q12 -109 35 -520q16 -330 57 -520q63 -106 256 -115q68 6 137.5 13.5t100.5 52.5q39 39 141 221q18 121 18 281q0 78 -6 235.5t-6 235.5q0 76 4 139q6 14 6 29q0 29 -37.5 69.5t-37.5 65.5 q0 16 12 33q-8 16 -8 26q0 27 39 37q4 2 73 12q119 4 217 -26q0 -131 -53 -410q-49 -256 -41 -391q6 -102 -28 -254q-43 -180 -48 -246q-35 -35 -76.5 -115.5t-72.5 -111.5q-51 -51 -135 -59q-80 -25 -180 -25q-137 0 -265 43q-147 80 -206 213q-45 104 -46 270 q0 53 5.5 160t5.5 160q0 162 -41 266zM115 1769q-6 -18 6 -38.5t33 -20.5q66 2 94 -2q6 -4 14 -4q4 0 15.5 5t17.5 3q6 0 24 -2q16 -2 23 0q12 2 18 10q16 23 17 66q-2 59 0 67q-8 8 -8 19q0 8 6 24.5t6 22.5q0 16 -25 23q-59 6 -118 6q-49 12 -78 6h-13q-6 0 -10 -2t-12 -2 q-2 -8 -2 -19q0 -18 12 -55t12 -53q0 -33 -32 -54zM684 1919q0 16 25 23q59 6 118 6q49 12 78 6h13q8 0 12 -4q4 -2 10 0q2 -10 2 -21q0 -16 -12 -53t-12 -53q0 -33 34 -54q4 -20 -7 -39.5t-32 -19.5q-66 0 -96 -2q-6 -6 -12 -6t-17.5 6t-15.5 4q-8 0 -24.5 -2t-24.5 -2 q-10 2 -18 12q-16 20 -17 64q2 59 0 69q8 8 8 19q0 8 -6 24.5t-6 22.5z" />
<glyph unicode="&#xfd;" horiz-adv-x="1202" d="M4 1202q12 55 4 92q16 6 39 6q10 0 59 -6q37 -4 62 0q86 -66 162 -192q100 -168 133 -205l12 -41q10 -23 29 -35q10 18 248 453q31 27 190 16l-12 -90q-11 -53 -70 -47q-66 -49 -108 -152q-55 -131 -74 -159q-143 -281 -406 -842l-161 2q-8 27 -9 53q0 80 124 190.5 t132 192.5q4 37 45 119t41 125q0 57 -54 103t-173 223q-98 141 -213 194zM184 1491q18 -16 37 -33q27 -23 25 -31q25 -29 98 -79q88 -63 90 -66q18 -16 41 -14h29q145 125 233 168q-10 96 -69 106q-27 -33 -52 -65q-57 -63 -120 -105q-31 0 -67 29t-67 59q-53 53 -53 68 q0 2 2 4q-35 20 -57 20q-23 0 -37 -26.5t-27 -22.5q-4 -6 -6 -12z" />
<glyph unicode="&#xfe;" horiz-adv-x="1046" d="M-6 6q94 -8 186 0v250q283 41 441 190q145 139 145 334q0 102 -127 191q-115 78 -256 100q-180 29 -231 29v166q0 20 6 110l-37 37q-25 23 -51 23q-33 0 -72 -35q12 -424 -4 -1395zM147 973q84 0 211 -41q115 -37 138 -31q68 16 125 -135q8 -23 8 -47q0 -59 -42 -116.5 t-89 -74.5q-39 -16 -338 -94q2 -25 4 -39v11q-1 73 -17 567z" />
<glyph unicode="&#xff;" horiz-adv-x="1400" d="M0 1516q16 68 6 114q20 8 47 8q12 0 72 -6q47 -6 76 0q104 -84 198 -243q123 -211 162 -259q14 -51 17 -51q10 -29 32 -45q68 113 156 283q74 145 147 289q33 29 117 28q6 0 117 -8q-6 -57 -12 -115q-14 -65 -88 -57q-80 -63 -132 -190q-68 -166 -92 -203 q-127 -264 -256 -529q-143 -303 -239 -532l-197 4q-10 35 -10 66q0 102 147 239q156 141 166 244q6 47 58 154q47 98 47 151q0 74 -69 134.5t-148 178.5q-100 154 -129 191q-84 102 -193 154zM213 1779q-4 -20 5 -40.5t30 -20.5q57 2 86 -2q4 -6 10 -6q4 0 14.5 6t16.5 4 q6 0 20.5 -2t22.5 -2q8 2 16 12q14 23 15 66q-2 61 0 71q-8 8 -9 19q0 8 5.5 24.5t5.5 24.5q0 16 -21 23q-53 6 -106 6q-45 12 -70 6h-10q-8 0 -11.5 -3t-9.5 -1q-4 -8 -4 -19q0 -18 11.5 -56t11.5 -56q0 -33 -29 -54zM725 1931q0 16 20 22q53 6 107 7q45 14 70 6h10 q8 0 11 -2t9 -2q4 -8 4 -19q0 -18 -11 -56t-11 -54q0 -35 29 -56q4 -18 -5.5 -39.5t-29.5 -21.5q-57 2 -86 -2q-4 -4 -11 -4q-4 0 -14 6t-16 2q-6 0 -23 -2q-12 -2 -20 0t-17 10q-14 23 -14 68q2 61 0 69q8 8 8 21q0 8 -5 24.5t-5 22.5z" />
<glyph unicode="&#x152;" horiz-adv-x="2152" d="M-6 793q0 -332 172 -560q246 -205 426 -204q53 0 110 14q199 51 297 117q78 51 121 135q35 82 68 166q-31 -96 -31 -240q0 -106 17 -221q109 6 835 27q10 57 0 166q-31 4 -201 10q-33 2 -69 6q-20 10 -49 10q-33 0 -116 -22.5t-122 -22.5q-129 0 -135 207q27 41 26 94 q0 39 -19 118t-19 120q0 45 18 84q66 33 190 32q27 0 82.5 -2t81.5 -2q154 0 226 54q-6 35 -13 69q-12 51 -47 68q-92 -14 -186 -29q-100 -14 -176 -14q-68 0 -142 12q4 41 4 92q0 12 -20 346q25 23 84 23q10 0 31 -2h30q66 0 86 33l336 18q35 12 35 41q0 37 -63 102 l-645 -45l-17 -278q-68 102 -180 215q-209 113 -408 112q-150 0 -268 -67q-20 -68 -117 -121q-102 -53 -121 -100q-113 -287 -112 -561zM150 731q27 57 26 139q0 25 -6 99q-2 61 0 96q61 182 172 342q8 0 139 56.5t226 56.5q311 0 387 -570q-33 -721 -379 -721 q-68 0 -160 29q-57 20 -117 39q-104 25 -153 106q-25 39 -60 166q-31 111 -75 162z" />
<glyph unicode="&#x153;" horiz-adv-x="1832" d="M-29 612q0 219 88 451q14 39 91 81t94 95q90 55 207 55q154 0 315 -90l121 -186q14 92 31 237q14 12 34 13q6 0 19.5 -2t21.5 -2q16 0 31 8q23 2 516 18q16 -16 16 -35q0 -6 -4 -22t-4 -27q0 -10 2 -20l-333 -6q-18 -29 -82 -35t-84 -27q12 -215 0 -362q23 -4 47 -4 q70 0 180 41q125 47 180 55q27 -14 27 -51v-56q-63 -47 -201 -73q-154 -31 -207 -60q-23 -49 -10 -123q16 -115 16 -120q0 -49 -22 -86q-6 -27 -6 -46q0 -72 110 -71h28.5h29.5q70 0 100 -19q82 2 260 -16q8 -25 8 -61l2 -64q-82 -2 -182 -2h-166q-188 0 -332 -10 q-31 221 -30 252q0 59 14 104q-29 -70 -57 -139q-37 -72 -101 -119q-82 -57 -233 -98q-39 -10 -74 -10q-84 0 -172 59q-39 25 -156 127q-133 180 -133 446zM106 645q0 -244 103 -373q80 -104 184 -104q41 0 66 18q12 -20 47 -20q47 0 94 33q55 35 84 100q109 150 109 281 q0 61 -25 120q-53 422 -268 422q-104 0 -197 -82q-14 -23 -102 -108q-68 -66 -84 -125q-10 -86 -11 -162z" />
<glyph unicode="&#x178;" horiz-adv-x="1415" d="M2 1516q16 68 6 114q20 10 47 10q12 0 72 -8q47 -4 76 0q104 -84 198 -243q123 -209 162 -259q16 -51 17 -51q10 -29 32 -45q68 113 156 285q74 143 147 287q33 29 117 28q6 0 117 -8q-6 -57 -12 -115q-14 -65 -88 -57q-80 -63 -131 -190q-68 -166 -93 -203 q-127 -264 -256 -529q-143 -303 -239 -532l-197 4q-10 35 -10 66q0 102 151.5 241.5t161.5 241.5q6 47 58 154q47 98 47 153q0 72 -69 132.5t-146 181.5q-102 154 -131 190q-84 100 -193 152zM285 1927q0 16 22 23q53 6 107 6q43 14 69 6h11q8 0 11 -2t9 -2q2 -8 2 -19 q0 -18 -11 -56t-11 -54q0 -35 30 -55q4 -18 -5 -40t-30 -22q-59 2 -86 -2q-6 -4 -10 -4q-6 0 -15 6t-16 2q-6 0 -22 -2q-14 -2 -21 0q-10 2 -16 10q-14 23 -14 68q2 61 0 70q6 8 6 20q0 8 -5 24.5t-5 22.5zM633 1931q0 16 22 23q53 6 107 6q43 14 69 6h11q8 0 11 -2t9 -2 q2 -8 2 -18q0 -18 -11 -55.5t-11 -55.5q0 -33 30 -53q4 -18 -6 -40t-28 -22q-59 2 -86 -2q-6 -4 -11 -4q-6 0 -16 6t-14 2q-6 0 -21.5 -2t-21.5 -2q-10 2 -17 13q-14 23 -14 67q2 61 0 70q6 8 6 18q0 8 -5 24.5t-5 22.5z" />
<glyph unicode="&#x2c6;" horiz-adv-x="997" d="M12 1468q51 76 175 165t208 110l330 -262q-8 -96 -104 -117q-115 141 -240 221q-16 0 -115 -84q-59 -49 -119 -98q-31 -10 -55 -10q-68 0 -80 75z" />
<glyph unicode="&#x2dc;" horiz-adv-x="862" d="M12 1620q96 160 189 160q66 0 161 -49q18 -10 34 -19.5t42 -9.5q37 0 83 25.5t69 58.5q84 -8 94 -96q-20 -31 -47 -52q-39 -29 -76 -55q-55 -12 -98 -12t-73 14t-53.5 26.5t-129.5 59.5q-55 -23 -58.5 -26t-25.5 -64q-41 -25 -70 -25q-45 0 -41 64z" />
<glyph unicode="&#x2000;" horiz-adv-x="1036" />
<glyph unicode="&#x2001;" horiz-adv-x="2073" />
<glyph unicode="&#x2002;" horiz-adv-x="1036" />
<glyph unicode="&#x2003;" horiz-adv-x="2073" />
<glyph unicode="&#x2004;" horiz-adv-x="691" />
<glyph unicode="&#x2005;" horiz-adv-x="518" />
<glyph unicode="&#x2006;" horiz-adv-x="345" />
<glyph unicode="&#x2007;" horiz-adv-x="345" />
<glyph unicode="&#x2008;" horiz-adv-x="259" />
<glyph unicode="&#x2009;" horiz-adv-x="414" />
<glyph unicode="&#x200a;" horiz-adv-x="115" />
<glyph unicode="&#x2010;" horiz-adv-x="1214" d="M6 778q0 12 4 64q2 39 0 61q78 -2 238 8q41 -25 137 -8q72 14 170 17q61 2 178 2q121 -2 172 -2q10 -12 62 0q41 10 41 -48q12 -98 -52 -98q-14 0 -43.5 5t-44.5 5q-25 0 -39 -14q-57 -20 -131 -20q-51 0 -151.5 14t-149.5 14q-133 0 -223 -80q-18 10 -37 11 q-10 0 -30.5 -3.5t-32.5 -3.5q-27 0 -58 13q-10 27 -10 63z" />
<glyph unicode="&#x2011;" horiz-adv-x="1214" d="M6 778q0 12 4 64q2 39 0 61q78 -2 238 8q41 -25 137 -8q72 14 170 17q61 2 178 2q121 -2 172 -2q10 -12 62 0q41 10 41 -48q12 -98 -52 -98q-14 0 -43.5 5t-44.5 5q-25 0 -39 -14q-57 -20 -131 -20q-51 0 -151.5 14t-149.5 14q-133 0 -223 -80q-18 10 -37 11 q-10 0 -30.5 -3.5t-32.5 -3.5q-27 0 -58 13q-10 27 -10 63z" />
<glyph unicode="&#x2012;" horiz-adv-x="1214" d="M6 778q0 12 4 64q2 39 0 61q78 -2 238 8q41 -25 137 -8q72 14 170 17q61 2 178 2q121 -2 172 -2q10 -12 62 0q41 10 41 -48q12 -98 -52 -98q-14 0 -43.5 5t-44.5 5q-25 0 -39 -14q-57 -20 -131 -20q-51 0 -151.5 14t-149.5 14q-133 0 -223 -80q-18 10 -37 11 q-10 0 -30.5 -3.5t-32.5 -3.5q-27 0 -58 13q-10 27 -10 63z" />
<glyph unicode="&#x2013;" horiz-adv-x="1312" d="M-10 690q0 20 39 78q76 4 235 6q35 0 92 -6q49 -6 64 -4l270 22q31 2 60 2q98 0 141 -30q45 0 103 5l59 5q45 -39 45 -82q0 -37 -45 -61q-31 4 -183 6q-162 4 -204 -2l-248 -31q-4 -2 -23 -2q-129 0 -379 53q-27 16 -26 41z" />
<glyph unicode="&#x2014;" horiz-adv-x="2596" d="M39 729q0 33 22 55q-23 0 140 7q102 4 137 -11q29 -12 133 -8q92 4 186 8l879 19q4 0 90 4q72 4 107 4q53 -2 51 -12q-6 -45 137 -45q68 0 153 9t60 9q35 -37 35 -74q0 -41 -35 -69q-131 16 -592 4q6 0 -86 4q-98 6 -174 6q-170 0 -223 -25q-41 -18 -373 -10 q-123 -4 -348 10q-211 13 -252 11q-47 51 -47 104z" />
<glyph unicode="&#x2018;" horiz-adv-x="423" d="M-6 1397q21 67 164 73l114 -391q-12 -12 -79 -37q-141 197 -199 355z" />
<glyph unicode="&#x2019;" horiz-adv-x="393" d="M2 1081l115 392q119 -33 164 -74q-47 -66 -99 -182q-45 -106 -100 -173q-12 -4 -23 -4q-43 0 -57 41z" />
<glyph unicode="&#x201a;" horiz-adv-x="327" d="M20 -154q18 49 54 154q16 53 61 238q135 2 164 -74q-117 -250 -140.5 -250t-58.5 -104q-18 20 -30 20q-4 0 -8.5 -3t-8.5 -3q-15 -1 -33 22z" />
<glyph unicode="&#x201c;" horiz-adv-x="884" d="M6 1405q29 -59 55 -78q39 -25 68 -61q45 -31 82 -66q29 -27 45 -35t31 -8q20 0 43 19l28 24l-229 285q-76 -8 -98.5 -21.5t-24.5 -58.5zM324 1370q88 -57 157 -137q37 -47 76 -96q50 2 70 55l-183 278q-78 -18 -120 -100z" />
<glyph unicode="&#x201d;" horiz-adv-x="813" d="M-2 1198l182 279q78 -18 121 -101q-88 -59 -158 -137q-39 -49 -75 -96q-50 2 -70 55zM266 1206l230 285q74 -10 94 -21q27 -16 28 -59q-29 -61 -57 -78q-39 -25 -65 -61q-47 -31 -84 -68q-27 -25 -43.5 -33t-30.5 -8q-20 0 -43 19q-15 12 -29 24z" />
<glyph unicode="&#x201e;" horiz-adv-x="624" d="M37 -92l90 -27l184 279q-18 47 -53 61q-25 10 -102 17q-53 -238 -82 -238q-41 0 -37 -92zM127 -119q96 133 184 279zM285 -94q23 57 45 114q51 119 121 218q84 -23 145 -99q-106 -121 -236 -280q-42 -6 -75 47z" />
<glyph unicode="&#x2022;" horiz-adv-x="614" d="M170 860q0 16 23 23q51 6 106 6q43 14 70 6h10q6 0 10 -2t10 -2q2 -8 -4 -49q-10 -47 -10 -72q0 -47 25 -63q4 -18 -6.5 -40t-28.5 -22q-59 2 -86 -2q-6 -4 -10 -4q-6 0 -16.5 6t-14.5 2q-6 0 -23 -2q-14 -2 -20 0q-10 2 -17 10q-16 23 -14 68q2 61 0 70q6 8 6 20 q0 8 -5 24.5t-5 22.5z" />
<glyph unicode="&#x2026;" horiz-adv-x="1748" d="M39 221q0 16 22 23q51 6 107 6q43 14 70 6h10q6 0 10 -2t10 -2q2 -8 2 -19q0 -18 -11 -56t-11 -56q0 -33 31 -53q4 -18 -6.5 -40t-28.5 -22q-59 2 -86 -2q-6 -6 -13 -6q-4 0 -14 6t-14 4q-8 0 -25 -2q-12 -2 -18 0q-10 2 -17 10q-16 23 -14 68v70q6 8 6 18t-5 26.5 t-5 22.5zM596 59q-4 -18 6 -39.5t29 -21.5q59 2 86 -2q6 -6 10 -6q6 0 16.5 6t14.5 4q6 0 21.5 -2t21.5 -2q10 2 16 12q16 23 14 66q-2 63 0 71q-6 8 -6 19q0 8 5.5 25.5t5.5 23.5q0 16 -23 23q-51 6 -106 6q-43 14 -70 6h-10q-6 0 -10.5 -3t-10.5 -1q-2 -8 -2 -19 q0 -18 11.5 -56t11.5 -56q0 -33 -31 -54zM1157 203q0 16 23 22q51 6 106 6q43 14 70 7h10q6 0 10 -2.5t10 -2.5q2 -8 3 -18q0 -18 -11.5 -56t-11.5 -55q0 -35 31 -55q2 -18 -7.5 -39.5t-27.5 -21.5q-59 2 -86 -2q-6 -4 -12 -4q-4 0 -14.5 6t-14.5 2q-8 0 -25 -2 q-12 -2 -20 0t-14 10q-16 23 -15 68v69q6 8 6 21q0 8 -5 24.5t-5 22.5z" />
<glyph unicode="&#x202f;" horiz-adv-x="414" />
<glyph unicode="&#x2039;" horiz-adv-x="655" d="M-6 692q131 150 348 420q12 2 25 2q49 0 67 -51q6 -27 10 -53q-14 -47 -138 -157t-138 -151q53 -68 272 -286q8 -16 9 -35q0 -35 -19.5 -61.5t-48.5 -26.5q-18 0 -39 12q-45 72 -86 127q-100 129 -150 140.5t-79 58.5q-16 31 -33 61z" />
<glyph unicode="&#x203a;" horiz-adv-x="655" d="M16 391q0 -33 19.5 -60.5t48.5 -27.5q18 0 39 12q45 72 88 127q98 130 151 142q47 12 76 57q16 31 33 61q-131 152 -348 420q-12 4 -25 4q-49 0 -67 -53q-6 -27 -11 -53q14 -47 138.5 -156.5t138.5 -150.5q-53 -66 -272 -287q-8 -14 -9 -35z" />
<glyph unicode="&#x205f;" horiz-adv-x="518" />
<glyph unicode="&#x2122;" horiz-adv-x="2011" d="M-70 1540q0 35 27 90q61 -8 274 -12q166 -6 248 -27q51 -2 142 8q102 12 141 13q47 0 86 -10q12 -10 12 -27q0 -10 -6 -31t-6 -31q-43 -10 -135 -1.5t-138 -8.5l-102 -6q-29 -35 -29 -84q0 -27 12.5 -84t12.5 -88q0 -41 -16 -74q-6 -25 -7 -51q0 -33 14.5 -97.5 t14.5 -98.5q0 -43 -16 -80q-4 -57 -10 -115q-6 -72 -37 -111q-12 4 -35 0q-29 -6 -35 -6q-20 0 -33 10q-10 57 -3 190.5t-3 192.5q0 39 12 127q10 78 11 121q0 88 -37 160q8 27 22 78q-57 20 -245 10v6q-39 18 -62 -6v6q-25 -2 -67 4q-6 14 -7 33zM815 625q0 39 21 92 q25 66 28 90q29 145 58 293q35 174 47 299q8 16 8 43q0 18 -6 57t-6 55q0 72 86 68q0 -4 18 -37q10 -20 10 -37q47 -43 66 -145q20 -111 44.5 -144.5t55.5 -128.5q27 -82 66 -118l18 -43q25 53 82 157q14 109 76 254q49 123 100 246q20 0 46 -11t44 -11q8 -16 9 -35 q0 -20 -29 -78q57 -268 190 -797q12 -69 -45 -71q-31 0 -50 24.5t-36 46.5q-27 147 -55 293q-33 174 -76 287q-47 -102 -94 -207q-49 -121 -64 -217q-25 -25 -44 -83t-40 -83q-35 -4 -40 27q-4 23 -7 45q-76 147 -170 440l-63 92q-18 -53 -33 -143q-20 -133 -22 -144 q-23 -63 -41.5 -192t-36.5 -188q-23 -12 -84 0q-14 4 -31 4z" />
<glyph unicode="&#x25fc;" horiz-adv-x="1638" d="M0 0v1638h1638v-1638h-1638z" />
</font>
</defs>
</svg>
